<?xml version="1.0" standalone="no"?> <!DOCTYPE svg PUBLIC "-//W3C//DTD SVG 1.0//EN" "http://www.w3.org/TR/2001/REC-SVG-20010904/DTD/svg10.dtd" > <svg xmlns="http://www.w3.org/2000/svg" width="100%" height="100%">
<defs >
<font horiz-adv-x="1216" ><font-face
    font-family="Helvetica"
    units-per-em="2048"
    panose-1="0 0 0 0 0 0 0 0 0 0"
    ascent="1577"
    descent="-471"
    alphabetic="0" />
<missing-glyph horiz-adv-x="1298" d="M66 0V1469H1232V0H66ZM1048 184V1285H250V184H1048Z" />
<glyph unicode=" " glyph-name="space" horiz-adv-x="569" />
<glyph unicode="!" glyph-name="exclam" horiz-adv-x="569" d="M237 1469H440V986L391 350H289L237 986V1469ZM237 208H436V0H237V208Z" />
<glyph unicode="&quot;" glyph-name="quotedbl" horiz-adv-x="727" d="M606 1469L576 881H455L424 1469H606ZM263 1469L234 881H113L82 1469H263Z" />
<glyph unicode="#" glyph-name="numbersign" horiz-adv-x="1139" d="M30 561H263L357 905H125L156 1021H388L507 1469H656L535 1021H756L879 1469H1026L905 1021H1137L1106 905H874L779 561H1012L981 445H751L628 0H481L602 445H379L260 0H111L232 445H0L30 561ZM630
561L725 905H504L412 561H630Z" />
<glyph unicode="$" glyph-name="dollar" horiz-adv-x="1139" d="M782 112T847 229Q881 289 881 368Q881 493 789 558Q736 596 611 630V104Q782 112 847 229ZM272 970T337 914T514 836V1306Q383 1301 328 1226T272 1069Q272 970 337 914ZM92 1209T203 1331T516
1455V1588H611V1457Q810 1443 916 1340T1028 1066H853Q846 1142 812 1197Q749 1298 611 1303V817Q843 752 926 695Q1061 601 1061 417Q1061 151 888 39Q792 -23 611 -43V-237H516V-43Q225 -24 121 163Q64 264 64 436H241Q249 299 284 236Q346 123 514 109V654Q298
695 195 791T92 1057Q92 1209 203 1331Z" />
<glyph unicode="%" glyph-name="percent" horiz-adv-x="1821" d="M1540 696T1642 594T1744 348Q1744 204 1642 102T1396 0Q1251 0 1149 102T1047 348Q1047 492 1149 594T1396 696Q1540 696 1642 594ZM1251 1426H1362L561 -38H450L1251 1426ZM500 834T560 894T621
1040Q621 1125 561 1185T414 1246Q329 1246 269 1186T208 1040Q208 955 268 895T414 834Q500 834 560 894ZM559 1389T661 1287T763 1040Q763 896 661 794T414 692Q270 692 168 794T66 1040Q66 1184 168 1286T414 1389Q559 1389 661 1287ZM1481 142T1541 202T1602
348Q1602 433 1542 493T1396 554Q1310 554 1250 494T1189 348Q1189 263 1249 203T1396 142Q1481 142 1541 202Z" />
<glyph unicode="&amp;" glyph-name="ampersand" horiz-adv-x="1366" d="M680 965T716 1007Q775 1075 775 1158Q775 1223 732 1270T616 1317Q505 1317 462 1243Q440 1205 440 1160Q440 1099 473 1043T585 898Q680 965 716 1007ZM650 124T730 175T853 289L521 694Q380
600 337 550Q271 475 271 367Q271 250 356 187T539 124Q650 124 730 175ZM328 924T297 997T265 1138Q265 1280 361 1373T618 1467Q771 1467 857 1380T943 1172Q943 1031 854 925Q802 863 680 782L948 462Q975 542 985 581T1007 692H1178Q1161 551 1110 422T1059
317L1320 0H1088L950 168Q868 79 800 38Q681 -34 526 -34Q297 -34 193 89T89 368Q89 535 190 647Q252 715 421 817Q328 924 297 997Z" />
<glyph unicode="&apos;" glyph-name="quotesingle" horiz-adv-x="391" d="M338 1469L305 881H189L156 1469H338Z" />
<glyph unicode="(" glyph-name="parenleft" horiz-adv-x="682" d="M606 1493Q449 1188 402 1044Q331 825 331 538Q331 248 412 8Q462 -140 609 -418H488Q342 -190 307 -127T231 44Q175 192 153 360Q142 447 142 526Q142 822 235 1053Q294 1200 481 1493H606Z" />
<glyph unicode=")" glyph-name="parenright" horiz-adv-x="682" d="M71 -418Q230 -108 276 34Q346 249 346 538Q346 827 265 1067Q215 1215 68 1493H189Q343 1247 375 1190T446 1031Q494 906 514 784T535 549Q535 253 441 21Q382 -128 196 -418H71Z" />
<glyph unicode="*" glyph-name="asterisk" horiz-adv-x="797" d="M450 1469V1246L668 1322L708 1211L490 1140L625 952L526 881L395 1076L263 881L161 952L298 1140L78 1211L118 1322L334 1244V1469H450Z" />
<glyph unicode="+" glyph-name="plus" horiz-adv-x="1196" d="M92 438V606H528V1045H699V606H1135V438H699V0H528V438H92Z" />
<glyph unicode="," glyph-name="comma" horiz-adv-x="569" d="M170 -209Q239 -197 267 -112Q282 -67 282 -25Q282 -18 282 -13T279 0H170V218H384V16Q384 -103 336 -193T170 -304V-209Z" />
<glyph unicode="-" glyph-name="hyphen" horiz-adv-x="682" d="M85 663H587V478H85V663Z" />
<glyph unicode="." glyph-name="period" horiz-adv-x="569" d="M175 218H384V0H175V218Z" />
<glyph unicode="/" glyph-name="slash" horiz-adv-x="569" d="M466 1469H618L152 0H0L466 1469Z" />
<glyph unicode="0" glyph-name="zero" horiz-adv-x="1139" d="M832 1432T956 1203Q1052 1026 1052 718Q1052 426 965 235Q839 -39 553 -39Q295 -39 169 185Q64 372 64 687Q64 931 127 1106Q245 1432 554 1432Q832 1432 956 1203ZM692 125T775 249T858 711Q858
955 798 1112T565 1270Q406 1270 333 1121T259 680Q259 461 306 328Q378 125 552 125Q692 125 775 249Z" />
<glyph unicode="1" glyph-name="one" horiz-adv-x="1139" d="M196 1014V1152Q391 1171 468 1215T583 1426H725V0H533V1014H196Z" />
<glyph unicode="2" glyph-name="two" horiz-adv-x="1139" d="M74 185T140 322T400 571L592 682Q721 757 773 810Q855 893 855 1000Q855 1125 780 1198T580 1272Q395 1272 324 1132Q286 1057 282 924H99Q102 1111 168 1229Q285 1437 581 1437Q827 1437 940 1304T1054
1008Q1054 836 933 714Q863 643 682 542L545 466Q447 412 391 363Q291 276 265 170H1047V0H64Q74 185 140 322Z" />
<glyph unicode="3" glyph-name="three" horiz-adv-x="1139" d="M278 -39T164 100T49 440H237Q249 301 289 238Q359 125 542 125Q684 125 770 201T856 397Q856 545 766 604T514 663Q496 663 478 663T440 661V820Q468 817 487 816T528 815Q629 815 694 847Q808 903
808 1047Q808 1154 732 1212T555 1270Q375 1270 306 1150Q268 1084 263 962H85Q85 1122 149 1234Q259 1434 536 1434Q755 1434 875 1337T995 1054Q995 922 924 840Q880 789 810 760Q923 729 986 641T1050 424Q1050 219 915 90T532 -39Q278 -39 164 100Z" />
<glyph unicode="4" glyph-name="four" horiz-adv-x="1139" d="M677 507V1156L218 507H677ZM680 0V350H52V526L708 1436H860V507H1071V350H860V0H680Z" />
<glyph unicode="5" glyph-name="five" horiz-adv-x="1139" d="M253 365Q271 211 396 152Q460 122 544 122Q704 122 781 224T858 450Q858 600 767 682T547 764Q454 764 388 728T274 628L118 637L227 1408H971V1234H362L301 836Q351 874 396 893Q476 926 581 926Q778
926 915 799T1052 477Q1052 274 927 119T526 -36Q351 -36 217 62T66 365H253Z" />
<glyph unicode="6" glyph-name="six" horiz-adv-x="1139" d="M839 1438T933 1314T1028 1057H850Q834 1142 799 1190Q734 1280 602 1280Q451 1280 362 1141T263 741Q325 832 419 877Q505 917 611 917Q791 917 925 802T1059 459Q1059 264 932 114T570 -37Q369 -37
223 115T77 629Q77 896 142 1082Q267 1438 599 1438Q839 1438 933 1314ZM728 123T798 218T869 444Q869 554 806 653T577 753Q461 753 374 676T286 444Q286 308 365 216T586 123Q728 123 798 218Z" />
<glyph unicode="7" glyph-name="seven" horiz-adv-x="1139" d="M1071 1408V1251Q1002 1184 888 1018T685 660Q598 473 553 319Q524 220 478 0H279Q347 410 579 816Q716 1054 867 1227H75V1408H1071Z" />
<glyph unicode="8" glyph-name="eight" horiz-adv-x="1139" d="M676 832T743 898T810 1057Q810 1137 746 1204T551 1271Q421 1271 363 1204T305 1047Q305 946 380 889T557 832Q676 832 743 898ZM693 123T775 190T858 392Q858 531 773 603T555 675Q426 675 345
602T263 398Q263 286 337 205T568 123Q693 123 775 190ZM237 795T195 838Q116 918 116 1046Q116 1206 232 1321T561 1436Q767 1436 884 1328T1001 1074Q1001 940 933 857Q895 810 815 765Q904 724 955 671Q1050 571 1050 411Q1050 222 923 91T564 -41Q355 -41 211
72T66 402Q66 529 128 621T312 763Q237 795 195 838Z" />
<glyph unicode="9" glyph-name="nine" horiz-adv-x="1139" d="M272 346Q280 197 387 140Q442 110 511 110Q640 110 731 217T860 654Q800 559 712 521T521 482Q314 482 194 611T73 943Q73 1138 192 1286T543 1434Q856 1434 975 1152Q1041 997 1041 764Q1041 501
962 298Q831 -40 518 -40Q308 -40 199 70T90 346H272ZM652 640T740 710T829 957Q829 1115 750 1192T547 1270Q415 1270 338 1182T260 945Q260 805 328 723T545 640Q652 640 740 710Z" />
<glyph unicode=":" glyph-name="colon" horiz-adv-x="569" d="M227 1057H436V839H227V1057ZM227 218H436V0H227V218Z" />
<glyph unicode=";" glyph-name="semicolon" horiz-adv-x="569" d="M227 -209Q297 -196 324 -116Q338 -74 338 -24Q338 -19 338 -16T336 0H227V218H440V16Q440 -91 409 -163Q357 -281 227 -304V-209ZM227 1057H440V839H227V1057Z" />
<glyph unicode="&lt;" glyph-name="less" horiz-adv-x="1196" d="M28 606L1197 1064V884L241 523L1197 161V-19L28 440V606Z" />
<glyph unicode="=" glyph-name="equal" horiz-adv-x="1196" d="M1135 822V654H92V822H1135ZM1135 393V222H92V393H1135Z" />
<glyph unicode="&gt;" glyph-name="greater" horiz-adv-x="1196" d="M1197 438L28 -19V161L983 523L28 884V1064L1197 606V438Z" />
<glyph unicode="?" glyph-name="question" horiz-adv-x="1139" d="M493 208H692V0H493V208ZM156 1225T278 1356T613 1488Q810 1488 928 1376T1047 1088Q1047 982 1004 916T828 722Q732 629 704 565T675 374H497Q497 517 531 604T680 805L760 884Q796 918 818 955Q858
1020 858 1090Q858 1188 800 1260T606 1332Q439 1332 375 1208Q339 1139 334 1009H156Q156 1225 278 1356Z" />
<glyph unicode="@" glyph-name="at" horiz-adv-x="2079" d="M1249 955T1208 1004T1093 1054Q979 1054 896 920T812 652Q812 554 855 503T963 451Q1098 451 1173 608T1249 893Q1249 955 1208 1004ZM632 -43T406 218Q225 427 225 701Q225 1027 445 1255Q689 1509
1100 1509Q1456 1509 1660 1329Q1851 1159 1851 888Q1851 660 1715 499T1409 337Q1310 337 1263 384T1216 499Q1216 510 1218 522T1223 547Q1170 432 1089 385T922 337Q799 337 723 426T646 655Q646 854 776 1006T1057 1158Q1159 1158 1225 1099T1296 957L1346
1125H1493L1360 687Q1345 636 1338 605T1331 550Q1331 505 1358 485T1421 464Q1535 464 1625 583T1716 894Q1716 1126 1554 1258T1118 1391Q738 1391 537 1169Q365 980 365 694Q365 444 529 274Q721 73 1076 73Q1242 73 1385 125T1647 267L1713 177Q1623 97 1444
27T1050 -43Q632 -43 406 218Z" />
<glyph unicode="A" glyph-name="A" horiz-adv-x="1366" d="M910 602L687 1251L450 602H910ZM583 1469H808L1341 0H1123L974 440H393L234 0H30L583 1469Z" />
<glyph unicode="B" glyph-name="B" horiz-adv-x="1366" d="M708 848Q834 848 904 883Q1014 938 1014 1081Q1014 1225 897 1275Q831 1303 701 1303H346V848H708ZM775 170Q958 170 1036 276Q1085 343 1085 438Q1085 598 942 656Q866 687 741 687H346V170H775ZM151
1469H782Q1040 1469 1149 1315Q1213 1224 1213 1105Q1213 966 1134 877Q1093 830 1016 791Q1129 748 1185 694Q1284 598 1284 429Q1284 287 1195 172Q1062 0 772 0H151V1469Z" />
<glyph unicode="C" glyph-name="C" horiz-adv-x="1479" d="M1054 1509T1208 1362T1379 1028H1185Q1152 1170 1054 1253T777 1336Q560 1336 427 1184T293 716Q293 458 413 298T773 137Q993 137 1108 306Q1169 395 1199 540H1393Q1367 308 1221 151Q1046 -38 749
-38Q493 -38 319 117Q90 322 90 750Q90 1075 262 1283Q448 1509 775 1509Q1054 1509 1208 1362Z" />
<glyph unicode="D" glyph-name="D" horiz-adv-x="1479" d="M720 170Q821 170 886 191Q1002 230 1076 341Q1135 430 1161 569Q1176 652 1176 723Q1176 996 1068 1147T718 1298H365V170H720ZM165 1469H760Q1063 1469 1230 1254Q1379 1060 1379 757Q1379 523 1291
334Q1136 0 758 0H165V1469Z" />
<glyph unicode="E" glyph-name="E" horiz-adv-x="1366" d="M175 1469H1246V1289H369V843H1180V673H369V175H1261V0H175V1469Z" />
<glyph unicode="F" glyph-name="F" horiz-adv-x="1251" d="M175 1469H1194V1289H374V843H1095V668H374V0H175V1469Z" />
<glyph unicode="G" glyph-name="G" horiz-adv-x="1593" d="M998 1507T1149 1427Q1368 1312 1417 1024H1220Q1184 1185 1071 1258T786 1332Q582 1332 443 1179T303 723Q303 461 418 297T793 132Q992 132 1122 247T1256 621H796V786H1441V0H1313L1265 189Q1164 78
1086 35Q955 -39 753 -39Q492 -39 304 130Q99 342 99 712Q99 1081 299 1299Q489 1507 791 1507Q998 1507 1149 1427Z" />
<glyph unicode="H" glyph-name="H" horiz-adv-x="1479" d="M161 1469H362V862H1126V1469H1327V0H1126V687H362V0H161V1469Z" />
<glyph unicode="I" glyph-name="I" horiz-adv-x="569" d="M201 1469H402V0H201V1469Z" />
<glyph unicode="J" glyph-name="J" horiz-adv-x="1024" d="M877 438Q877 252 822 149Q720 -39 434 -39Q269 -39 152 50T35 369V474H222V369Q222 249 275 189T442 128Q601 128 650 237Q680 304 680 490V1469H877V438Z" />
<glyph unicode="K" glyph-name="K" horiz-adv-x="1366" d="M156 1469H350V753L1066 1469H1341L730 877L1358 0H1099L585 737L350 512V0H156V1469Z" />
<glyph unicode="L" glyph-name="L" horiz-adv-x="1139" d="M156 1469H355V175H1099V0H156V1469Z" />
<glyph unicode="M" glyph-name="M" horiz-adv-x="1706" d="M151 1469H436L858 227L1277 1469H1559V0H1370V867Q1370 912 1372 1016T1374 1239L955 0H758L336 1239V1194Q336 1140 338 1030T341 867V0H151V1469Z" />
<glyph unicode="N" glyph-name="N" horiz-adv-x="1479" d="M156 1469H391L1133 279V1469H1322V0H1099L346 1189V0H156V1469Z" />
<glyph unicode="O" glyph-name="O" horiz-adv-x="1593" d="M1179 1509T1366 1259Q1512 1064 1512 760Q1512 431 1345 213Q1149 -43 786 -43Q447 -43 253 181Q80 397 80 727Q80 1025 228 1237Q418 1509 790 1509Q1179 1509 1366 1259ZM1073 135T1190 323T1308 757Q1308
1016 1173 1174T802 1332Q574 1332 430 1176T286 714Q286 470 409 303T810 135Q1073 135 1190 323Z" />
<glyph unicode="P" glyph-name="P" horiz-adv-x="1366" d="M175 1469H836Q1032 1469 1152 1359T1272 1048Q1272 876 1165 749T836 621H374V0H175V1469ZM1071 1209T951 1267Q885 1298 770 1298H374V789H770Q904 789 987 846T1071 1047Q1071 1209 951 1267Z" />
<glyph unicode="Q" glyph-name="Q" horiz-adv-x="1593" d="M1500 4L1400 -117L1173 56Q1091 11 996 -16T787 -43Q445 -43 251 181Q80 399 80 727Q80 1025 228 1237Q418 1509 790 1509Q1179 1509 1366 1259Q1512 1064 1512 760Q1512 618 1477 487Q1424 287 1298
161L1500 4ZM873 135T927 143T1021 177L860 303L960 426L1152 277Q1243 381 1275 510T1308 757Q1308 1016 1173 1174T802 1332Q564 1332 425 1181T286 714Q286 449 419 292T811 135Q873 135 927 143Z" />
<glyph unicode="R" glyph-name="R" horiz-adv-x="1479" d="M839 796Q979 796 1060 852T1142 1054Q1142 1211 1028 1268Q967 1298 865 1298H379V796H839ZM180 1469H860Q1028 1469 1137 1420Q1344 1326 1344 1073Q1344 941 1290 857T1137 722Q1223 687 1266 630T1315
445L1322 248Q1325 164 1336 123Q1354 53 1400 33V0H1156Q1146 19 1140 49T1130 165L1118 410Q1111 554 1011 603Q954 630 832 630H379V0H180V1469Z" />
<glyph unicode="S" glyph-name="S" horiz-adv-x="1366" d="M286 474Q293 349 345 271Q444 125 694 125Q806 125 898 157Q1076 219 1076 379Q1076 499 1001 550Q925 600 763 637L564 682Q369 726 288 779Q148 871 148 1054Q148 1252 285 1379T673 1506Q904 1506
1065 1395T1227 1038H1040Q1025 1156 976 1219Q885 1334 667 1334Q491 1334 414 1260T337 1088Q337 980 427 930Q486 898 694 850L900 803Q1049 769 1130 710Q1270 607 1270 411Q1270 167 1093 62T680 -43Q406 -43 251 97Q96 236 99 474H286Z" />
<glyph unicode="T" glyph-name="T" horiz-adv-x="1251" d="M1225 1469V1294H730V0H528V1294H33V1469H1225Z" />
<glyph unicode="U" glyph-name="U" horiz-adv-x="1479" d="M372 1469V561Q372 401 432 295Q521 135 732 135Q985 135 1076 308Q1125 402 1125 561V1469H1327V644Q1327 373 1254 227Q1120 -39 748 -39Q376 -39 243 227Q170 373 170 644V1469H372Z" />
<glyph unicode="V" glyph-name="V" horiz-adv-x="1366" d="M272 1469L694 218L1111 1469H1334L798 0H587L52 1469H272Z" />
<glyph unicode="W" glyph-name="W" horiz-adv-x="1933" d="M253 1469L530 274L862 1469H1078L1410 274L1687 1469H1905L1519 0H1310L971 1218L630 0H421L37 1469H253Z" />
<glyph unicode="X" glyph-name="X" horiz-adv-x="1366" d="M282 0H42L568 753L75 1469H324L699 907L1071 1469H1308L815 753L1332 0H1085L689 604L282 0Z" />
<glyph unicode="Y" glyph-name="Y" horiz-adv-x="1366" d="M42 1469H274L696 763L1118 1469H1351L796 592V0H597V592L42 1469Z" />
<glyph unicode="Z" glyph-name="Z" horiz-adv-x="1251" d="M47 165L948 1294H113V1469H1204V1298L298 175H1204V0H47V165Z" />
<glyph unicode="[" glyph-name="bracketleft" horiz-adv-x="569" d="M128 1479H512V1332H298V-256H512V-403H128V1479Z" />
<glyph unicode="\" glyph-name="backslash" horiz-adv-x="569" d="M87 1469L658 0H502L-69 1469H87Z" />
<glyph unicode="]" glyph-name="bracketright" horiz-adv-x="569" d="M47 -256H260V1332H47V1479H431V-403H47V-256Z" />
<glyph unicode="^" glyph-name="asciicircum" horiz-adv-x="961" d="M625 1469L978 606H815L549 1268L284 606H120L471 1469H625Z" />
<glyph unicode="_" glyph-name="underscore" horiz-adv-x="1139" d="M0 -256V-155H1139V-256H0Z" />
<glyph unicode="`" glyph-name="grave" horiz-adv-x="682" d="M443 1213H306L38 1502H261L443 1213Z" />
<glyph unicode="a" glyph-name="a" horiz-adv-x="1139" d="M270 207T327 162T462 117Q557 117 646 161Q796 234 796 400V545Q763 524 711 510T609 490L500 476Q402 463 353 435Q270 388 270 285Q270 207 327 162ZM706 649Q768 657 789 701Q801 725 801 770Q801
862 736 903T548 945Q407 945 348 869Q315 827 305 744H137Q142 942 265 1019T552 1097Q741 1097 859 1025Q976 953 976 801V184Q976 156 987 139T1036 122Q1048 122 1063 123T1095 128V-5Q1053 -17 1031 -20T971 -23Q878 -23 836 43Q814 78 805 142Q750 70 647
17T420 -36Q271 -36 177 54T82 281Q82 430 175 512T419 613L706 649Z" />
<glyph unicode="b" glyph-name="b" horiz-adv-x="1139" d="M118 1474H293V941Q352 1018 434 1058T612 1099Q812 1099 936 962T1061 556Q1061 302 938 134T597 -34Q475 -34 391 25Q341 60 284 137V0H118V1474ZM732 125T804 241T877 547Q877 716 805 827T591 938Q468
938 376 847T283 547Q283 396 321 302Q392 125 586 125Q732 125 804 241Z" />
<glyph unicode="c" glyph-name="c" horiz-adv-x="1024" d="M726 1102T839 1014T976 711H801Q785 810 728 875T545 941Q373 941 299 773Q251 664 251 504Q251 343 319 233T533 123Q645 123 710 191T801 379H976Q946 166 826 68T519 -31Q309 -31 184 122T59 506Q59
788 196 945T545 1102Q726 1102 839 1014Z" />
<glyph unicode="d" glyph-name="d" horiz-adv-x="1139" d="M246 351T319 235T553 119Q678 119 758 226T839 535Q839 738 756 835T551 933Q415 933 331 829T246 523Q246 351 319 235ZM640 1090T723 1038Q771 1008 832 933V1474H1005V0H843V149Q780 50 694 6T497
-38Q318 -38 187 112T56 513Q56 747 175 918T517 1090Q640 1090 723 1038Z" />
<glyph unicode="e" glyph-name="e" horiz-adv-x="1139" d="M692 1095T799 1042T962 903Q1016 822 1034 714Q1050 640 1050 478H265Q270 315 342 217T565 118Q706 118 790 211Q838 265 858 336H1035Q1028 277 989 205T900 86Q818 6 697 -22Q632 -38 550 -38Q350
-38 211 107T72 515Q72 773 212 934T578 1095Q692 1095 799 1042ZM865 621Q854 738 814 808Q740 938 567 938Q443 938 359 849T270 621H865Z" />
<glyph unicode="f" glyph-name="f" horiz-adv-x="569" d="M181 1346T216 1398Q279 1490 459 1490Q476 1490 494 1489T535 1486V1322Q507 1324 495 1324T471 1325Q389 1325 373 1283T357 1066H535V924H355V0H177V924H28V1066H177V1234Q181 1346 216 1398Z" />
<glyph unicode="g" glyph-name="g" horiz-adv-x="1139" d="M636 1090T730 1028Q781 993 834 926V1061H1000V87Q1000 -117 940 -235Q828 -453 517 -453Q344 -453 226 -376T94 -133H277Q290 -205 329 -244Q390 -304 521 -304Q728 -304 792 -158Q830 -72 827 149Q773
67 697 27T496 -13Q322 -13 192 110T61 519Q61 788 192 939T510 1090Q636 1090 730 1028ZM834 739T752 835T543 931Q353 931 283 753Q246 658 246 504Q246 323 319 229T517 134Q711 134 790 309Q834 408 834 540Q834 739 752 835Z" />
<glyph unicode="h" glyph-name="h" horiz-adv-x="1139" d="M132 1474H312V926Q376 1007 427 1040Q514 1097 644 1097Q877 1097 960 934Q1005 845 1005 687V0H820V675Q820 793 790 848Q741 936 606 936Q494 936 403 859T312 568V0H132V1474Z" />
<glyph unicode="i" glyph-name="i" horiz-adv-x="455" d="M132 1066H315V0H132V1066ZM132 1469H315V1265H132V1469Z" />
<glyph unicode="j" glyph-name="j" horiz-adv-x="455" d="M312 1261H132V1469H312V1261ZM-38 -271Q83 -267 107 -250T132 -140V1066H312V-159Q312 -276 274 -334Q211 -432 35 -432Q22 -432 8 -431T-38 -427V-271Z" />
<glyph unicode="k" glyph-name="k" horiz-adv-x="1024" d="M128 1469H301V616L763 1071H993L583 670L1016 0H786L452 540L301 402V0H128V1469Z" />
<glyph unicode="l" glyph-name="l" horiz-adv-x="455" d="M137 1469H317V0H137V1469Z" />
<glyph unicode="m" glyph-name="m" horiz-adv-x="1706" d="M132 1071H310V919Q374 998 426 1034Q515 1095 628 1095Q756 1095 834 1032Q878 996 914 926Q974 1012 1055 1053T1237 1095Q1453 1095 1531 939Q1573 855 1573 713V0H1386V744Q1386 851 1333 891T1202
931Q1096 931 1020 860T943 623V0H760V699Q760 808 734 858Q693 933 581 933Q479 933 396 854T312 568V0H132V1071Z" />
<glyph unicode="n" glyph-name="n" horiz-adv-x="1139" d="M132 1071H303V919Q379 1013 464 1054T653 1095Q881 1095 961 936Q1005 849 1005 687V0H822V675Q822 773 793 833Q745 933 619 933Q555 933 514 920Q440 898 384 832Q339 779 326 723T312 561V0H132V1071Z" />
<glyph unicode="o" glyph-name="o" horiz-adv-x="1139" d="M736 116T802 251T869 553Q869 703 821 797Q745 945 559 945Q394 945 319 819T244 515Q244 344 319 230T557 116Q736 116 802 251ZM771 1102T914 964T1057 558Q1057 299 931 130T540 -39Q319 -39 189
110T59 512Q59 782 196 942T564 1102Q771 1102 914 964Z" />
<glyph unicode="p" glyph-name="p" horiz-adv-x="1139" d="M710 121T793 226T877 542Q877 670 840 762Q770 939 584 939Q397 939 328 752Q291 652 291 498Q291 374 328 287Q398 121 584 121Q710 121 793 226ZM118 1066H293V924Q347 997 411 1037Q502 1097 625
1097Q807 1097 934 958T1061 559Q1061 209 878 59Q762 -36 608 -36Q487 -36 405 17Q357 47 298 120V-427H118V1066Z" />
<glyph unicode="q" glyph-name="q" horiz-adv-x="1139" d="M248 382T287 288Q356 121 534 121Q722 121 793 297Q832 394 832 545Q832 684 789 777Q716 936 532 936Q415 936 332 835T248 521Q248 382 287 288ZM647 1095T738 1028Q788 992 834 922V1071H1005V-427H824V123Q779
51 700 9T501 -34Q330 -34 195 100T60 508Q60 765 186 930T514 1095Q647 1095 738 1028Z" />
<glyph unicode="r" glyph-name="r" horiz-adv-x="682" d="M137 1071H308V886Q329 940 411 1017T600 1095Q605 1095 617 1094T658 1090V900Q642 903 629 904T599 905Q463 905 390 818T317 616V0H137V1071Z" />
<glyph unicode="s" glyph-name="s" horiz-adv-x="1024" d="M239 336Q247 246 284 198Q352 111 520 111Q620 111 696 154T772 289Q772 358 711 394Q672 416 557 445L414 481Q277 515 212 557Q96 630 96 759Q96 911 205 1005T500 1099Q742 1099 849 957Q916 867
914 763H744Q739 824 701 874Q639 945 486 945Q384 945 332 906T279 803Q279 733 348 691Q388 666 466 647L585 618Q779 571 845 527Q950 458 950 310Q950 167 842 63T511 -41Q272 -41 173 67T66 336H239Z" />
<glyph unicode="t" glyph-name="t" horiz-adv-x="569" d="M168 1370H350V1071H521V924H350V225Q350 169 388 150Q409 139 458 139Q471 139 486 139T521 142V0Q490 -9 457 -13T384 -17Q258 -17 213 47T168 215V924H23V1071H168V1370Z" />
<glyph unicode="u" glyph-name="u" horiz-adv-x="1139" d="M312 1071V360Q312 278 338 226Q386 130 517 130Q705 130 773 298Q810 388 810 545V1071H990V0H820L822 158Q787 97 735 55Q632 -29 485 -29Q256 -29 173 124Q128 206 128 343V1071H312Z" />
<glyph unicode="v" glyph-name="v" horiz-adv-x="1024" d="M220 1071L506 199L805 1071H1002L598 0H406L11 1071H220Z" />
<glyph unicode="w" glyph-name="w" horiz-adv-x="1479" d="M215 1071L421 227L630 1071H832L1042 232L1261 1071H1441L1130 0H943L725 829L514 0H327L18 1071H215Z" />
<glyph unicode="x" glyph-name="x" horiz-adv-x="1024" d="M30 1071H263L509 694L758 1071L977 1066L616 549L993 0H763L497 402L239 0H11L388 549L30 1071Z" />
<glyph unicode="y" glyph-name="y" horiz-adv-x="1024" d="M801 1071H1000Q962 968 831 601Q733 325 667 151Q511 -259 447 -349T227 -439Q189 -439 169 -436T118 -425V-261Q165 -274 186 -277T223 -280Q273 -280 296 -264T336 -223Q341 -215 372 -141T417 -31L21
1071H225L512 199L801 1071Z" />
<glyph unicode="z" glyph-name="z" horiz-adv-x="1024" d="M52 142L687 910H99V1071H929V924L298 161H948V0H52V142Z" />
<glyph unicode="{" glyph-name="braceleft" horiz-adv-x="684" d="M391 -5Q391 -159 469 -224T640 -301V-418Q462 -400 346 -314T229 -29V177Q229 286 195 349Q133 464 -43 483V597Q134 618 195 728Q229 789 229 903V1066Q229 1254 310 1364T640 1495V1381Q479
1367 422 1239Q391 1169 391 1045V933Q391 783 354 703Q287 558 94 540Q286 523 354 372Q391 289 391 146V-5Z" />
<glyph unicode="|" glyph-name="bar" horiz-adv-x="532" d="M315 0H144V1490H315V0Z" />
<glyph unicode="}" glyph-name="braceright" horiz-adv-x="684" d="M395 558T328 702Q291 782 291 933V1045Q291 1177 260 1245Q204 1367 42 1381V1495Q300 1474 392 1335Q452 1246 452 1066V903Q452 791 486 729Q548 616 725 597V483Q549 465 486 348Q452 284
452 177V-29Q452 -231 336 -315T42 -418V-301Q149 -287 220 -216T291 -5V146Q291 290 328 372Q396 523 587 540Q395 558 328 702Z" />
<glyph unicode="~" glyph-name="asciitilde" horiz-adv-x="1196" d="M358 692T390 687Q447 679 500 658L722 571Q773 551 806 541Q859 526 899 526Q972 526 1023 583T1092 725H1208Q1183 583 1110 466T887 349Q842 349 780 367Q744 378 673 405L469 483Q431 498
391 506T324 514Q240 514 192 449Q164 411 135 320H18Q35 403 55 461T125 594Q167 644 215 668T329 692Q358 692 390 687Z" />
</font>
</defs>
</svg>
