<?xml version="1.0" standalone="no"?>
<!DOCTYPE svg PUBLIC "-//W3C//DTD SVG 1.1//EN" "http://www.w3.org/Graphics/SVG/1.1/DTD/svg11.dtd" >
<svg xmlns="http://www.w3.org/2000/svg" xmlns:xlink="http://www.w3.org/1999/xlink" version="1.1">
<metadata>
Created by FontForge 20170731 at Wed Feb  6 03:45:29 2013
 By Aleksey,,,
Copyright (c) 2012 by TypeTogether. All rights reserved.
</metadata>
<defs>
<font id="AdelleSans-Bold" horiz-adv-x="500" >
  <font-face 
    font-family="Adelle Sans"
    font-weight="700"
    font-stretch="normal"
    units-per-em="1000"
    panose-1="2 0 5 3 0 0 0 2 0 4"
    ascent="750"
    descent="-250"
    x-height="521"
    cap-height="724"
    bbox="-99 -246 1000 940"
    underline-thickness="50"
    underline-position="-150"
    unicode-range="U+000D-2122"
  />
<missing-glyph horiz-adv-x="364" 
d="M33 666h265v-666h-265v666zM265 33v600h-199v-600h199z" />
    <glyph glyph-name=".notdef" horiz-adv-x="364" 
d="M33 666h265v-666h-265v666zM265 33v600h-199v-600h199z" />
    <glyph glyph-name=".null" horiz-adv-x="0" 
 />
    <glyph glyph-name=".null" horiz-adv-x="0" 
 />
    <glyph glyph-name="nonmarkingreturn" unicode="&#xd;" horiz-adv-x="333" 
 />
    <glyph glyph-name="space" unicode=" " horiz-adv-x="174" 
 />
    <glyph glyph-name="exclam" unicode="!" horiz-adv-x="290" 
d="M83 197l-19 527h164l-19 -527h-126zM235 68q0 -80 -89 -80q-90 0 -90 80q0 81 90 81q89 0 89 -81z" />
    <glyph glyph-name="quotedbl" unicode="&#x22;" horiz-adv-x="429" 
d="M50 465v259h135v-259h-135zM244 465v259h135v-259h-135z" />
    <glyph glyph-name="numbersign" unicode="#" horiz-adv-x="607" 
d="M299 0l21 139h-87l-21 -139h-104l21 139h-99l21 104h94l17 110h-100l21 105h94l20 135h104l-20 -135h86l20 135h104l-20 -135h101l-20 -105h-96l-17 -110h101l-20 -104h-96l-22 -139h-103zM352 353h-86l-17 -110h87z" />
    <glyph glyph-name="dollar" unicode="$" horiz-adv-x="550" 
d="M272 593q-45 0 -67 -19t-22 -51q0 -43 31 -65q33 -23 99 -41q37 -11 60 -18q22 -8 54 -24q31 -16 49 -36q17 -19 31 -52q13 -32 13 -75q0 -90 -54 -144q-55 -55 -141 -68v-80h-128v80q-167 22 -186 201l132 25q10 -61 36 -88q25 -27 88 -27q48 0 77 21t29 61q0 19 -9 34
t-18 24t-32 18q-22 9 -35 12q-6 2 -16.5 4.5t-26.5 7.5q-44 12 -72 24t-62 35t-50 60q-17 39 -17 90q0 80 48 131t125 69v90h127v-89q160 -19 171 -188l-134 -16q-8 50 -28 72q-21 23 -68 23z" />
    <glyph glyph-name="percent" unicode="%" horiz-adv-x="831" 
d="M187 375q-89 0 -128 48t-39 128q0 88 44 138t132 50q167 0 167 -174q0 -88 -45 -139t-130 -51h-1zM192 462q31 0 45 23q13 22 13 74q0 48 -13 68q-14 21 -45 21q-58 0 -58 -91q0 -50 13 -72t45 -22v-1zM628 -13q-89 0 -128 48t-39 128q0 88 44 138t132 50q167 0 167 -174
q0 -88 -45 -139t-130 -51h-1zM633 74q31 0 45 23q13 22 13 74q0 48 -13 68q-14 21 -45 21q-58 0 -58 -91q0 -50 13 -72t45 -22v-1zM118 -15l438 737h132l-437 -737h-133z" />
    <glyph glyph-name="ampersand" unicode="&#x26;" horiz-adv-x="743" 
d="M535 556q0 -116 -160 -183l-14 -6q58 -80 132 -159q29 56 29 150h133v-12q0 -121 -65 -210q34 -22 72 -22q19 0 39 6l16 -114q-36 -13 -83 -15q-76 0 -152 48q-68 -51 -195 -51q-121 0 -186 58q-66 58 -66 148q0 139 146 201q-35 59 -35 120q0 86 61 135q62 50 156 50
q76 0 126 -34q51 -35 51 -108zM309 96q44 0 75 16q-72 66 -157 189q-42 -35 -42 -93q0 -50 33 -81q32 -31 92 -31h-1zM290 537q0 -39 27 -90q12 6 20 10.5t13 6.5q9 4 27 18q17 13 25 29q7 14 7 35q0 24 -15 39t-42 15q-28 0 -45 -16q-18 -17 -18 -45z" />
    <glyph glyph-name="quotesingle" unicode="'" horiz-adv-x="235" 
d="M50 465v259h135v-259h-135z" />
    <glyph glyph-name="parenleft" unicode="(" horiz-adv-x="363" 
d="M190 -153q-147 211 -147 433q0 223 159 444h156q-74 -110 -114 -213q-40 -102 -40 -229q0 -123 38 -225q37 -101 105 -210h-157z" />
    <glyph glyph-name="parenright" unicode=")" horiz-adv-x="363" 
d="M157 724q147 -212 147 -433q0 -224 -159 -444h-156q73 109 114 213q40 102 40 229q0 123 -38 225q-38 100 -105 210h157z" />
    <glyph glyph-name="asterisk" unicode="*" horiz-adv-x="477" 
d="M289 633l113 27l21 -72l-107 -54l72 -108l-57 -45l-98 92l-95 -95l-58 46l71 110l-109 53l22 72l115 -28l20 124h72z" />
    <glyph glyph-name="plus" unicode="+" horiz-adv-x="570" 
d="M224 121v143h-133v119h133v139h120v-139h134v-119h-134v-143h-120z" />
    <glyph glyph-name="comma" unicode="," horiz-adv-x="244" 
d="M56 132h158l-98 -269l-123 12z" />
    <glyph glyph-name="hyphen" unicode="-" horiz-adv-x="313" 
d="M20 227v129h271v-129h-271z" />
    <glyph glyph-name="period" unicode="." horiz-adv-x="251" 
d="M219 76q0 -88 -93 -88t-93 88q0 89 93 89t93 -89z" />
    <glyph glyph-name="slash" unicode="/" horiz-adv-x="443" 
d="M9 -92l281 847h137l-280 -847h-138z" />
    <glyph glyph-name="zero" unicode="0" horiz-adv-x="585" 
d="M289 -14q-143 0 -200 93t-57 283q0 186 62 280q61 93 206 93q142 0 198 -90q56 -91 56 -274q0 -195 -60 -289t-205 -94v-2zM291 102q59 0 80 58t21 202t-19 198q-19 55 -78 55q-60 0 -82 -57q-22 -56 -22 -198t21 -199t81 -57z" />
    <glyph glyph-name="one" unicode="1" horiz-adv-x="442" 
d="M192 -1v544q-22 -12 -74 -21q-51 -9 -80 -9l-7 128q143 11 209 83h103v-724z" />
    <glyph glyph-name="two" unicode="2" horiz-adv-x="542" 
d="M277 735q106 0 162 -48t56 -138q0 -74 -34 -133q-35 -60 -121 -154l-118 -130v-3h285v-130h-462v126l155 181q93 108 113 141q31 49 31 96q0 76 -81 76q-47 0 -69 -27q-23 -27 -30 -81l-136 23q12 103 78 153q67 50 171 50v-2z" />
    <glyph glyph-name="three" unicode="3" horiz-adv-x="555" 
d="M148 202q6 -48 30 -72t73 -24q45 0 74 27t29 81q0 56 -29 80t-87 24h-71v114h47q62 0 97 30q34 30 34 81q0 80 -82 80q-45 0 -67 -22q-23 -23 -33 -69l-130 26q18 95 84 137t160 42q105 0 161 -46q57 -47 57 -130q0 -66 -39 -109q-39 -44 -96 -63v-4q151 -34 151 -180
q0 -101 -69 -159q-68 -58 -186 -58q-94 0 -160 45t-76 142z" />
    <glyph glyph-name="four" unicode="4" horiz-adv-x="597" 
d="M351 0v162h-324v107l287 455h184v-440h81v-122h-82v-162h-146zM351 284v302l-191 -302h191z" />
    <glyph glyph-name="five" unicode="5" horiz-adv-x="560" 
d="M92 725h381v-130h-271l-17 -181q55 48 138 48q85 0 138 -54q53 -55 53 -166q0 -119 -70 -186t-189 -67q-94 0 -159 44q-65 43 -78 141l131 27q13 -94 105 -94q46 0 78 32q31 31 31 95q0 111 -96 111q-56 0 -105 -48l-98 41z" />
    <glyph glyph-name="six" unicode="6" horiz-adv-x="578" 
d="M405 531q-8 49 -27 69q-20 20 -57 20q-43 0 -73 -36t-42 -85q-11 -47 -13 -108q61 55 156 55q88 0 141 -54q53 -55 53 -156q0 -122 -68 -185t-177 -63q-74 0 -123 27q-50 27 -77 78t-39 111t-12 140q0 28 1.5 54t5.5 52q7 51 27 105q19 53 50 93q29 38 83 64
q51 25 118 25q172 0 207 -168zM201 285q1 -28 3 -51t5 -41q6 -35 29 -64q22 -28 63 -28q43 0 66 33q23 34 23 90t-19 81q-20 26 -66 26q-54 0 -105 -45z" />
    <glyph glyph-name="seven" unicode="7" horiz-adv-x="531" 
d="M70 -1l279 595h-318v130h475v-116l-276 -609h-160z" />
    <glyph glyph-name="eight" unicode="8" horiz-adv-x="569" 
d="M410 393q74 -35 107 -78q33 -44 33 -117q0 -89 -75 -149t-199 -60q-125 0 -189 54t-64 135q0 131 139 194q-111 52 -111 167q0 93 68 146t180 53t171 -46q60 -47 60 -123q0 -59 -30 -99t-91 -76zM255 314q-41 -23 -63 -51t-22 -72q0 -90 109 -90q53 0 81 25t28 64
q0 26 -10 45t-33 34q-24 16 -40 24t-50 21zM308 443q76 46 76 111q0 72 -90 72q-40 0 -64 -18t-24 -50q0 -38 25 -63q25 -26 78 -51z" />
    <glyph glyph-name="nine" unicode="9" horiz-adv-x="577" 
d="M160 199q9 -51 32 -74t63 -23q62 0 95 65q34 66 35 165q-58 -52 -156 -52q-90 0 -142 54q-52 53 -52 159q0 120 70 183t181 63q70 0 120 -27q49 -27 76 -78t39 -112q12 -62 12 -141q0 -393 -277 -393q-194 0 -225 172zM377 432q-2 44 -6 74q-4 29 -15 58t-31 42
q-22 14 -51 14q-89 0 -89 -120q0 -111 86 -111q56 0 104 45z" />
    <glyph glyph-name="colon" unicode=":" horiz-adv-x="266" 
d="M226 76q0 -88 -93 -88t-93 88q0 89 93 89t93 -89zM226 419q0 -88 -93 -88t-93 88q0 89 93 89t93 -89z" />
    <glyph glyph-name="semicolon" unicode=";" horiz-adv-x="260" 
d="M58 132h158l-98 -269l-123 12zM240 419q0 -88 -93 -88t-93 88q0 89 93 89t93 -89z" />
    <glyph glyph-name="less" unicode="&#x3c;" horiz-adv-x="570" 
d="M69 220v142l391 140v-125l-261 -85l261 -86v-123z" />
    <glyph glyph-name="equal" unicode="=" horiz-adv-x="570" 
d="M92 127v120h386v-120h-386zM92 316v120h386v-120h-386z" />
    <glyph glyph-name="greater" unicode="&#x3e;" horiz-adv-x="570" 
d="M97 85v122l261 85l-261 85v125l391 -140v-140z" />
    <glyph glyph-name="question" unicode="?" horiz-adv-x="547" 
d="M154 198v183q199 16 199 142q0 87 -87 87q-47 0 -72 -25t-34 -79l-147 23q12 98 80 152q67 54 182 54q47 0 89 -11q39 -10 75 -35q35 -24 54 -67q20 -45 20 -102q0 -183 -208 -232v-91zM316 69q0 -80 -89 -80t-89 80q0 81 89 81t89 -81z" />
    <glyph glyph-name="at" unicode="@" horiz-adv-x="855" 
d="M650 -146q-75 -48 -220 -48q-173 0 -282 96t-109 281q0 177 114 288t299 111q164 0 263 -90t99 -244q0 -129 -52 -193t-139 -64q-92 0 -117 51q-39 -50 -114 -50q-71 0 -108 51q-38 52 -38 136q0 94 45 156t122 62q54 0 86 -35l8 29h81v-263q0 -26 9 -39q9 -14 35 -14
q28 0 48 29q20 30 26 64q6 36 6 76q0 116 -66 182t-202 66q-75 0 -136 -26q-59 -25 -94 -69t-51 -96q-17 -54 -17 -111q0 -147 80 -219q79 -72 216 -72q94 0 178 41zM489 295q-21 23 -58 23q-39 0 -61 -31t-22 -96q0 -119 69 -119q39 0 73 40z" />
    <glyph glyph-name="A" unicode="A" horiz-adv-x="709" 
d="M443 724l256 -724h-169l-60 176h-241l-56 -176h-159l237 724h192zM348 579h-4l-89 -280h183z" />
    <glyph glyph-name="B" unicode="B" horiz-adv-x="637" 
d="M75 0v724h287q219 0 219 -177q0 -68 -39 -110q-40 -43 -99 -59v-2q168 -20 168 -177q0 -199 -273 -199h-263zM309 118q70 0 105 20t35 75t-33 75q-34 20 -93 20h-94v-189zM286 425q31 0 54 3q22 3 45 12q22 9 34 30t12 51q0 53 -30 68t-91 15h-80v-180z" />
    <glyph glyph-name="C" unicode="C" horiz-adv-x="695" 
d="M371 -12q-334 0 -334 366q0 176 91 279q92 104 258 104q128 0 204 -64t82 -196l-141 -12q-8 76 -42 111q-34 34 -105 34q-188 0 -188 -248q0 -131 45 -189t133 -58q73 0 108 33q34 33 48 96l139 -24q-10 -81 -59 -136q-48 -54 -108 -75t-130 -21h-1z" />
    <glyph glyph-name="D" unicode="D" horiz-adv-x="724" 
d="M74 -1v724h254q183 0 271 -91t88 -259q0 -173 -94 -273t-282 -100zM303 122q120 0 173 62t53 180q0 130 -51 183q-51 52 -163 52h-87v-476z" />
    <glyph glyph-name="E" unicode="E" horiz-adv-x="583" 
d="M228 130h323v-130h-477v724h459v-129h-305v-170h287v-126h-287v-169z" />
    <glyph glyph-name="F" unicode="F" horiz-adv-x="553" 
d="M228 0h-154v724h456v-129h-302v-184h278v-127h-278v-284z" />
    <glyph glyph-name="G" unicode="G" horiz-adv-x="739" 
d="M553 91q-23 -47 -80 -74t-126 -27q-157 0 -232 98q-75 97 -75 264q0 178 90 282t260 104q125 0 201 -61t85 -192l-144 -14q-8 65 -40 102q-33 38 -105 38q-95 0 -141 -64q-47 -65 -47 -183q0 -130 44 -192q43 -61 138 -61q70 0 109 36t39 91v26h-132v113h284v-377h-112z
" />
    <glyph glyph-name="H" unicode="H" horiz-adv-x="733" 
d="M660 0h-155v297h-277v-297h-154v724h154v-294h277v294h155v-724z" />
    <glyph glyph-name="I" unicode="I" horiz-adv-x="302" 
d="M228 0h-154v724h154v-724z" />
    <glyph glyph-name="J" unicode="J" horiz-adv-x="530" 
d="M309 723h155v-521q0 -215 -228 -215q-213 0 -220 205l148 22q5 -53 18 -77t54 -24q36 0 54 20q18 19 18 66z" />
    <glyph glyph-name="K" unicode="K" horiz-adv-x="673" 
d="M227 414l281 310h164l-265 -301l261 -423h-180l-191 303l-70 -76v-227h-153v724h153v-310z" />
    <glyph glyph-name="L" unicode="L" horiz-adv-x="568" 
d="M228 130h310v-130h-464v724h154v-594z" />
    <glyph glyph-name="M" unicode="M" horiz-adv-x="915" 
d="M842 0h-144v568h-4l-171 -568h-139l-165 569h-4v-569h-141v724h230l153 -529h4l152 529h229v-724z" />
    <glyph glyph-name="N" unicode="N" horiz-adv-x="745" 
d="M494 0l-279 511v-511h-141v724h184l274 -513v513h140v-724h-178z" />
    <glyph glyph-name="O" unicode="O" horiz-adv-x="760" 
d="M39 359q0 167 92 273q91 105 261 105q166 0 249 -101t83 -263q0 -182 -88 -283q-89 -102 -261 -102q-173 0 -255 100t-82 271h1zM383 118q183 0 183 246q0 243 -176 243q-90 0 -141 -61q-51 -62 -51 -184q0 -244 184 -244h1z" />
    <glyph glyph-name="P" unicode="P" horiz-adv-x="621" 
d="M226 0h-153v724h274q128 0 185 -64q57 -65 57 -162q0 -264 -283 -264h-79zM286 359q67 0 105 27t38 101q0 65 -33 89t-96 24h-74v-242z" />
    <glyph glyph-name="Q" unicode="Q" horiz-adv-x="760" 
d="M375 -12q-173 0 -255 100t-82 271q0 167 92 273q91 105 261 105q166 0 249 -101t83 -263q0 -169 -83 -270l82 -88l-96 -81l-83 90q-77 -36 -168 -36zM385 115q40 0 69 10l-113 120l93 83l107 -121q26 54 26 156q0 243 -177 243q-90 0 -141 -61q-51 -62 -51 -184
q0 -126 48 -186t137 -60h2z" />
    <glyph glyph-name="R" unicode="R" horiz-adv-x="642" 
d="M635 -1h-166l-143 275h-99v-275h-153v724h282q126 0 183 -57t57 -146q0 -150 -125 -207zM306 395q131 0 131 109q0 51 -31 73t-94 22h-85v-204h79z" />
    <glyph glyph-name="S" unicode="S" horiz-adv-x="596" 
d="M295 615q-54 0 -81 -21t-27 -57q0 -30 21 -51t54 -33q17 -6 35.5 -12t38.5 -11t40.5 -11.5t40.5 -14.5q42 -15 74 -36q33 -21 54 -60t21 -93q0 -115 -79 -172q-80 -57 -198 -57q-263 0 -280 230l140 21q10 -61 41 -95q30 -33 103 -33q120 0 120 89q0 30 -21 51
q-22 22 -54 32q-17 5 -35 10t-38 10q-41 9 -81 24q-39 15 -73 36q-33 21 -54 62q-21 40 -21 96q0 101 75 160q74 58 189 58q52 0 94 -9q43 -9 79 -31q37 -23 60 -66q22 -44 27 -105l-141 -16q-5 55 -31 81q-27 27 -88 27z" />
    <glyph glyph-name="T" unicode="T" horiz-adv-x="595" 
d="M221 0v594h-213v130h579v-130h-211v-594h-155z" />
    <glyph glyph-name="U" unicode="U" horiz-adv-x="708" 
d="M353 116q75 0 104 38t29 129v441h154v-463q0 -273 -292 -273q-149 0 -216 67q-68 68 -68 210v459h155v-438q0 -89 30 -129t107 -40z" />
    <glyph glyph-name="V" unicode="V" horiz-adv-x="662" 
d="M232 0l-235 724h173l165 -572h6l165 572h159l-225 -724h-208z" />
    <glyph glyph-name="W" unicode="W" horiz-adv-x="964" 
d="M604 0l-117 499h-4l-116 -499h-203l-156 724h161l102 -558h4l129 558h165l133 -561h5l94 561h155l-155 -724h-197z" />
    <glyph glyph-name="X" unicode="X" horiz-adv-x="651" 
d="M414 366l238 -366h-178l-158 241l-151 -241h-166l234 365l-223 359h172l148 -245l150 245h160z" />
    <glyph glyph-name="Y" unicode="Y" horiz-adv-x="606" 
d="M388 0h-155v271l-251 453h169l159 -310h5l153 310h156l-236 -451v-273z" />
    <glyph glyph-name="Z" unicode="Z" horiz-adv-x="592" 
d="M212 130h351v-130h-536v113l343 482h-334v129h513v-115z" />
    <glyph glyph-name="bracketleft" unicode="[" horiz-adv-x="318" 
d="M55 -143v867h227v-98h-81v-671h81v-98h-227z" />
    <glyph glyph-name="backslash" unicode="\" horiz-adv-x="446" 
d="M299 -92l-280 847h137l281 -847h-138z" />
    <glyph glyph-name="bracketright" unicode="]" horiz-adv-x="318" 
d="M36 -143v98h81v671h-81v98h227v-867h-227z" />
    <glyph glyph-name="asciicircum" unicode="^" horiz-adv-x="683" 
d="M474 299l-133 236l-130 -236h-142l197 365h153l199 -365h-144z" />
    <glyph glyph-name="underscore" unicode="_" 
d="M0 -181v110h500v-110h-500z" />
    <glyph glyph-name="grave" unicode="`" 
d="M95 743h162l74 -162l-101 -9z" />
    <glyph glyph-name="a" unicode="a" horiz-adv-x="558" 
d="M479 130q0 -22 6 -31t25 -9q11 0 31 6l4 -87q-42 -20 -96 -20q-92 0 -107 66q-51 -67 -155 -67q-45 0 -79 14q-33 13 -48 36q-15 22 -21 44q-6 21 -6 44q0 182 291 182h8v19q0 49 -14 72t-60 23q-38 0 -54 -16q-17 -17 -24 -55l-128 25q25 156 220 156q106 0 158 -44
q51 -44 51 -140zM332 221h-24q-59 -1 -92 -17q-32 -15 -32 -52q0 -57 61 -57q53 0 87 34v92z" />
    <glyph glyph-name="b" unicode="b" horiz-adv-x="592" 
d="M61 1v755h148v-281q58 58 156 58q85 0 138 -63q53 -64 53 -198q0 -147 -58 -215q-59 -69 -159 -69q-87 0 -143 56h-3l-7 -44zM211 144q46 -34 91 -34q97 0 97 159q0 143 -92 143q-53 0 -96 -40v-228z" />
    <glyph glyph-name="c" unicode="c" horiz-adv-x="544" 
d="M289 -16q-126 0 -189 72t-63 193q0 133 69 207q69 73 197 73q95 0 152 -51q58 -52 65 -145l-135 -20q-5 53 -24 77q-20 24 -61 24q-49 0 -78 -32q-28 -31 -28 -116q0 -86 26 -124q25 -37 77 -37q43 0 66 23q22 22 30 72l127 -24q-14 -95 -76 -141q-64 -47 -159 -47z" />
    <glyph glyph-name="d" unicode="d" horiz-adv-x="591" 
d="M533 0h-126l-9 51l-3 1q-58 -64 -154 -64t-150 63t-54 198q0 146 64 214q64 69 156 69q85 0 132 -44v267h145zM382 383q-40 29 -84 29q-105 0 -105 -157q0 -148 100 -148q50 0 90 37z" />
    <glyph glyph-name="e" unicode="e" horiz-adv-x="547" 
d="M289 -13q-71 0 -121 22q-51 22 -79 61t-42 86q-13 45 -13 102q0 134 72 203t184 69q113 0 169 -63q55 -62 55 -177q0 -41 -3 -68h-317q1 -63 27 -90q25 -27 77 -27q38 0 57 19q20 20 27 55l127 -31q-15 -74 -72 -117q-56 -43 -148 -43v-1zM356 317q0 104 -76 104
q-36 0 -60 -25q-23 -25 -25 -78z" />
    <glyph glyph-name="f" unicode="f" horiz-adv-x="366" 
d="M377 640q-36 13 -70 13q-41 0 -60 -18q-20 -18 -20 -68v-46h138v-110h-138v-411h-151v411h-70v110h70v60q0 95 51 140t141 45q76 0 115 -19z" />
    <glyph glyph-name="g" unicode="g" horiz-adv-x="560" 
d="M268 533q91 0 138 -32q36 79 96 79q19 0 42 -9v-99q-5 1 -11 1h-14q-29 0 -60 -9q43 -49 43 -117q0 -85 -63 -136t-165 -51q-45 0 -87 11q-19 -19 -19 -33q0 -25 47 -27l148 -9q89 -6 132 -40q44 -35 44 -111q0 -92 -75 -135q-74 -43 -198 -43q-135 0 -193 32
q-57 31 -57 90q0 35 26 61q25 25 69 33v4q-76 22 -76 88q0 35 20 61q18 24 62 55q-76 43 -76 141q0 86 62 140q61 54 171 54zM363 347q0 79 -89 79q-44 0 -69 -19q-26 -20 -26 -60q0 -80 93 -80q40 0 66 21q25 21 25 59zM389 -76q0 38 -64 42l-145 9q-31 -22 -31 -50
q0 -53 127 -53q55 0 84 12t29 42v-2z" />
    <glyph glyph-name="h" unicode="h" horiz-adv-x="583" 
d="M530 0h-151v329q0 80 -69 80q-55 0 -102 -41v-368h-151v755h150v-282q76 59 161 59q84 0 123 -43q39 -44 39 -133v-356z" />
    <glyph glyph-name="i" unicode="i" horiz-adv-x="268" 
d="M211 0h-151v521h151v-521zM44 680q0 43 24 67t68 24q43 0 67 -24t24 -67t-24 -67t-67 -24t-67 24t-24 68z" />
    <glyph glyph-name="j" unicode="j" horiz-adv-x="266" 
d="M24 -223q-83 0 -123 28l11 113q45 -20 82 -20q65 0 65 78v545h151v-562q0 -95 -49 -138q-50 -44 -136 -44h-1zM225 682q0 -44 -24 -68t-67 -24t-67 24t-24 68q0 43 24 67t67 24q44 0 68 -24t24 -67h-1z" />
    <glyph glyph-name="k" unicode="k" horiz-adv-x="564" 
d="M210 339l172 182h167l-173 -187l186 -334h-167l-135 238l-50 -49v-189h-151v755h151v-416z" />
    <glyph glyph-name="l" unicode="l" horiz-adv-x="268" 
d="M211 0h-151v755h151v-755z" />
    <glyph glyph-name="m" unicode="m" horiz-adv-x="854" 
d="M206 1h-151v521h128l7 -49q72 60 158 60q100 0 133 -65q63 65 162 65q156 0 156 -173v-359h-151v335q0 39 -13 56q-14 18 -45 18q-22 0 -46 -10q-26 -11 -39 -25v-6v-7v-361h-151v335q0 39 -13 56q-14 18 -45 18q-21 0 -48 -11q-24 -10 -40 -26z" />
    <glyph glyph-name="n" unicode="n" horiz-adv-x="583" 
d="M532 0h-151v330q0 80 -69 80q-55 0 -102 -41v-369h-151v521h134l8 -52q67 63 165 63q86 0 125 -43q39 -44 39 -133z" />
    <glyph glyph-name="o" unicode="o" horiz-adv-x="587" 
d="M287 -12q-254 0 -254 270q0 128 68 201q67 72 201 72q131 0 191 -70q60 -71 60 -192q0 -133 -65 -207t-200 -74h-1zM295 100q50 0 76 38q25 37 25 126q0 84 -24 119t-75 35q-52 0 -79 -37q-27 -38 -27 -120q0 -87 24 -124t79 -37h1z" />
    <glyph glyph-name="p" unicode="p" horiz-adv-x="592" 
d="M59 521h128l9 -53q64 64 163 64q90 0 143 -62t53 -198q0 -145 -59 -215q-59 -69 -153 -69q-82 0 -138 50v-250h-146v733zM206 146q14 -12 40 -24q27 -12 52 -12q98 0 98 159q0 78 -22 110q-23 33 -69 33q-50 0 -97 -40z" />
    <glyph glyph-name="q" unicode="q" horiz-adv-x="590" 
d="M535 -212h-144v257q-59 -57 -150 -57q-203 0 -203 264q0 77 19 131q19 55 51 87t69 47t81 15q88 0 138 -59l14 48h124zM385 381q-35 31 -86 31q-103 0 -103 -154q0 -150 100 -150q48 0 89 36v237z" />
    <glyph glyph-name="r" unicode="r" horiz-adv-x="393" 
d="M385 383q-5 1 -11.5 1h-14.5q-95 0 -153 -48v-337h-151v521h129l11 -82q64 93 165 93h13h14z" />
    <glyph glyph-name="s" unicode="s" horiz-adv-x="501" 
d="M254 531q167 0 208 -138l-124 -39q-11 36 -30 54q-20 18 -59 18q-66 0 -66 -46q0 -26 24 -36q24 -11 81 -21q43 -8 69 -15q27 -8 56 -24q30 -17 45 -46q15 -30 15 -74q0 -86 -64 -131q-65 -45 -165 -45q-97 0 -153 38q-56 37 -69 105l123 40q10 -37 33 -58q22 -21 71 -21
q75 0 75 49q0 27 -21 36q-23 10 -76 20q-44 7 -69 15q-27 8 -57 25q-31 18 -46 49t-15 76q0 82 62 126t155 44z" />
    <glyph glyph-name="t" unicode="t" horiz-adv-x="412" 
d="M402 24q-21 -13 -64 -25q-42 -12 -88 -12q-81 0 -124 41q-42 40 -42 129v254h-78v110h78v154l151 20v-174h138v-110h-138v-233q0 -37 13 -53q14 -17 48 -17q46 0 87 24z" />
    <glyph glyph-name="u" unicode="u" horiz-adv-x="578" 
d="M54 522h151v-329q0 -44 15 -63t51 -19q52 0 99 41v369h151v-521h-130l-11 56q-58 -67 -165 -67q-160 0 -160 173z" />
    <glyph glyph-name="v" unicode="v" horiz-adv-x="536" 
d="M180 0l-184 521h163l111 -376h4l111 376h155l-184 -521h-176z" />
    <glyph glyph-name="w" unicode="w" horiz-adv-x="813" 
d="M150 0l-154 521h151l95 -366h2l92 366h148l92 -364h3l91 364h147l-155 -521h-170l-84 340h-2l-77 -340h-179z" />
    <glyph glyph-name="x" unicode="x" horiz-adv-x="531" 
d="M350 268l175 -268h-161l-106 161l-103 -161h-145l170 261l-173 260h163l101 -159l104 159h145z" />
    <glyph glyph-name="y" unicode="y" horiz-adv-x="526" 
d="M-4 521h163l109 -363h3l105 363h155q-60 -165 -111 -307.5t-96 -264.5q-34 -94 -76 -133t-120 -39q-71 0 -114 22l11 109q48 -16 78 -16q52 0 75 56l16 41z" />
    <glyph glyph-name="z" unicode="z" horiz-adv-x="466" 
d="M199 121h246v-121h-418v107l240 301h-238v113h402v-107z" />
    <glyph glyph-name="braceleft" unicode="{" horiz-adv-x="337" 
d="M301 -144h-76q-155 0 -155 130q0 14 1.5 36.5t5.5 53.5t5.5 55.5t1.5 43.5q0 72 -64 72h-21v92h21q64 0 64 72q0 19 -1.5 44.5t-5.5 57.5t-5.5 55t-1.5 37q0 130 155 130h76v-101h-22q-27 0 -37 -12q-10 -11 -10 -36q0 -14 2 -37t6 -55t6 -55t2 -38q0 -46 -20 -69
t-63 -39q43 -17 63 -39q20 -23 20 -69q0 -16 -1.5 -38.5t-5.5 -52.5t-5.5 -52.5t-1.5 -36.5q0 -24 11 -37q10 -12 41 -12h18z" />
    <glyph glyph-name="bar" unicode="|" horiz-adv-x="280" 
d="M72 -143v898h137v-898h-137z" />
    <glyph glyph-name="braceright" unicode="}" horiz-adv-x="337" 
d="M30 736h76q155 0 155 -130q0 -14 -1.5 -36.5t-5.5 -54.5t-5.5 -56.5t-1.5 -43.5q0 -72 64 -72h21v-92h-21q-64 0 -64 -72q0 -19 1.5 -44.5t5.5 -57.5t5.5 -55t1.5 -37q0 -130 -155 -130h-76v101h22q26 0 37 12q10 11 10 36q0 14 -1.5 37t-5.5 55t-5.5 55t-1.5 38
q0 46 20 69q19 22 63 39q-44 16 -63 39q-20 23 -20 69q0 16 2 39t6 53t6 52.5t2 36.5q0 27 -10 38q-11 12 -40 12h-18z" />
    <glyph glyph-name="asciitilde" unicode="~" horiz-adv-x="600" 
d="M176 450q37 0 129 -22t114 -22q17 0 23 9t6 35l83 -4q1 -10 1.5 -17t0.5 -12q0 -53 -25 -85q-26 -33 -75 -33q-39 0 -133 22t-114 22q-29 0 -29 -32q0 -11 1 -15l-89 3q-1 10 -1.5 17t-0.5 12q0 57 28 89q28 33 81 33z" />
    <glyph glyph-name="uni00A0" unicode="&#xa0;" horiz-adv-x="174" 
 />
    <glyph glyph-name="exclamdown" unicode="&#xa1;" horiz-adv-x="290" 
d="M211 323l19 -527h-164l19 527h126zM59 452q0 80 89 80q90 0 90 -80q0 -81 -90 -81q-89 0 -89 81z" />
    <glyph glyph-name="cent" unicode="&#xa2;" horiz-adv-x="537" 
d="M358 712v-104q66 -12 107 -59t47 -120l-136 -20q-5 47 -21 68q-17 21 -54 21q-47 0 -72 -28q-26 -29 -26 -103q0 -73 23 -108t75 -35q40 0 60 20q19 19 27 66l126 -23q-11 -72 -54 -117q-43 -44 -111 -58v-112h-127v112q-87 16 -132 80q-45 63 -45 158q0 104 48 170
q48 65 135 85v106z" />
    <glyph glyph-name="sterling" unicode="&#xa3;" horiz-adv-x="593" 
d="M72 119q38 32 53 59t15 63q0 30 -17 69h-96v110h65q-40 70 -40 121q0 87 68 141q67 54 182 54q103 0 162 -45q58 -45 73 -146l-134 -23q-7 48 -29 76q-21 27 -71 27q-92 0 -92 -84q0 -40 40 -119h193v-110h-165q11 -30 11 -60q0 -72 -61 -132h105q60 0 83 20t32 75
l127 -22q-7 -100 -62 -147q-53 -46 -165 -46h-333v120z" />
    <glyph glyph-name="yen" unicode="&#xa5;" horiz-adv-x="574" 
d="M407 417h88v-94h-129v-69h129v-94h-129v-160h-151v160h-127v94h127v69h-127v94h83l-159 307h162l119 -253h4l115 253h151z" />
    <glyph glyph-name="brokenbar" unicode="&#xa6;" horiz-adv-x="280" 
d="M72 -143v388h137v-388h-137zM72 417v338h137v-338h-137z" />
    <glyph glyph-name="section" unicode="&#xa7;" horiz-adv-x="569" 
d="M39 237q0 85 90 144q-58 54 -58 134q0 88 68 141t168 53q91 0 150 -45t68 -141l-130 -15q-5 49 -25 72q-21 24 -67 24q-41 0 -63 -18t-22 -49t24 -52q23 -20 59 -31q17 -5 36 -11t39 -14q40 -15 75 -30t59 -50t24 -84q0 -87 -90 -151q57 -51 57 -131q0 -92 -63 -144
q-62 -52 -171 -52q-94 0 -152 45q-59 45 -68 141l131 15q4 -47 26 -72q21 -24 68 -24q40 0 63 18t23 51q0 37 -33 58t-79 33q-23 6 -46.5 13t-46.5 15q-46 16 -79 55t-33 101zM173 271q0 -19 9 -34q8 -14 29 -25q10 -5 19.5 -9t18.5 -7t21.5 -6.5t28.5 -8.5t28.5 -8.5
t22.5 -7.5q45 27 45 63q0 22 -18 39q-18 16 -39 24q-11 4 -26.5 9t-35.5 11q-41 12 -63 21q-39 -26 -39 -61h-1z" />
    <glyph glyph-name="dieresis" unicode="&#xa8;" 
d="M133 595q-40 0 -66 23q-25 22 -25 60t25 60q26 23 66 23q38 0 63 -23q24 -23 24 -60q0 -38 -24 -60q-23 -22 -63 -22v-1zM368 594q-40 0 -65 23q-24 22 -24 60q0 37 24 60q25 23 65 23q39 0 64 -23q24 -23 24 -60q0 -38 -24 -60q-23 -22 -64 -22v-1z" />
    <glyph glyph-name="copyright" unicode="&#xa9;" horiz-adv-x="802" 
d="M752 340q0 -158 -97 -255t-255 -97q-168 0 -259 94t-91 244q0 160 101 256q100 96 252 96q161 0 256 -92q94 -91 94 -246h-1zM402 68q124 0 195 71t71 195q0 126 -73 195q-74 69 -193 69q-118 0 -193 -72t-75 -199q0 -122 71 -191q70 -69 197 -69v1zM565 265
q-8 -47 -36 -78t-60 -40t-66 -9q-91 0 -135 53q-43 52 -43 143q0 87 48 140t134 53q62 0 104 -33q43 -33 47 -100l-73 -8q-5 41 -24 59q-20 18 -57 18q-44 0 -69 -31q-26 -32 -26 -99q0 -128 96 -128q73 0 88 76z" />
    <glyph glyph-name="ordfeminine" unicode="&#xaa;" horiz-adv-x="397" 
d="M341 377q0 -26 18 -26q11 0 20 4l3 -66q-29 -13 -64 -13q-68 0 -80 47q-38 -48 -105 -48q-59 0 -83 29q-24 28 -24 63q0 38 19 63t54 36q37 11 62 14q27 3 65 3v13q0 26 -8 40q-7 13 -36 13q-41 0 -48 -46l-100 18q20 110 156 110q75 0 113 -29t38 -92v-133zM227 421
q-83 0 -83 -39q0 -30 36 -30q27 0 47 18v51z" />
    <glyph glyph-name="guillemotleft" unicode="&#xab;" horiz-adv-x="464" 
d="M123 103l-86 154l89 151h122l-88 -147l84 -158h-121zM309 103l-86 154l89 151h122l-88 -147l84 -158h-121z" />
    <glyph glyph-name="logicalnot" unicode="&#xac;" horiz-adv-x="570" 
d="M361 170v95h-276v119h387v-214h-111z" />
    <glyph glyph-name="uni00AD" unicode="&#xad;" horiz-adv-x="311" 
d="M20 227v129h271v-129h-271z" />
    <glyph glyph-name="registered" unicode="&#xae;" horiz-adv-x="465" 
d="M423 474q0 -85 -54 -139t-140 -54q-92 0 -141 52q-50 53 -50 133q0 88 56 141t138 53q88 0 141 -51q52 -51 52 -135h-2zM370 469q0 67 -39 105q-38 37 -102 37q-62 0 -102 -39t-40 -105q0 -65 39 -102q38 -37 104 -37q65 0 104 39t39 104zM322 381h-53l-42 71h-17v-71
h-47v190h71q72 0 72 -55q0 -37 -35 -51zM223 486q35 0 35 26q0 24 -30 24h-18v-50h13z" />
    <glyph glyph-name="macron" unicode="&#xaf;" 
d="M405 601h-311v102h311v-102z" />
    <glyph glyph-name="degree" unicode="&#xb0;" horiz-adv-x="358" 
d="M180 578q21 0 35 15q14 16 14 38q0 21 -14 37q-14 15 -33 15q-21 0 -36 -15t-15 -39q0 -21 14 -35t36 -14zM182 510q-52 0 -86 32q-33 31 -33 84q0 54 35 87q34 33 84 33q49 0 83 -32q33 -32 33 -84t-33 -85t-85 -33z" />
    <glyph glyph-name="plusminus" unicode="&#xb1;" horiz-adv-x="570" 
d="M91 0v119h387v-119h-387zM224 144v120h-133v119h133v139h120v-139h134v-119h-134v-120h-120z" />
    <glyph glyph-name="twosuperior" unicode="&#xb2;" horiz-adv-x="405" 
d="M205 808q79 0 119 -32q39 -32 39 -87q0 -50 -30 -90q-31 -42 -106 -105l-32 -33v-4h175v-108h-327v108l97 97q54 54 71 78q18 25 18 48q0 34 -34 34q-44 0 -51 -57l-114 15q8 68 55 102q49 35 118 35z" />
    <glyph glyph-name="threesuperior" unicode="&#xb3;" horiz-adv-x="412" 
d="M136 485q5 -50 51 -50q48 0 48 48q0 27 -13 39q-14 12 -45 12h-50v86h31q70 0 70 59q0 36 -38 36q-37 0 -48 -47l-110 20q22 120 172 120q74 0 114 -28q41 -29 41 -81q0 -75 -87 -108v-3q98 -20 98 -107q0 -66 -51 -103q-50 -37 -130 -37q-66 0 -113 29q-47 28 -54 96z
" />
    <glyph glyph-name="acute" unicode="&#xb4;" 
d="M272 572l-101 9l75 162h161z" />
    <glyph glyph-name="mu" unicode="&#xb5;" horiz-adv-x="629" 
d="M81 521h151v-330q0 -44 12 -63t43 -19q50 0 102 43v369h151v-521h-125l-5 54h-5q-62 -59 -135 -59q-25 0 -42 4l-1 -1l10 -174h-156v697z" />
    <glyph glyph-name="paragraph" unicode="&#xb6;" horiz-adv-x="601" 
d="M531 -135h-105v763h-66v-763h-105v377q-108 8 -162 67q-54 60 -54 164q0 67 21 117q21 49 60 78q39 28 89 42q51 14 111 14h209z" />
    <glyph glyph-name="periodcentered" unicode="&#xb7;" horiz-adv-x="238" 
d="M205 309q0 -79 -85 -79q-86 0 -86 79q0 80 86 80q85 0 85 -80z" />
    <glyph glyph-name="cedilla" unicode="&#xb8;" 
d="M150 -164q27 -7 48 -7q50 0 50 37q0 22 -15 30t-49 9l16 125l72 -8l-9 -67q85 -15 85 -92q0 -53 -36 -81q-35 -28 -94 -28q-45 0 -82 14z" />
    <glyph glyph-name="onesuperior" unicode="&#xb9;" horiz-adv-x="328" 
d="M136 348v314q-12 -7 -48 -13q-35 -6 -52 -6l-5 104q97 7 142 52h97v-452z" />
    <glyph glyph-name="ordmasculine" unicode="&#xba;" horiz-adv-x="416" 
d="M203 272q-178 0 -178 177q0 84 47 133q46 48 141 48q92 0 135 -46t43 -126q0 -89 -46 -136q-47 -48 -142 -48v-2zM208 351q32 0 45 22q14 23 14 78q0 53 -13 73q-14 21 -45 21q-32 0 -47 -22q-15 -23 -15 -72q0 -52 14 -75q13 -22 47 -22v-3z" />
    <glyph glyph-name="guillemotright" unicode="&#xbb;" horiz-adv-x="464" 
d="M153 408l89 -153l-87 -152h-120l84 153l-88 152h122zM339 408l89 -153l-87 -152h-120l84 153l-88 152h122z" />
    <glyph glyph-name="onequarter" unicode="&#xbc;" horiz-adv-x="1012" 
d="M233 -12l354 736h138l-353 -736h-139zM152 280v314q-12 -7 -48 -13q-35 -6 -52 -6l-5 104q97 7 142 52h97v-452zM783 1v92h-208v89l176 271h159v-260h52v-100h-51v-92h-128zM783 193v150l-98 -150h98z" />
    <glyph glyph-name="onehalf" unicode="&#xbd;" horiz-adv-x="1012" 
d="M228 -12l354 736h138l-353 -736h-139zM155 280v314q-12 -7 -48 -13q-35 -6 -52 -6l-5 104q97 7 142 52h97v-452zM788 460q79 0 119 -32q39 -32 39 -87q0 -50 -30 -90q-31 -42 -106 -105l-32 -33v-4h175v-108h-327v108l97 97q54 54 71 78q18 25 18 48q0 34 -34 34
q-44 0 -51 -57l-114 15q8 68 55 102q49 35 118 35z" />
    <glyph glyph-name="threequarters" unicode="&#xbe;" horiz-adv-x="1012" 
d="M265 -12l354 736h138l-353 -736h-139zM796 0v92h-208v89l176 271h159v-260h52v-100h-51v-92h-128zM796 192v150l-98 -150h98zM154 417q5 -50 51 -50q48 0 48 48q0 27 -13 39q-14 12 -45 12h-50v86h31q70 0 70 59q0 36 -38 36q-37 0 -48 -47l-110 20q22 120 172 120
q74 0 114 -28q41 -29 41 -81q0 -75 -87 -108v-3q98 -20 98 -107q0 -66 -51 -103q-50 -37 -130 -37q-66 0 -113 29q-47 28 -54 96z" />
    <glyph glyph-name="questiondown" unicode="&#xbf;" horiz-adv-x="536" 
d="M383 321v-183q-199 -16 -199 -142q0 -87 87 -87q47 0 72 25q26 26 35 79l147 -23q-12 -97 -79 -151q-68 -54 -181 -54q-47 0 -89 11q-39 10 -75 35q-35 24 -54 67q-19 42 -19 102q0 183 208 232v91zM221 450q0 80 89 80t89 -80q0 -81 -89 -81t-89 81z" />
    <glyph glyph-name="Agrave" unicode="&#xc0;" horiz-adv-x="709" 
d="M180 916h162l91 -140l-107 -8zM443 724l256 -724h-169l-60 176h-241l-56 -176h-159l237 724h192zM348 579h-4l-89 -280h183z" />
    <glyph glyph-name="Aacute" unicode="&#xc1;" horiz-adv-x="709" 
d="M365 768l-107 8l91 140h162zM443 724l256 -724h-169l-60 176h-241l-56 -176h-159l237 724h192zM348 579h-4l-89 -280h183z" />
    <glyph glyph-name="Acircumflex" unicode="&#xc2;" horiz-adv-x="709" 
d="M348 841l-75 -73l-102 7l107 142h140l102 -142l-100 -6zM443 724l256 -724h-169l-60 176h-241l-56 -176h-159l237 724h192zM348 579h-4l-89 -280h183z" />
    <glyph glyph-name="Atilde" unicode="&#xc3;" horiz-adv-x="709" 
d="M273 928q34 0 81 -21q46 -21 66 -21q17 0 23 9t6 35l76 -4q1 -10 1.5 -17.5t0.5 -12.5q0 -51 -24 -81t-69 -30q-39 0 -86 22t-66 22q-29 0 -29 -32q0 -11 1 -15l-82 3q-1 9 -1.5 15.5t-0.5 11.5q0 54 27 86t74 32zM445 722l256 -724h-169l-60 176h-241l-56 -176h-159
l237 724h192zM350 577h-4l-89 -280h183z" />
    <glyph glyph-name="Adieresis" unicode="&#xc4;" horiz-adv-x="709" 
d="M229 774q-40 0 -66 23q-25 22 -25 60t25 60q26 23 66 23q38 0 63 -23q24 -23 24 -60q0 -38 -24 -60q-23 -22 -63 -22v-1zM464 773q-40 0 -65 23q-24 22 -24 60q0 37 24 60q25 23 65 23q39 0 64 -23q24 -23 24 -60q0 -38 -24 -60q-23 -22 -64 -22v-1zM443 722l256 -724
h-169l-60 176h-241l-56 -176h-159l237 724h192zM348 577h-4l-89 -280h183z" />
    <glyph glyph-name="Aring" unicode="&#xc5;" horiz-adv-x="709" 
d="M471 796q0 -49 -27 -79l254 -719h-169l-60 176h-241l-56 -176h-159l234 717q-27 30 -27 76q0 58 36 90q37 32 90 32q54 0 90 -30t36 -85zM347 577h-4l-89 -280h183zM345 746q51 0 51 53q0 50 -51 50q-25 0 -39 -13q-15 -14 -15 -39q0 -52 54 -52v1z" />
    <glyph glyph-name="AE" unicode="&#xc6;" horiz-adv-x="1003" 
d="M644 130h324v-130h-478v286h-178l-136 -286h-163l353 724h583v-130h-305v-181h287v-125h-287v-158zM490 594h-43l-90 -186h133v186z" />
    <glyph glyph-name="Ccedilla" unicode="&#xc7;" horiz-adv-x="695" 
d="M281 -164q27 -7 48 -7q50 0 50 37q0 22 -15 30t-49 9l11 85q-289 24 -289 364q0 176 91 279q92 104 258 104q128 0 204 -64t82 -196l-141 -12q-8 76 -42 111q-34 34 -105 34q-188 0 -188 -248q0 -131 45 -189t133 -58q73 0 108 33q34 33 48 96l139 -24q-11 -77 -54 -129
q-44 -53 -97 -75q-54 -23 -120 -27l-4 -34q85 -15 85 -92q0 -53 -36 -81q-35 -28 -94 -28q-45 0 -82 14z" />
    <glyph glyph-name="Egrave" unicode="&#xc8;" horiz-adv-x="583" 
d="M141 916h162l91 -140l-107 -8zM228 130h323v-130h-477v724h459v-129h-305v-170h287v-126h-287v-169z" />
    <glyph glyph-name="Eacute" unicode="&#xc9;" horiz-adv-x="583" 
d="M326 768l-107 8l91 140h162zM228 130h323v-130h-477v724h459v-129h-305v-170h287v-126h-287v-169z" />
    <glyph glyph-name="Ecircumflex" unicode="&#xca;" horiz-adv-x="583" 
d="M309 841l-75 -73l-102 7l107 142h140l102 -142l-100 -6zM228 130h323v-130h-477v724h459v-129h-305v-170h287v-126h-287v-169z" />
    <glyph glyph-name="Edieresis" unicode="&#xcb;" horiz-adv-x="583" 
d="M190 774q-40 0 -66 23q-25 22 -25 60t25 60q26 23 66 23q38 0 63 -23q24 -23 24 -60q0 -38 -24 -60q-23 -22 -63 -22v-1zM425 773q-40 0 -65 23q-24 22 -24 60q0 37 24 60q25 23 65 23q39 0 64 -23q24 -23 24 -60q0 -38 -24 -60q-23 -22 -64 -22v-1zM228 128h323v-130
h-477v724h459v-129h-305v-170h287v-126h-287v-169z" />
    <glyph glyph-name="Igrave" unicode="&#xcc;" horiz-adv-x="302" 
d="M-14 916h162l91 -140l-107 -8zM228 0h-154v724h154v-724z" />
    <glyph glyph-name="Iacute" unicode="&#xcd;" horiz-adv-x="302" 
d="M171 768l-107 8l91 140h162zM228 0h-154v724h154v-724z" />
    <glyph glyph-name="Icircumflex" unicode="&#xce;" horiz-adv-x="302" 
d="M154 841l-75 -73l-102 7l107 142h140l102 -142l-100 -6zM228 0h-154v724h154v-724z" />
    <glyph glyph-name="Idieresis" unicode="&#xcf;" horiz-adv-x="302" 
d="M35 774q-40 0 -66 23q-25 22 -25 60t25 60q26 23 66 23q38 0 63 -23q24 -23 24 -60q0 -38 -24 -60q-23 -22 -63 -22v-1zM270 773q-40 0 -65 23q-24 22 -24 60q0 37 24 60q25 23 65 23q39 0 64 -23q24 -23 24 -60q0 -38 -24 -60q-23 -22 -64 -22v-1zM228 -2h-154v724h154
v-724z" />
    <glyph glyph-name="Eth" unicode="&#xd0;" horiz-adv-x="724" 
d="M74 -1v305h-67v129h67v290h254q183 0 271 -91t88 -259q0 -173 -94 -273t-282 -100zM303 122q120 0 173 62t53 180q0 130 -51 183q-51 52 -163 52h-87v-166h171v-129h-171v-181z" />
    <glyph glyph-name="Ntilde" unicode="&#xd1;" horiz-adv-x="745" 
d="M299 928q34 0 81 -21q46 -21 66 -21q17 0 23 9t6 35l76 -4q1 -10 1.5 -17.5t0.5 -12.5q0 -51 -24 -81t-69 -30q-39 0 -86 22t-66 22q-29 0 -29 -32q0 -11 1 -15l-82 3q-1 9 -1.5 15.5t-0.5 11.5q0 54 27 86t74 32zM496 -2l-279 511v-511h-141v724h184l274 -513v513h140
v-724h-178z" />
    <glyph glyph-name="Ograve" unicode="&#xd2;" horiz-adv-x="760" 
d="M224 916h162l91 -140l-107 -8zM39 359q0 167 92 273q91 105 261 105q166 0 249 -101t83 -263q0 -182 -88 -283q-89 -102 -261 -102q-173 0 -255 100t-82 271h1zM383 118q183 0 183 246q0 243 -176 243q-90 0 -141 -61q-51 -62 -51 -184q0 -244 184 -244h1z" />
    <glyph glyph-name="Oacute" unicode="&#xd3;" horiz-adv-x="760" 
d="M409 768l-107 8l91 140h162zM39 359q0 167 92 273q91 105 261 105q166 0 249 -101t83 -263q0 -182 -88 -283q-89 -102 -261 -102q-173 0 -255 100t-82 271h1zM383 118q183 0 183 246q0 243 -176 243q-90 0 -141 -61q-51 -62 -51 -184q0 -244 184 -244h1z" />
    <glyph glyph-name="Ocircumflex" unicode="&#xd4;" horiz-adv-x="760" 
d="M392 841l-75 -73l-102 7l107 142h140l102 -142l-100 -6zM39 359q0 167 92 273q91 105 261 105q166 0 249 -101t83 -263q0 -182 -88 -283q-89 -102 -261 -102q-173 0 -255 100t-82 271h1zM383 118q183 0 183 246q0 243 -176 243q-90 0 -141 -61q-51 -62 -51 -184
q0 -244 184 -244h1z" />
    <glyph glyph-name="Otilde" unicode="&#xd5;" horiz-adv-x="760" 
d="M317 928q34 0 81 -21q46 -21 66 -21q17 0 23 9t6 35l76 -4q1 -10 1.5 -17.5t0.5 -12.5q0 -51 -24 -81t-69 -30q-39 0 -86 22t-66 22q-29 0 -29 -32q0 -11 1 -15l-82 3q-1 9 -1.5 15.5t-0.5 11.5q0 54 27 86t74 32zM41 357q0 167 92 273q91 105 261 105q166 0 249 -101
t83 -263q0 -182 -88 -283q-89 -102 -261 -102q-173 0 -255 100t-82 271h1zM385 116q183 0 183 246q0 243 -176 243q-90 0 -141 -61q-51 -62 -51 -184q0 -244 184 -244h1z" />
    <glyph glyph-name="Odieresis" unicode="&#xd6;" horiz-adv-x="760" 
d="M273 774q-40 0 -66 23q-25 22 -25 60t25 60q26 23 66 23q38 0 63 -23q24 -23 24 -60q0 -38 -24 -60q-23 -22 -63 -22v-1zM508 773q-40 0 -65 23q-24 22 -24 60q0 37 24 60q25 23 65 23q39 0 64 -23q24 -23 24 -60q0 -38 -24 -60q-23 -22 -64 -22v-1zM39 357q0 167 92 273
q91 105 261 105q166 0 249 -101t83 -263q0 -182 -88 -283q-89 -102 -261 -102q-173 0 -255 100t-82 271h1zM383 116q183 0 183 246q0 243 -176 243q-90 0 -141 -61q-51 -62 -51 -184q0 -244 184 -244h1z" />
    <glyph glyph-name="multiply" unicode="&#xd7;" horiz-adv-x="570" 
d="M285 235l-99 -99l-84 87l99 98l-99 99l84 87l99 -99l99 99l84 -87l-99 -99l99 -98l-84 -87z" />
    <glyph glyph-name="Oslash" unicode="&#xd8;" horiz-adv-x="760" 
d="M376 -12q-40 0 -76 6l-27 -66h-143l46 112q-137 92 -137 319q0 167 92 273q91 105 261 105q39 0 72 -6l27 63h142l-46 -110q137 -92 137 -311q0 -182 -88 -283q-89 -102 -261 -102h1zM199 361q0 -113 40 -174l174 418q-7 1 -12.5 1.5t-10.5 0.5q-90 0 -141 -61
q-51 -62 -51 -184zM383 117q183 0 183 246q0 111 -39 173l-174 -418q5 -1 12.5 -1h17.5z" />
    <glyph glyph-name="Ugrave" unicode="&#xd9;" horiz-adv-x="708" 
d="M187 916h162l91 -140l-107 -8zM353 116q75 0 104 38t29 129v441h154v-463q0 -273 -292 -273q-149 0 -216 67q-68 68 -68 210v459h155v-438q0 -89 30 -129t107 -40z" />
    <glyph glyph-name="Uacute" unicode="&#xda;" horiz-adv-x="708" 
d="M380 768l-107 8l91 140h162zM353 116q75 0 104 38t29 129v441h154v-463q0 -273 -292 -273q-149 0 -216 67q-68 68 -68 210v459h155v-438q0 -89 30 -129t107 -40z" />
    <glyph glyph-name="Ucircumflex" unicode="&#xdb;" horiz-adv-x="708" 
d="M355 841l-75 -73l-102 7l107 142h140l102 -142l-100 -6zM353 116q75 0 104 38t29 129v441h154v-463q0 -273 -292 -273q-149 0 -216 67q-68 68 -68 210v459h155v-438q0 -89 30 -129t107 -40z" />
    <glyph glyph-name="Udieresis" unicode="&#xdc;" horiz-adv-x="708" 
d="M236 774q-40 0 -66 23q-25 22 -25 60t25 60q26 23 66 23q38 0 63 -23q24 -23 24 -60q0 -38 -24 -60q-23 -22 -63 -22v-1zM471 773q-40 0 -65 23q-24 22 -24 60q0 37 24 60q25 23 65 23q39 0 64 -23q24 -23 24 -60q0 -38 -24 -60q-23 -22 -64 -22v-1zM353 114q75 0 104 38
t29 129v441h154v-463q0 -273 -292 -273q-149 0 -216 67q-68 68 -68 210v459h155v-438q0 -89 30 -129t107 -40z" />
    <glyph glyph-name="Yacute" unicode="&#xdd;" horiz-adv-x="606" 
d="M327 768l-107 8l91 140h162zM388 0h-155v271l-251 453h169l159 -310h5l153 310h156l-236 -451v-273z" />
    <glyph glyph-name="Thorn" unicode="&#xde;" horiz-adv-x="621" 
d="M226 -1h-153v724h153v-116h121q68 0 116 -18t75 -51t39 -70q12 -38 12 -81q0 -259 -283 -259h-79zM289 250q68 0 105 26q36 25 36 99q0 60 -34 84q-35 24 -96 24h-74v-232z" />
    <glyph glyph-name="germandbls" unicode="&#xdf;" horiz-adv-x="656" 
d="M56 1v513q0 255 265 255q115 0 180 -51t65 -142q0 -67 -33 -109q-32 -41 -77 -58v-3q76 -17 119 -60q44 -44 44 -140q0 -94 -54 -155q-54 -62 -160 -62q-118 0 -173 72l57 92q41 -53 96 -53q82 0 82 116q0 119 -136 119h-35v108h17q103 0 103 111q0 107 -100 107
q-54 0 -81 -30t-27 -108v-523z" />
    <glyph glyph-name="agrave" unicode="&#xe0;" horiz-adv-x="558" 
d="M479 130q0 -22 6 -31t25 -9q11 0 31 6l4 -87q-42 -20 -96 -20q-92 0 -107 66q-51 -67 -155 -67q-45 0 -79 14q-33 13 -48 36q-15 22 -21 44q-6 21 -6 44q0 182 291 182h8v19q0 49 -14 72t-60 23q-38 0 -54 -16q-17 -17 -24 -55l-128 25q25 156 220 156q106 0 158 -44
q51 -44 51 -140zM332 221h-24q-59 -1 -92 -17q-32 -15 -32 -52q0 -57 61 -57q53 0 87 34v92zM113 743h162l74 -162l-101 -9z" />
    <glyph glyph-name="aacute" unicode="&#xe1;" horiz-adv-x="558" 
d="M479 130q0 -22 6 -31t25 -9q11 0 31 6l4 -87q-42 -20 -96 -20q-92 0 -107 66q-51 -67 -155 -67q-45 0 -79 14q-33 13 -48 36q-15 22 -21 44q-6 21 -6 44q0 182 291 182h8v19q0 49 -14 72t-60 23q-38 0 -54 -16q-17 -17 -24 -55l-128 25q25 156 220 156q106 0 158 -44
q51 -44 51 -140zM332 221h-24q-59 -1 -92 -17q-32 -15 -32 -52q0 -57 61 -57q53 0 87 34v92zM290 572l-101 9l75 162h161z" />
    <glyph glyph-name="acircumflex" unicode="&#xe2;" horiz-adv-x="558" 
d="M344 576l-73 94l-76 -95l-101 6l105 164h144l101 -164zM479 130q0 -22 6 -31t25 -9q11 0 31 6l4 -87q-42 -20 -96 -20q-92 0 -107 66q-51 -67 -155 -67q-45 0 -79 14q-33 13 -48 36q-15 22 -21 44q-6 21 -6 44q0 182 291 182h8v19q0 49 -14 72t-60 23q-38 0 -54 -16
q-17 -17 -24 -55l-128 25q25 156 220 156q106 0 158 -44q51 -44 51 -140zM332 221h-24q-59 -1 -92 -17q-32 -15 -32 -52q0 -57 61 -57q53 0 87 34v92z" />
    <glyph glyph-name="atilde" unicode="&#xe3;" horiz-adv-x="558" 
d="M479 130q0 -22 6 -31t25 -9q11 0 31 6l4 -87q-42 -20 -96 -20q-92 0 -107 66q-51 -67 -155 -67q-45 0 -79 14q-33 13 -48 36q-15 22 -21 44q-6 21 -6 44q0 182 291 182h8v19q0 49 -14 72t-60 23q-38 0 -54 -16q-17 -17 -24 -55l-128 25q25 156 220 156q106 0 158 -44
q51 -44 51 -140zM332 221h-24q-59 -1 -92 -17q-32 -15 -32 -52q0 -57 61 -57q53 0 87 34v92zM193 732q36 0 81 -22t66 -22q17 0 23 9t6 35l76 -4q1 -10 1.5 -17.5t0.5 -12.5q0 -51 -24 -81t-69 -30q-39 0 -86 22t-66 22q-29 0 -29 -32q0 -11 1 -15l-82 3q-1 9 -1.5 15.5
t-0.5 11.5q0 54 27 86t74 32h2z" />
    <glyph glyph-name="adieresis" unicode="&#xe4;" horiz-adv-x="558" 
d="M479 130q0 -22 6 -31t25 -9q11 0 31 6l4 -87q-42 -20 -96 -20q-92 0 -107 66q-51 -67 -155 -67q-45 0 -79 14q-33 13 -48 36q-15 22 -21 44q-6 21 -6 44q0 182 291 182h8v19q0 49 -14 72t-60 23q-38 0 -54 -16q-17 -17 -24 -55l-128 25q25 156 220 156q106 0 158 -44
q51 -44 51 -140zM332 221h-24q-59 -1 -92 -17q-32 -15 -32 -52q0 -57 61 -57q53 0 87 34v92zM151 595q-40 0 -66 23q-25 22 -25 60t25 60q26 23 66 23q38 0 63 -23q24 -23 24 -60q0 -38 -24 -60q-23 -22 -63 -22v-1zM386 594q-40 0 -65 23q-24 22 -24 60q0 37 24 60
q25 23 65 23q39 0 64 -23q24 -23 24 -60q0 -38 -24 -60q-23 -22 -64 -22v-1z" />
    <glyph glyph-name="aring" unicode="&#xe5;" horiz-adv-x="558" 
d="M157 667q0 52 32 81t80 29q49 0 81 -27t32 -77t-31 -77q-32 -27 -82 -27q-51 0 -81 27t-30 75zM268 626q44 0 44 45q0 42 -44 42q-20 0 -32 -12t-12 -31q0 -44 45 -44h-1zM477 126q0 -22 6 -31t25 -9q11 0 31 6l4 -87q-42 -20 -96 -20q-92 0 -107 66q-51 -67 -155 -67
q-45 0 -79 14q-33 13 -48 36q-15 22 -21 44q-6 21 -6 44q0 182 291 182h8v19q0 49 -14 72t-60 23q-38 0 -54 -16q-17 -17 -24 -55l-128 25q25 156 220 156q106 0 158 -44q51 -44 51 -140zM330 217h-24q-59 -1 -92 -17q-32 -15 -32 -52q0 -57 61 -57q53 0 87 34v92z" />
    <glyph glyph-name="ae" unicode="&#xe6;" horiz-adv-x="838" 
d="M580 -12q-133 0 -194 78q-81 -78 -191 -78q-46 0 -82 14q-35 13 -51 36q-15 21 -22 44q-6 21 -6 44q0 55 24 93t69 56t90 24t105 6h10v21q0 49 -14 72t-60 23q-38 0 -54 -16q-17 -17 -24 -55l-128 25q25 156 220 156q103 0 147 -71q25 32 71 52q44 19 98 19
q108 0 162 -64q54 -65 54 -177q0 -36 -3 -63h-317q1 -65 27 -94q25 -28 78 -28q38 0 57 19q20 20 27 55l127 -31q-15 -74 -72 -117q-56 -43 -148 -43zM247 94q25 0 54 12q27 12 48 29q-13 34 -18 86h-21q-59 -1 -92 -17q-32 -15 -32 -52q0 -57 61 -57v-1zM647 317v7
q0 97 -76 97q-36 0 -60 -25q-23 -25 -25 -78z" />
    <glyph glyph-name="ccedilla" unicode="&#xe7;" horiz-adv-x="544" 
d="M195 -164q27 -7 48 -7q50 0 50 37q0 22 -15 30t-49 9l11 86q-104 12 -155 81t-51 179q0 133 69 207q69 73 197 73q95 0 152 -51q58 -52 65 -145l-135 -20q-5 53 -24 77q-20 24 -61 24q-49 0 -78 -32q-28 -31 -28 -116q0 -86 26 -124q25 -37 77 -37q43 0 66 23
q22 22 30 72l127 -24q-12 -89 -66 -135q-54 -47 -139 -54l-4 -34q85 -15 85 -92q0 -53 -36 -81q-35 -28 -94 -28q-45 0 -82 14z" />
    <glyph glyph-name="egrave" unicode="&#xe8;" horiz-adv-x="547" 
d="M289 -13q-71 0 -121 22q-51 22 -79 61t-42 86q-13 45 -13 102q0 134 72 203t184 69q113 0 169 -63q55 -62 55 -177q0 -41 -3 -68h-317q1 -63 27 -90q25 -27 77 -27q38 0 57 19q20 20 27 55l127 -31q-15 -74 -72 -117q-56 -43 -148 -43v-1zM356 317q0 104 -76 104
q-36 0 -60 -25q-23 -25 -25 -78zM129 741h162l74 -162l-101 -9z" />
    <glyph glyph-name="eacute" unicode="&#xe9;" horiz-adv-x="547" 
d="M289 -13q-71 0 -121 22q-51 22 -79 61t-42 86q-13 45 -13 102q0 134 72 203t184 69q113 0 169 -63q55 -62 55 -177q0 -41 -3 -68h-317q1 -63 27 -90q25 -27 77 -27q38 0 57 19q20 20 27 55l127 -31q-15 -74 -72 -117q-56 -43 -148 -43v-1zM356 317q0 104 -76 104
q-36 0 -60 -25q-23 -25 -25 -78zM306 570l-101 9l75 162h161z" />
    <glyph glyph-name="ecircumflex" unicode="&#xea;" horiz-adv-x="547" 
d="M359 576l-73 94l-76 -95l-101 6l105 164h144l101 -164zM289 -13q-71 0 -121 22q-51 22 -79 61t-42 86q-13 45 -13 102q0 134 72 203t184 69q113 0 169 -63q55 -62 55 -177q0 -41 -3 -68h-317q1 -63 27 -90q25 -27 77 -27q38 0 57 19q20 20 27 55l127 -31
q-15 -74 -72 -117q-56 -43 -148 -43v-1zM356 317q0 104 -76 104q-36 0 -60 -25q-23 -25 -25 -78z" />
    <glyph glyph-name="edieresis" unicode="&#xeb;" horiz-adv-x="547" 
d="M289 -13q-71 0 -121 22q-51 22 -79 61t-42 86q-13 45 -13 102q0 134 72 203t184 69q113 0 169 -63q55 -62 55 -177q0 -41 -3 -68h-317q1 -63 27 -90q25 -27 77 -27q38 0 57 19q20 20 27 55l127 -31q-15 -74 -72 -117q-56 -43 -148 -43v-1zM356 317q0 104 -76 104
q-36 0 -60 -25q-23 -25 -25 -78zM167 593q-40 0 -66 23q-25 22 -25 60t25 60q26 23 66 23q38 0 63 -23q24 -23 24 -60q0 -38 -24 -60q-23 -22 -63 -22v-1zM402 592q-40 0 -65 23q-24 22 -24 60q0 37 24 60q25 23 65 23q39 0 64 -23q24 -23 24 -60q0 -38 -24 -60
q-23 -22 -64 -22v-1z" />
    <glyph glyph-name="igrave" unicode="&#xec;" horiz-adv-x="268" 
d="M211 0h-151v521h151v-521zM-19 743h162l74 -162l-101 -9z" />
    <glyph glyph-name="iacute" unicode="&#xed;" horiz-adv-x="268" 
d="M211 0h-151v521h151v-521zM158 572l-101 9l75 162h161z" />
    <glyph glyph-name="icircumflex" unicode="&#xee;" horiz-adv-x="268" 
d="M210 576l-73 94l-76 -95l-101 6l105 164h144l101 -164zM211 0h-151v521h151v-521z" />
    <glyph glyph-name="idieresis" unicode="&#xef;" horiz-adv-x="268" 
d="M211 0h-151v521h151v-521zM19 595q-40 0 -66 23q-25 22 -25 60t25 60q26 23 66 23q38 0 63 -23q24 -23 24 -60q0 -38 -24 -60q-23 -22 -63 -22v-1zM254 594q-40 0 -65 23q-24 22 -24 60q0 37 24 60q25 23 65 23q39 0 64 -23q24 -23 24 -60q0 -38 -24 -60q-23 -22 -64 -22
v-1z" />
    <glyph glyph-name="eth" unicode="&#xf0;" horiz-adv-x="588" 
d="M30 247q0 114 58 185q58 72 168 72q61 0 120 -27l4 5q-28 73 -100 118q-73 46 -142 56l54 122q93 -16 165 -62l108 70l66 -94l-83 -53q104 -122 104 -321q0 -154 -65 -243q-64 -88 -204 -88q-126 0 -189 70t-63 192zM187 250q0 -159 101 -159q57 0 84 53q27 52 27 159
q0 14 -1.5 30t-3.5 35q-44 33 -100 33q-52 0 -79 -34q-27 -35 -27 -117h-1z" />
    <glyph glyph-name="ntilde" unicode="&#xf1;" horiz-adv-x="583" 
d="M532 0h-151v330q0 80 -69 80q-55 0 -102 -41v-369h-151v521h134l8 -52q67 63 165 63q86 0 125 -43q39 -44 39 -133zM216 732q36 0 81 -22t66 -22q17 0 23 9t6 35l76 -4q1 -10 1.5 -17.5t0.5 -12.5q0 -51 -24 -81t-69 -30q-39 0 -86 22t-66 22q-29 0 -29 -32q0 -11 1 -15
l-82 3q-1 9 -1.5 15.5t-0.5 11.5q0 54 27 86t74 32h2z" />
    <glyph glyph-name="ograve" unicode="&#xf2;" horiz-adv-x="587" 
d="M287 -12q-254 0 -254 270q0 128 68 201q67 72 201 72q131 0 191 -70q60 -71 60 -192q0 -133 -65 -207t-200 -74h-1zM295 100q50 0 76 38q25 37 25 126q0 84 -24 119t-75 35q-52 0 -79 -37q-27 -38 -27 -120q0 -87 24 -124t79 -37h1zM145 743h162l74 -162l-101 -9z" />
    <glyph glyph-name="oacute" unicode="&#xf3;" horiz-adv-x="587" 
d="M287 -12q-254 0 -254 270q0 128 68 201q67 72 201 72q131 0 191 -70q60 -71 60 -192q0 -133 -65 -207t-200 -74h-1zM295 100q50 0 76 38q25 37 25 126q0 84 -24 119t-75 35q-52 0 -79 -37q-27 -38 -27 -120q0 -87 24 -124t79 -37h1zM322 572l-101 9l75 162h161z" />
    <glyph glyph-name="ocircumflex" unicode="&#xf4;" horiz-adv-x="587" 
d="M374 576l-73 94l-76 -95l-101 6l105 164h144l101 -164zM287 -12q-254 0 -254 270q0 128 68 201q67 72 201 72q131 0 191 -70q60 -71 60 -192q0 -133 -65 -207t-200 -74h-1zM295 100q50 0 76 38q25 37 25 126q0 84 -24 119t-75 35q-52 0 -79 -37q-27 -38 -27 -120
q0 -87 24 -124t79 -37h1z" />
    <glyph glyph-name="otilde" unicode="&#xf5;" horiz-adv-x="587" 
d="M287 -12q-254 0 -254 270q0 128 68 201q67 72 201 72q131 0 191 -70q60 -71 60 -192q0 -133 -65 -207t-200 -74h-1zM295 100q50 0 76 38q25 37 25 126q0 84 -24 119t-75 35q-52 0 -79 -37q-27 -38 -27 -120q0 -87 24 -124t79 -37h1zM225 732q36 0 81 -22t66 -22
q17 0 23 9t6 35l76 -4q1 -10 1.5 -17.5t0.5 -12.5q0 -51 -24 -81t-69 -30q-39 0 -86 22t-66 22q-29 0 -29 -32q0 -11 1 -15l-82 3q-1 9 -1.5 15.5t-0.5 11.5q0 54 27 86t74 32h2z" />
    <glyph glyph-name="odieresis" unicode="&#xf6;" horiz-adv-x="587" 
d="M287 -12q-254 0 -254 270q0 128 68 201q67 72 201 72q131 0 191 -70q60 -71 60 -192q0 -133 -65 -207t-200 -74h-1zM295 100q50 0 76 38q25 37 25 126q0 84 -24 119t-75 35q-52 0 -79 -37q-27 -38 -27 -120q0 -87 24 -124t79 -37h1zM183 595q-40 0 -66 23q-25 22 -25 60
t25 60q26 23 66 23q38 0 63 -23q24 -23 24 -60q0 -38 -24 -60q-23 -22 -63 -22v-1zM418 594q-40 0 -65 23q-24 22 -24 60q0 37 24 60q25 23 65 23q39 0 64 -23q24 -23 24 -60q0 -38 -24 -60q-23 -22 -64 -22v-1z" />
    <glyph glyph-name="divide" unicode="&#xf7;" horiz-adv-x="570" 
d="M359 155q0 -74 -79 -74t-79 74q0 33 21 54t59 21t59 -21t21 -54h-2zM89 261v120h387v-120h-387zM357 487q0 -73 -79 -73t-79 73q0 33 21 54t59 21t59 -21t21 -54h-2z" />
    <glyph glyph-name="oslash" unicode="&#xf8;" horiz-adv-x="587" 
d="M287 -11q-16 0 -32 1.5t-33 3.5l-28 -65h-106l43 99q-98 63 -98 231q0 128 68 201q67 72 201 72q33 0 52 -4l26 58h105l-39 -88q107 -62 107 -229q0 -133 -65 -207t-200 -74zM294 101q50 0 76 38q25 37 25 126q0 59 -12 94l-113 -256q8 -1 14 -1.5t10 -0.5zM191 264
q0 -55 7 -84l106 240h-7q-52 0 -79 -37q-27 -38 -27 -120v1z" />
    <glyph glyph-name="ugrave" unicode="&#xf9;" horiz-adv-x="578" 
d="M54 522h151v-329q0 -44 15 -63t51 -19q52 0 99 41v369h151v-521h-130l-11 56q-58 -67 -165 -67q-160 0 -160 173zM132 744h162l74 -162l-101 -9z" />
    <glyph glyph-name="uacute" unicode="&#xfa;" horiz-adv-x="578" 
d="M54 522h151v-329q0 -44 15 -63t51 -19q52 0 99 41v369h151v-521h-130l-11 56q-58 -67 -165 -67q-160 0 -160 173zM309 573l-101 9l75 162h161z" />
    <glyph glyph-name="ucircumflex" unicode="&#xfb;" horiz-adv-x="578" 
d="M362 576l-73 94l-76 -95l-101 6l105 164h144l101 -164zM54 522h151v-329q0 -44 15 -63t51 -19q52 0 99 41v369h151v-521h-130l-11 56q-58 -67 -165 -67q-160 0 -160 173z" />
    <glyph glyph-name="udieresis" unicode="&#xfc;" horiz-adv-x="578" 
d="M54 522h151v-329q0 -44 15 -63t51 -19q52 0 99 41v369h151v-521h-130l-11 56q-58 -67 -165 -67q-160 0 -160 173zM170 596q-40 0 -66 23q-25 22 -25 60t25 60q26 23 66 23q38 0 63 -23q24 -23 24 -60q0 -38 -24 -60q-23 -22 -63 -22v-1zM405 595q-40 0 -65 23
q-24 22 -24 60q0 37 24 60q25 23 65 23q39 0 64 -23q24 -23 24 -60q0 -38 -24 -60q-23 -22 -64 -22v-1z" />
    <glyph glyph-name="yacute" unicode="&#xfd;" horiz-adv-x="526" 
d="M-4 521h163l109 -363h3l105 363h155q-60 -165 -111 -307.5t-96 -264.5q-34 -94 -76 -133t-120 -39q-71 0 -114 22l11 109q48 -16 78 -16q52 0 75 56l16 41zM285 572l-101 9l75 162h161z" />
    <glyph glyph-name="thorn" unicode="&#xfe;" horiz-adv-x="592" 
d="M59 755h148v-281q58 58 155 58q88 0 141 -62t53 -198q0 -145 -59 -215q-59 -69 -153 -69q-82 0 -138 50v-250h-147v967zM207 146q14 -12 40 -24q27 -12 52 -12q98 0 98 159q0 78 -22 110q-23 33 -69 33q-50 0 -97 -40z" />
    <glyph glyph-name="ydieresis" unicode="&#xff;" horiz-adv-x="526" 
d="M-4 521h163l109 -363h3l105 363h155q-60 -165 -111 -307.5t-96 -264.5q-34 -94 -76 -133t-120 -39q-71 0 -114 22l11 109q48 -16 78 -16q52 0 75 56l16 41zM146 595q-40 0 -66 23q-25 22 -25 60t25 60q26 23 66 23q38 0 63 -23q24 -23 24 -60q0 -38 -24 -60
q-23 -22 -63 -22v-1zM381 594q-40 0 -65 23q-24 22 -24 60q0 37 24 60q25 23 65 23q39 0 64 -23q24 -23 24 -60q0 -38 -24 -60q-23 -22 -64 -22v-1z" />
    <glyph glyph-name="apostrophe" unicode="&#x2bc;" 
d="M201 713h140l-83 -206l-104 14z" />
    <glyph glyph-name="tilde" unicode="&#x2dc;" 
d="M175 732q36 0 81 -22t66 -22q17 0 23 9t6 35l76 -4q1 -10 1.5 -17.5t0.5 -12.5q0 -51 -24 -81t-69 -30q-39 0 -86 22t-66 22q-29 0 -29 -32q0 -11 1 -15l-82 3q-1 9 -1.5 15.5t-0.5 11.5q0 54 27 86t74 32h2z" />
    <glyph glyph-name="endash" unicode="&#x2013;" 
d="M0 225v111h500v-111h-500z" />
    <glyph glyph-name="emdash" unicode="&#x2014;" horiz-adv-x="1000" 
d="M0 225v111h1000v-111h-1000z" />
    <glyph glyph-name="quoteleft" unicode="&#x2018;" horiz-adv-x="218" 
d="M164 546h-145l89 245l109 -12z" />
    <glyph glyph-name="quoteright" unicode="&#x2019;" horiz-adv-x="218" 
d="M71 774h145l-89 -245l-109 12z" />
    <glyph glyph-name="quotedblleft" unicode="&#x201c;" horiz-adv-x="401" 
d="M348 546h-145l89 245l109 -12zM164 546h-145l89 245l109 -12z" />
    <glyph glyph-name="quotedblright" unicode="&#x201d;" horiz-adv-x="401" 
d="M253 774h145l-89 -245l-109 12zM71 774h145l-89 -245l-109 12z" />
    <glyph glyph-name="quotedblbase" unicode="&#x201e;" horiz-adv-x="399" 
d="M55 95h145l-89 -245l-109 12zM239 95h145l-89 -245l-109 12z" />
    <glyph glyph-name="bullet" unicode="&#x2022;" horiz-adv-x="460" 
d="M381 278q0 -146 -151 -146t-151 146q0 73 39 111q38 37 112 37q151 0 151 -147v-1z" />
    <glyph glyph-name="ellipsis" unicode="&#x2026;" horiz-adv-x="722" 
d="M219 76q0 -88 -93 -88t-93 88q0 89 93 89t93 -89zM457 76q0 -88 -93 -88t-93 88q0 89 93 89t93 -89zM690 76q0 -88 -93 -88t-93 88q0 89 93 89t93 -89z" />
    <glyph glyph-name="guilsinglleft" unicode="&#x2039;" horiz-adv-x="279" 
d="M123 103l-86 154l89 151h122l-88 -147l84 -158h-121z" />
    <glyph glyph-name="guilsinglright" unicode="&#x203a;" horiz-adv-x="279" 
d="M153 408l89 -153l-87 -152h-120l84 153l-88 152h122z" />
    <glyph glyph-name="Euro" unicode="&#x20ac;" horiz-adv-x="645" 
d="M372 -11q-230 0 -270 247h-93l15 88h70v62h-62l15 88h56q23 128 95 197t188 69q227 0 237 -238l-132 -14q-4 70 -29 99q-24 29 -78 29q-107 0 -132 -141h194l-15 -88h-187v-62h179l-15 -88h-154q14 -64 43 -93q30 -30 81 -30q56 0 81 28t37 87l126 -22q-7 -61 -33 -106
q-26 -46 -61 -69t-75 -34q-37 -10 -81 -10v1z" />
    <glyph glyph-name="trademark" unicode="&#x2122;" horiz-adv-x="856" 
d="M717 348v239l-89 -239h-63l-87 240v-239h-72v375h92l102 -284l103 284h87v-376h-73zM239 348h-80v308h-118v68h317v-68h-119v-308z" />
    </font>
</defs>
</svg>
