<?xml version="1.0" standalone="no"?>
<!DOCTYPE svg PUBLIC "-//W3C//DTD SVG 1.1//EN" "http://www.w3.org/Graphics/SVG/1.1/DTD/svg11.dtd" >
<svg xmlns="http://www.w3.org/2000/svg" xmlns:xlink="http://www.w3.org/1999/xlink" version="1.1">
<metadata>
Created by FontForge 20170731 at Wed Feb  6 03:45:42 2013
 By Aleksey,,,
Copyright (c) 2012 by TypeTogether. All rights reserved.
</metadata>
<defs>
<font id="AdelleSans-HeavyItalic" horiz-adv-x="641" >
  <font-face 
    font-family="Adelle Sans"
    font-weight="900"
    font-style="italic"
    font-stretch="normal"
    units-per-em="1000"
    panose-1="2 0 5 3 0 0 0 2 0 4"
    ascent="750"
    descent="-250"
    x-height="528"
    cap-height="724"
    bbox="-203 -265 1101 978"
    underline-thickness="50"
    underline-position="-150"
    unicode-range="U+000D-2122"
  />
<missing-glyph horiz-adv-x="500" 
d="M50 500h400v-500h-400v500zM400 50v400h-300v-400h300z" />
    <glyph glyph-name=".notdef" horiz-adv-x="500" 
d="M50 500h400v-500h-400v500zM400 50v400h-300v-400h300z" />
    <glyph glyph-name=".null" horiz-adv-x="0" 
 />
    <glyph glyph-name="nonmarkingreturn" unicode="&#xd;" horiz-adv-x="134" 
 />
    <glyph glyph-name="NULL" horiz-adv-x="0" 
 />
    <glyph glyph-name="NULL" horiz-adv-x="0" 
 />
    <glyph glyph-name="space" unicode=" " horiz-adv-x="134" 
 />
    <glyph glyph-name="exclam" unicode="!" horiz-adv-x="322" 
d="M45 206l52 518h225l-93 -518h-184zM231 97q0 -51 -30.5 -80t-94.5 -29q-101 0 -101 78q0 52 30.5 82t96.5 30q51 0 75 -21.5t24 -59.5z" />
    <glyph glyph-name="quotedbl" unicode="&#x22;" horiz-adv-x="478" 
d="M40 465l36 259h180l-36 -259h-180zM264 465l36 259h180l-36 -259h-180z" />
    <glyph glyph-name="numbersign" unicode="#" horiz-adv-x="606" 
d="M227 0l40 134h-52l-40 -134h-136l40 134h-84l47 137h77l23 78h-85l47 137h78l39 139h136l-39 -139h52l40 139h135l-39 -139h87l-46 -137h-81l-23 -78h88l-46 -137h-82l-40 -134h-136zM330 349h-52l-23 -78h52z" />
    <glyph glyph-name="dollar" unicode="$" horiz-adv-x="586" 
d="M313 562q-69 0 -69 -53q0 -15 9 -25.5t24 -18.5t35 -14.5t43 -13.5q33 -10 67 -23t62.5 -35t46.5 -56t18 -86q0 -58 -19.5 -101.5t-53 -73t-77.5 -46.5t-93 -23l-11 -77h-178l13 84q-42 15 -70 35t-44.5 45.5t-23.5 55t-7 64.5l182 27q0 -17 4 -34t15 -30.5t30 -21.5
t49 -8q13 0 27 3.5t24.5 10.5t17.5 18.5t7 27.5q0 17 -10 28.5t-26.5 20t-38.5 15t-46 14.5q-32 10 -64 23t-57.5 35.5t-42 57t-16.5 86.5q0 47 14.5 85t41 67t63 49t81.5 32l13 86h179l-12 -91q144 -42 146 -191l-190 -20q0 13 -2.5 26t-9.5 23t-19.5 16.5t-31.5 6.5z" />
    <glyph glyph-name="percent" unicode="%" horiz-adv-x="885" 
d="M197 374q-47 0 -78 11t-50 30.5t-27 46.5t-8 59q0 46 11 86t35.5 68.5t64.5 45t98 16.5q83 0 121 -38.5t38 -109.5q0 -47 -13.5 -86t-39.5 -68t-64 -45t-88 -16zM212 478q22 0 31.5 29t9.5 83q0 26 -6 34t-17 8q-20 0 -32 -22.5t-12 -83.5q0 -29 6.5 -38.5t19.5 -9.5z
M74 -11l541 735h180l-540 -735h-181zM642 -13q-47 0 -78 11t-50 30.5t-27 46.5t-8 59q0 46 11 85.5t35.5 68.5t64 45.5t97.5 16.5q84 0 122 -38.5t38 -110.5q0 -46 -13.5 -85.5t-39.5 -68t-64.5 -44.5t-87.5 -16zM657 90q22 0 31.5 29.5t9.5 83.5q0 26 -6.5 34t-16.5 8
q-20 0 -32.5 -22.5t-12.5 -84.5q0 -28 7 -38t20 -10z" />
    <glyph glyph-name="ampersand" unicode="&#x26;" horiz-adv-x="788" 
d="M632 570q0 -25 -8 -51.5t-29.5 -53t-60.5 -52t-101 -46.5q10 -16 18.5 -28.5t17.5 -24.5t19 -24.5t24 -28.5q11 27 15.5 55t7.5 56h186q-5 -47 -22 -98t-62 -104q12 -5 25 -7t26 -3h15.5t15.5 2l16 -154q-23 -8 -52.5 -11t-52.5 -3q-96 0 -170 43q-29 -19 -85 -34
t-131 -15q-66 0 -114 15.5t-79 42t-46 61t-15 73.5q0 77 44 131.5t145 89.5q-12 25 -17.5 51t-5.5 43q0 52 22.5 93t60.5 69t88.5 42.5t106.5 14.5q40 0 76 -7.5t63 -25t43 -45t16 -66.5zM232 280q-13 -11 -22.5 -27t-9.5 -45q0 -40 28 -62t76 -22q9 0 19.5 1t20.5 3
q-30 29 -58 65.5t-54 86.5zM366 537q0 -14 5 -30.5t13 -30.5q32 16 52 33.5t20 39.5q0 23 -12 31.5t-28 8.5q-8 0 -17 -2.5t-16.5 -8.5t-12 -16t-4.5 -25z" />
    <glyph glyph-name="quotesingle" unicode="'" horiz-adv-x="254" 
d="M40 465l36 259h180l-36 -259h-180z" />
    <glyph glyph-name="parenleft" unicode="(" horiz-adv-x="408" 
d="M108 -153q-19 31 -36.5 70.5t-31 85.5t-21.5 97t-8 105q0 80 15 148.5t43 130.5t67.5 120.5t88.5 119.5h237q-41 -50 -81.5 -103.5t-72 -115t-51 -134.5t-19.5 -162q0 -56 8 -106.5t21 -95.5t30 -85t34 -75h-223z" />
    <glyph glyph-name="parenright" unicode=")" horiz-adv-x="408" 
d="M276 724q19 -31 36.5 -70.5t31 -85.5t21.5 -97t8 -105q0 -80 -15 -148.5t-43 -130.5t-67.5 -120.5t-88.5 -119.5h-237q41 50 81.5 103.5t72 115t51 134.5t19.5 162q0 56 -8 106.5t-21 95.5t-30 85t-34 75h223z" />
    <glyph glyph-name="asterisk" unicode="*" horiz-adv-x="481" 
d="M338 644l107 26l15 -98l-100 -49l50 -97l-83 -61l-77 84l-98 -87l-79 62l77 99l-89 48l44 98l102 -25l31 111h102z" />
    <glyph glyph-name="plus" unicode="+" horiz-adv-x="570" 
d="M173 114l18 134h-119l21 153h119l19 130h156l-18 -130h121l-21 -153h-121l-19 -134h-156z" />
    <glyph glyph-name="comma" unicode="," horiz-adv-x="319" 
d="M54 157h215l-156 -301l-168 17z" />
    <glyph glyph-name="hyphen" unicode="-" horiz-adv-x="309" 
d="M3 206l24 166h271l-24 -166h-271z" />
    <glyph glyph-name="period" unicode="." horiz-adv-x="304" 
d="M236 115q0 -60 -31.5 -93.5t-101.5 -33.5q-106 0 -106 88q0 60 32.5 94t104.5 34q52 0 77 -23t25 -66z" />
    <glyph glyph-name="slash" unicode="/" horiz-adv-x="507" 
d="M-53 -92l400 847h191l-399 -847h-192z" />
    <glyph glyph-name="zero" unicode="0" horiz-adv-x="607" 
d="M262 -12q-68 0 -115.5 16t-77 49t-43 82.5t-13.5 116.5q0 54 5.5 111.5t20 111.5t39 101.5t63 83t91.5 56.5t124 21q67 0 112.5 -17.5t73.5 -50.5t40.5 -81.5t12.5 -111.5q0 -55 -6 -112.5t-20.5 -111.5t-39 -102t-61.5 -84t-88 -57t-118 -21zM272 138q14 0 26 8
t22.5 31.5t20 64.5t19.5 107q7 49 12.5 90t5.5 82q0 38 -10 52t-30 14q-15 0 -27 -8t-22.5 -32t-21 -68t-20.5 -115q-5 -38 -10.5 -80.5t-5.5 -80.5q0 -37 10.5 -51t30.5 -14z" />
    <glyph glyph-name="one" unicode="1" horiz-adv-x="477" 
d="M141 0l71 494q-13 -6 -34.5 -11.5t-44.5 -9.5t-44.5 -6t-33.5 -2v171q32 3 66 9.5t66.5 18t61.5 26.5t51 34h154l-102 -724h-211z" />
    <glyph glyph-name="two" unicode="2" horiz-adv-x="566" 
d="M-15 0l25 174l166 164l73.5 73.5t50 53.5t28.5 40t9 34t-10 28.5t-29 11.5q-31 0 -44 -22.5t-26 -63.5l-194 30q9 57 33 98t61 66.5t85 37.5t104 12q63 0 109 -13.5t76 -37.5t44.5 -57t14.5 -72q0 -42 -12.5 -75.5t-42 -69.5t-78.5 -80t-121 -107l-48 -41v-8h254
l-25 -176h-503z" />
    <glyph glyph-name="three" unicode="3" horiz-adv-x="568" 
d="M330 737q109 0 168.5 -40.5t59.5 -124.5q0 -33 -13.5 -61.5t-35 -52t-49.5 -41t-57 -28.5v-4q63 -17 94 -53t31 -96q0 -59 -21.5 -105t-61 -78t-95.5 -48.5t-125 -16.5q-47 0 -90 9t-76 31.5t-53.5 61t-22.5 96.5l188 37q0 -80 64 -80q35 0 57.5 22.5t22.5 65.5
q0 35 -17 47t-56 12h-78l20 150h47q117 0 117 93q0 22 -12.5 36t-35.5 14q-30 0 -48 -18t-29 -57l-185 34q15 56 43.5 93.5t66.5 60t84.5 32t97.5 9.5z" />
    <glyph glyph-name="four" unicode="4" 
d="M294 0l21 146h-314l20 144l317 434h262l-58 -415h77l-22 -163h-78l-21 -146h-204zM337 309l34 238l-169 -238h135z" />
    <glyph glyph-name="five" unicode="5" horiz-adv-x="578" 
d="M259 552l-36 -137q26 20 62 34t85 14q75 0 117 -44t42 -132q0 -75 -25 -131t-66.5 -93.5t-95.5 -56t-112 -18.5q-51 0 -94.5 10t-76.5 34t-52.5 62.5t-21.5 95.5l185 30q-2 -38 15 -57t49 -19q38 0 61.5 28.5t23.5 78.5q0 21 -5.5 32.5t-13 17.5t-17 7.5t-16.5 1.5
q-26 0 -46.5 -13t-35.5 -30l-142 55l82 402h426l-25 -172h-267z" />
    <glyph glyph-name="six" unicode="6" horiz-adv-x="590" 
d="M406 506q1 44 -10 64.5t-40 20.5q-18 0 -35 -9.5t-32 -31t-27 -56.5t-19 -86q26 14 62 25.5t79 11.5q34 0 65 -9t55 -30t38 -55t14 -84q0 -74 -25 -127t-65.5 -86.5t-91.5 -49.5t-103 -16q-72 0 -119.5 20.5t-76 57t-40.5 88t-12 114.5q0 44 6 96.5t21 104.5t41 100.5
t66 85.5t95.5 59.5t129.5 22.5q40 0 77 -9.5t66 -31.5t48 -57t24 -87zM237 284q-2 -21 -3.5 -39.5t-1.5 -34.5q0 -36 10.5 -54t39.5 -18q27 0 41 29t14 79q0 26 -9 40t-34 14q-9 0 -24.5 -3.5t-32.5 -12.5z" />
    <glyph glyph-name="seven" unicode="7" horiz-adv-x="549" 
d="M-13 -1l338 553h-267l25 172h495l-22 -154l-338 -571h-231z" />
    <glyph glyph-name="eight" unicode="8" horiz-adv-x="618" 
d="M474 402q50 -27 79 -65.5t29 -95.5q0 -50 -20.5 -95.5t-61.5 -80.5t-102.5 -56t-143.5 -21q-128 0 -196 47t-68 131q0 73 45 121.5t115 71.5q-45 33 -64 68t-19 85q0 57 24 99t65.5 70t95.5 42t114 14q111 0 174 -43t63 -114q0 -33 -10 -59t-27.5 -47t-41 -38.5
t-50.5 -33.5zM253 289q-26 -18 -41 -40t-15 -48q0 -27 20.5 -45t51.5 -18q14 0 28.5 4t26 12.5t18.5 22t7 32.5q0 29 -25 45.5t-71 34.5zM360 469q22 20 33.5 42t11.5 42q0 26 -17 36.5t-37 10.5q-16 0 -26.5 -5t-17 -13.5t-9.5 -18t-3 -18.5q0 -20 15 -39.5t50 -36.5z" />
    <glyph glyph-name="nine" unicode="9" horiz-adv-x="595" 
d="M175 221q1 -14 3.5 -28.5t9 -26.5t18 -20t31.5 -8q36 0 63 41t44 139q-44 -36 -129 -36q-35 0 -67.5 10t-57.5 32t-40.5 55.5t-15.5 81.5q0 77 25 129.5t65 85t90 47t100 14.5q67 0 114.5 -20.5t78 -57t44.5 -88.5t14 -115q0 -91 -17 -175.5t-56 -149.5t-103 -104
t-158 -39q-49 0 -92 10t-76 32t-54 57t-26 85zM351 442q2 20 4 37t2 32q0 36 -9.5 55.5t-35.5 19.5q-32 0 -46 -26t-14 -70q0 -32 14.5 -46.5t39.5 -14.5q10 0 22 2.5t23 10.5z" />
    <glyph glyph-name="colon" unicode=":" horiz-adv-x="350" 
d="M259 115q0 -60 -31.5 -93.5t-101.5 -33.5q-106 0 -106 88q0 60 32.5 94t104.5 34q52 0 77 -23t25 -66zM310 421q0 -60 -31.5 -93.5t-101.5 -33.5q-106 0 -106 88q0 60 32.5 94t104.5 34q52 0 77 -23t25 -66z" />
    <glyph glyph-name="semicolon" unicode=";" horiz-adv-x="356" 
d="M59 157h215l-156 -301l-168 17zM326 421q0 -60 -31.5 -93.5t-101.5 -33.5q-106 0 -106 88q0 60 32.5 94t104.5 34q52 0 77 -23t25 -66z" />
    <glyph glyph-name="less" unicode="&#x3c;" horiz-adv-x="569" 
d="M34 203l25 182l420 129l-23 -163l-256 -56l239 -65l-22 -158z" />
    <glyph glyph-name="equal" unicode="=" horiz-adv-x="570" 
d="M50 100l21 152h398l-21 -152h-398zM80 311l22 152h397l-22 -152h-397z" />
    <glyph glyph-name="greater" unicode="&#x3e;" horiz-adv-x="569" 
d="M480 203l-420 -130l22 165l257 63l-240 59l23 154l384 -129z" />
    <glyph glyph-name="question" unicode="?" horiz-adv-x="611" 
d="M364 740q48 0 91.5 -11t77.5 -35t54 -62t20 -92q0 -100 -56.5 -167t-180.5 -101l-9 -66h-212l26 187q35 3 71.5 9.5t66.5 21t49 39t19 63.5q0 22 -12 35.5t-37 13.5q-39 0 -56 -24t-28 -65l-203 30q26 115 108.5 169.5t210.5 54.5zM347 97q0 -51 -30 -80t-94 -29
q-101 0 -101 78q0 52 30.5 82t96.5 30q50 0 74 -21.5t24 -59.5z" />
    <glyph glyph-name="at" unicode="@" horiz-adv-x="866" 
d="M568 -174q-29 -10 -87 -22.5t-138 -12.5q-73 0 -135.5 22.5t-108 67t-71 109.5t-25.5 149q0 105 34.5 189t97.5 142.5t151.5 90t196.5 31.5q82 0 146 -21t108.5 -60t68 -93.5t23.5 -120.5q0 -78 -21 -136t-57 -97t-83 -58.5t-99 -19.5q-49 0 -77.5 16t-36.5 39
q-29 -28 -59.5 -38.5t-57.5 -10.5q-55 0 -85 42t-30 110q0 54 15 100t42.5 80t65 53.5t82.5 19.5q28 0 46 -10t27 -24l16 28h100l-47 -270q-3 -18 6 -24.5t23 -6.5q35 0 55 26.5t29.5 61t12 67t2.5 45.5q0 36 -12 70t-38.5 60t-68.5 41.5t-102 15.5q-104 0 -169.5 -32.5
t-103.5 -82t-52 -108t-14 -110.5q0 -57 17 -101.5t47 -75t72.5 -46.5t93.5 -16q49 0 87.5 7.5t82.5 21.5zM479 289q-5 7 -15.5 10.5t-19.5 3.5q-38 0 -63.5 -33.5t-25.5 -104.5q0 -32 8 -53.5t33 -21.5q13 0 22.5 4t28.5 15z" />
    <glyph glyph-name="A" unicode="A" horiz-adv-x="741" 
d="M547 724l159 -724h-232l-28 140h-208l-61 -140h-230l336 724h264zM390 524h-6l-93 -220h135z" />
    <glyph glyph-name="B" unicode="B" horiz-adv-x="650" 
d="M5 0l103 724h324q57 0 95 -13t61.5 -34.5t33.5 -49.5t10 -59q0 -43 -13.5 -74.5t-35.5 -54t-50 -37t-57 -23.5v-3q74 -8 108.5 -45.5t34.5 -98.5q0 -64 -24.5 -108t-66.5 -71.5t-99 -40t-122 -12.5h-302zM280 148q27 0 47.5 3.5t34 13.5t20.5 27t7 43q0 34 -20.5 44.5
t-47.5 10.5h-57l-20 -142h36zM296 439q27 0 49 2.5t38 11t24.5 25t8.5 44.5q0 17 -7.5 27t-18.5 15t-24 6.5t-24 1.5h-38l-19 -133h11z" />
    <glyph glyph-name="C" unicode="C" horiz-adv-x="715" 
d="M682 232q-15 -69 -49 -116t-80 -75.5t-100 -40.5t-111 -12q-82 0 -141.5 22.5t-98.5 63.5t-58 98t-19 126q0 95 25.5 175.5t76.5 139t127.5 91.5t178.5 33q69 0 123 -18t90.5 -53.5t54 -88t14.5 -120.5l-199 -19q6 66 -18 100t-78 34q-81 0 -124.5 -66t-43.5 -204
q0 -78 27.5 -113t84.5 -35q31 0 52.5 9.5t36 24.5t24 34.5t16.5 39.5z" />
    <glyph glyph-name="D" unicode="D" horiz-adv-x="729" 
d="M5 0l103 724h287q83 0 143 -20t98.5 -57t57 -90.5t18.5 -119.5q0 -93 -26 -173t-80 -138.5t-136.5 -92t-194.5 -33.5h-270zM287 164q105 0 154.5 60.5t49.5 198.5q0 77 -31.5 108t-104.5 31h-52l-56 -398h40z" />
    <glyph glyph-name="E" unicode="E" horiz-adv-x="596" 
d="M5 0l103 724h498l-23 -169h-281l-17 -115h266l-24 -166h-266l-15 -104h306l-24 -170h-523z" />
    <glyph glyph-name="F" unicode="F" horiz-adv-x="564" 
d="M222 0h-217l103 724h494l-24 -169h-277l-18 -128h252l-24 -165h-252z" />
    <glyph glyph-name="G" unicode="G" horiz-adv-x="751" 
d="M665 0h-157l-9 81q-17 -25 -41.5 -42.5t-52 -29t-58 -16.5t-59.5 -5q-71 0 -120.5 22.5t-81.5 62t-46.5 93t-14.5 115.5q0 96 25.5 179t77.5 144.5t130 97t182 35.5q134 0 208 -63t73 -196l-204 -19q1 15 -0.5 35t-10.5 37t-27.5 29t-52.5 12q-51 0 -84.5 -22t-53 -59.5
t-27.5 -88t-8 -107.5q0 -31 5 -57t18 -45t34.5 -30t54.5 -11q51 0 80.5 19.5t35.5 61.5l1 5h-73l20 141h291z" />
    <glyph glyph-name="H" unicode="H" horiz-adv-x="744" 
d="M645 0h-217l37 268h-205l-37 -268h-218l103 724h217l-39 -276h205l39 276h218z" />
    <glyph glyph-name="I" unicode="I" horiz-adv-x="321" 
d="M5 0l103 724h217l-103 -724h-217z" />
    <glyph glyph-name="J" unicode="J" horiz-adv-x="582" 
d="M373 724h217l-71 -502q-17 -123 -86 -178.5t-198 -55.5q-48 0 -92 10t-78 36.5t-54 71.5t-20 115l215 30q0 -19 2 -37t6.5 -31.5t14 -22t24.5 -8.5q24 0 33 15.5t14 43.5z" />
    <glyph glyph-name="K" unicode="K" horiz-adv-x="707" 
d="M285 445l262 279h241l-286 -300l161 -424h-240l-96 275l-77 -75l-29 -200h-216l103 724h216z" />
    <glyph glyph-name="L" unicode="L" horiz-adv-x="588" 
d="M5 0l103 724h217l-78 -548h298l-25 -176h-515z" />
    <glyph glyph-name="M" unicode="M" horiz-adv-x="941" 
d="M841 0h-201l74 515h-7l-195 -515h-187l-42 518h-7l-73 -518h-198l103 724h321l27 -449h9l160 449h319z" />
    <glyph glyph-name="N" unicode="N" horiz-adv-x="751" 
d="M408 0l-142 423l-6 1l-59 -424h-196l103 724h241l150 -439h5l57 439h194l-103 -724h-244z" />
    <glyph glyph-name="O" unicode="O" horiz-adv-x="767" 
d="M336 -12q-86 0 -145.5 23.5t-96.5 64.5t-53 96.5t-16 120.5q0 87 26 167.5t77.5 142t130 98t183.5 36.5q87 0 146.5 -25t95.5 -68.5t51.5 -101t15.5 -122.5q0 -83 -24.5 -160.5t-75.5 -138t-129.5 -97t-185.5 -36.5zM360 156q55 0 88 29.5t51 71.5t23.5 88.5t5.5 81.5
q0 26 -5 51.5t-17 45t-32.5 31.5t-51.5 12q-57 0 -91.5 -27t-53 -67.5t-24.5 -87.5t-6 -86q0 -28 5.5 -53.5t19 -45.5t35 -32t53.5 -12z" />
    <glyph glyph-name="P" unicode="P" horiz-adv-x="631" 
d="M221 0h-216l103 724h279q75 0 123.5 -17t76.5 -45.5t38.5 -66t10.5 -78.5q0 -66 -19.5 -122t-60.5 -96t-104.5 -62.5t-151.5 -22.5h-49zM295 374q24 0 45 5t36 18t24 35.5t9 58.5q0 24 -7 37.5t-17.5 21t-23 9.5t-22.5 2h-37l-28 -187h21z" />
    <glyph glyph-name="Q" unicode="Q" horiz-adv-x="767" 
d="M336 -12q-86 0 -145.5 23.5t-96.5 64.5t-53 96.5t-16 120.5q0 87 26 167.5t77.5 142t130 98t183.5 36.5q87 0 146.5 -25t95.5 -68.5t51.5 -101t15.5 -122.5q0 -60 -12.5 -117.5t-39 -108t-66.5 -92t-94 -69.5q27 -29 68.5 -46t101.5 -9l-42 -168q-56 -8 -104 4t-87.5 37
t-69.5 61t-49 77q-5 -1 -10.5 -1h-10.5zM360 156q55 0 88 29.5t51 71.5t23.5 88.5t5.5 81.5q0 26 -5 51.5t-17 45t-32.5 31.5t-51.5 12q-57 0 -91.5 -27t-53 -67.5t-24.5 -87.5t-6 -86q0 -28 5.5 -53.5t19 -45.5t35 -32t53.5 -12z" />
    <glyph glyph-name="R" unicode="R" horiz-adv-x="662" 
d="M613 0h-235l-84 258h-35l-38 -258h-216l103 724h307q65 0 109.5 -15.5t71.5 -41.5t39 -59.5t12 -70.5q0 -90 -38.5 -143t-105.5 -84zM309 412q19 0 38.5 3.5t35 13.5t25.5 28.5t10 47.5q0 25 -15.5 41t-54.5 16h-46l-22 -150h29z" />
    <glyph glyph-name="S" unicode="S" horiz-adv-x="620" 
d="M415 501q1 42 -15.5 62.5t-61.5 20.5q-35 0 -54.5 -13.5t-19.5 -39.5q0 -19 15.5 -32t44.5 -23q37 -12 83 -24.5t86 -36t67 -63.5t27 -108q0 -66 -27 -114.5t-72 -80t-102.5 -46.5t-118.5 -15q-44 0 -95 7t-94.5 31.5t-71.5 72.5t-25 130l201 26q0 -20 2.5 -40.5
t12 -36.5t29 -26t52.5 -10q42 0 67 16t25 51q0 15 -9 25t-24.5 18t-36 14.5t-44.5 12.5q-35 10 -72.5 23.5t-68.5 36.5t-50.5 59t-19.5 92q0 58 24.5 104t67 78t99.5 48.5t121 16.5q54 0 102 -9.5t83 -33.5t55 -65.5t18 -106.5z" />
    <glyph glyph-name="T" unicode="T" 
d="M166 0l78 549h-210l25 175h635l-25 -175h-208l-78 -549h-217z" />
    <glyph glyph-name="U" unicode="U" horiz-adv-x="707" 
d="M658 264q-11 -81 -40 -134t-73.5 -84.5t-103.5 -44.5t-129 -13q-170 0 -234.5 76t-42.5 231l61 429h218l-59 -416q-5 -32 -7 -60t4 -49t24 -33t55 -12q33 0 53 9t31.5 27.5t17 47t11.5 66.5l61 420h216z" />
    <glyph glyph-name="V" unicode="V" horiz-adv-x="708" 
d="M165 0l-123 724h235l61 -515h10l200 515h232l-323 -724h-292z" />
    <glyph glyph-name="W" unicode="W" horiz-adv-x="1042" 
d="M562 0l-19 416h-6l-137 -416h-295l-51 724h227l10 -505h6l171 505h224l41 -503q0 -1 2.5 -0.5t4.5 0.5l142 503h219l-261 -724h-278z" />
    <glyph glyph-name="X" unicode="X" horiz-adv-x="683" 
d="M402 0l-87 187l-140 -187h-238l283 362l-169 362h234l87 -206l148 206h229l-281 -364l183 -360h-249z" />
    <glyph glyph-name="Y" unicode="Y" horiz-adv-x="652" 
d="M434 264q-8 -66 -17.5 -132t-18.5 -132h-219l39 267l-191 457h226l92 -270h7l156 270h229l-303 -460v0z" />
    <glyph glyph-name="Z" unicode="Z" horiz-adv-x="603" 
d="M-27 0l20 147l361 408h-296l24 169h544l-22 -151l-349 -404h304l-24 -169h-562z" />
    <glyph glyph-name="bracketleft" unicode="[" horiz-adv-x="365" 
d="M-16 -143l123 867h284l-17 -116h-78l-89 -636h78l-16 -115h-285z" />
    <glyph glyph-name="backslash" unicode="\" horiz-adv-x="512" 
d="M244 -92l-161 847h192l162 -847h-193z" />
    <glyph glyph-name="bracketright" unicode="]" horiz-adv-x="365" 
d="M374 724l-123 -867h-284l17 116h78l89 636h-78l16 115h285z" />
    <glyph glyph-name="asciicircum" unicode="^" horiz-adv-x="795" 
d="M501 299l-108 195l-105 -195h-197l197 365h213l199 -365h-199z" />
    <glyph glyph-name="underscore" unicode="_" horiz-adv-x="500" 
d="M-60 -181v146h500v-146h-500z" />
    <glyph glyph-name="grave" unicode="`" horiz-adv-x="500" 
d="M355 572l-107 167h215l29 -161z" />
    <glyph glyph-name="a" unicode="a" 
d="M536 152q-3 -20 2 -28.5t24 -8.5q7 0 13.5 1.5t17.5 4.5l-10 -109q-9 -4 -24.5 -8.5t-33.5 -8t-36.5 -6t-33.5 -2.5q-54 0 -81.5 16t-39.5 51q-25 -29 -62 -47.5t-85 -18.5q-42 0 -76 12t-58 37.5t-37.5 65t-13.5 93.5q0 101 26 167t65 105t83.5 55t81.5 16
q48 0 76 -13.5t49 -36.5l8 39h199zM356 366q-10 9 -20 11.5t-19 2.5q-26 0 -43 -15.5t-27 -39.5t-14 -51.5t-4 -51.5q0 -31 12 -53t44 -22q9 0 21 2.5t20 7.5z" />
    <glyph glyph-name="b" unicode="b" horiz-adv-x="601" 
d="M-18 0l106 755h207l-38 -272q33 32 70 44t77 12q34 0 64 -11t52.5 -35t35.5 -63t13 -95q0 -89 -18.5 -154.5t-51.5 -108.5t-77.5 -63.5t-95.5 -20.5q-53 0 -88.5 20.5t-50.5 46.5q-2 0 -3 -0.5t-3 -0.5l-15 -54h-184zM215 166q19 -17 55 -17q33 0 53 36t20 116
q0 13 -2 26.5t-8 25t-16.5 18.5t-27.5 7q-11 0 -23.5 -4t-23.5 -12z" />
    <glyph glyph-name="c" unicode="c" horiz-adv-x="555" 
d="M252 -12q-62 0 -109 17.5t-78.5 48.5t-47.5 73t-16 91q0 74 20.5 133.5t60 101t96.5 64t130 22.5q115 0 171.5 -61t52.5 -163l-180 -12q1 16 0.5 31.5t-5 28.5t-14.5 21t-27 8q-27 0 -43 -19.5t-24.5 -47.5t-11.5 -58.5t-3 -52.5q0 -35 12 -54t40 -19q16 0 28.5 7.5
t21.5 19t14 25.5t8 28l171 -26q-12 -55 -36.5 -94t-59 -64t-78 -37t-93.5 -12z" />
    <glyph glyph-name="d" unicode="d" horiz-adv-x="605" 
d="M338 0l-1 51q-1 0 -1.5 1t-1.5 1q-26 -31 -64 -48t-86 -17q-41 0 -74.5 12t-57 37.5t-36.5 65t-13 94.5q0 94 24.5 159.5t62 106t83 58.5t87.5 18q48 0 76.5 -14t49.5 -37l36 267h201l-106 -755h-179zM358 365q-11 10 -22 12.5t-19 2.5q-26 0 -43 -16.5t-27 -40.5
t-13.5 -52t-3.5 -50q0 -31 12.5 -54t44.5 -23q9 0 19.5 3.5t21.5 11.5z" />
    <glyph glyph-name="e" unicode="e" horiz-adv-x="544" 
d="M240 -12q-67 0 -112.5 18.5t-73.5 50t-40.5 72t-12.5 85.5q0 87 26.5 148.5t70.5 100.5t100 57.5t116 18.5q57 0 95.5 -12t62.5 -33t34 -49t10 -59q0 -54 -24 -87t-64 -53q-25 -13 -53 -21.5t-56 -13.5t-52.5 -8t-42.5 -4q1 -11 2.5 -21.5t6.5 -19.5t14.5 -14.5
t25.5 -5.5q27 0 41.5 15.5t23.5 41.5l165 -42q-12 -35 -34 -65t-54.5 -52.5t-76 -35t-98.5 -12.5zM290 402q-8 0 -16.5 -2.5t-16.5 -11t-14.5 -24t-9.5 -41.5q18 1 23 2.5t7 1.5q31 7 42 19t11 27q0 12 -7 20.5t-19 8.5z" />
    <glyph glyph-name="f" unicode="f" horiz-adv-x="405" 
d="M445 608q-14 5 -32.5 9.5t-37.5 4.5q-15 0 -28 -2t-23 -10.5t-17.5 -24t-11.5 -42.5l-3 -15h133l-20 -143h-133l-84 -597h-211l84 597h-65l20 143h65l7 50q7 54 28.5 90t53.5 58.5t73 32t87 9.5q57 0 94.5 -10.5t48.5 -16.5z" />
    <glyph glyph-name="g" unicode="g" horiz-adv-x="610" 
d="M323 380q-23 0 -39 -11.5t-26 -29.5t-14 -40.5t-4 -45.5q0 -12 2.5 -25t8.5 -23.5t16.5 -17t27.5 -6.5q8 0 20.5 1.5t21.5 5.5l25 178q-9 11 -20 12.5t-19 1.5zM330 71q-21 -20 -56.5 -36.5t-80.5 -16.5q-39 0 -72.5 12t-58 37t-38.5 63.5t-14 90.5q0 57 14 113.5
t44.5 102t79 74t116.5 28.5q43 0 78 -16t55 -48l13 53h186l-67 -478q-12 -81 -40 -134t-69.5 -83.5t-93.5 -43t-111 -12.5q-115 0 -178 52t-70 138l198 27q2 -33 13.5 -49.5t47.5 -16.5q16 0 31 3.5t28.5 14t23.5 31t15 54.5z" />
    <glyph glyph-name="h" unicode="h" horiz-adv-x="585" 
d="M193 0h-211l106 755h208l-41 -282q9 10 24 21.5t35 21.5t45 16.5t55 6.5q83 0 116.5 -42.5t20.5 -133.5l-51 -363h-211l45 324q6 46 -30 46q-20 0 -37.5 -9t-24.5 -16z" />
    <glyph glyph-name="i" unicode="i" horiz-adv-x="289" 
d="M198 0h-211l74 528h211zM306 701q0 -63 -35.5 -99t-99.5 -36q-50 0 -76 26t-26 72q0 63 36 98t98 35q51 0 77 -24.5t26 -71.5z" />
    <glyph glyph-name="j" unicode="j" horiz-adv-x="286" 
d="M61 528h211l-76 -544q-8 -56 -28.5 -95.5t-51.5 -64t-71.5 -36t-86.5 -11.5q-66 0 -106.5 12t-54.5 23l35 139q11 -6 30 -12.5t48 -6.5q12 0 24 2t22.5 9.5t19 21t11.5 37.5zM307 701q0 -63 -36 -99t-100 -36q-50 0 -76 26t-26 72q0 63 36 98t98 35q51 0 77.5 -24.5
t26.5 -71.5z" />
    <glyph glyph-name="k" unicode="k" horiz-adv-x="597" 
d="M327 0l-77 214l-30 -23l-27 -191h-211l106 755h211l-53 -372l146 145h230l-195 -189l134 -339h-234z" />
    <glyph glyph-name="l" unicode="l" horiz-adv-x="289" 
d="M93 755h211l-106 -755h-211z" />
    <glyph glyph-name="m" unicode="m" horiz-adv-x="842" 
d="M396 539q16 0 33.5 -3t34 -11t30 -21t21.5 -32q22 26 61.5 46.5t93.5 20.5q36 0 64.5 -10t47.5 -31t26 -53t1 -77l-51 -368h-211l46 320q5 29 -2.5 39t-23.5 10q-12 0 -22 -5t-21 -18l-50 -346h-211l46 320q5 29 0.5 39t-18.5 10q-13 0 -26.5 -6t-23.5 -17l-48 -346h-211
l74 528h194l-9 -63q2 0 2.5 -0.5t1.5 -0.5q10 12 24 25.5t33 24.5t42 18t52 7z" />
    <glyph glyph-name="n" unicode="n" horiz-adv-x="585" 
d="M193 0h-211l74 528h196l-9 -65q2 0 2 -0.5t1 -0.5q14 15 30 29t36.5 24.5t46.5 17t60 6.5q74 0 109.5 -42.5t22.5 -133.5l-51 -363h-211l45 324q4 31 -5.5 38.5t-24.5 7.5q-19 0 -36.5 -9t-26.5 -18z" />
    <glyph glyph-name="o" unicode="o" horiz-adv-x="597" 
d="M258 -12q-135 0 -196 59t-61 163q0 73 21.5 134t62.5 104t101 67t137 24q69 0 115.5 -17.5t74.5 -47.5t40 -69.5t12 -82.5q0 -70 -19.5 -131t-58 -106t-96 -71t-133.5 -26zM265 128q27 0 42.5 22t24 52.5t11 63t2.5 53.5q0 44 -13 60.5t-34 16.5q-26 0 -42 -22
t-24.5 -52.5t-11.5 -63t-3 -52.5q0 -46 14 -62t34 -16z" />
    <glyph glyph-name="p" unicode="p" horiz-adv-x="601" 
d="M245 474l3 -2q33 40 76 53.5t80 13.5q35 0 65.5 -11t53 -36t35.5 -64t13 -94q0 -93 -20.5 -158.5t-55 -107.5t-79.5 -61t-95 -19q-48 0 -81 16t-47 32l-35 -248h-204l104 740h194zM344 302q0 42 -11.5 59t-37.5 17q-11 0 -24.5 -3.5t-27.5 -11.5l-27 -196q5 -8 20 -13.5
t27 -5.5q23 0 38.5 12t25 33t13.5 49t4 60z" />
    <glyph glyph-name="q" unicode="q" horiz-adv-x="604" 
d="M262 539q42 0 76 -15t54 -50l10 54h188l-105 -740h-201l36 254q-20 -21 -57 -37.5t-82 -16.5q-41 0 -74 12t-56.5 38t-36.5 67t-13 99q0 93 24 156.5t62 103.5t84.5 57.5t90.5 17.5zM228 234q0 -34 11.5 -58.5t45.5 -24.5q7 0 19 1.5t23 6.5l29 205q-10 12 -21.5 14
t-18.5 2q-23 0 -40 -12.5t-27.5 -32.5t-15.5 -46.5t-5 -54.5z" />
    <glyph glyph-name="r" unicode="r" horiz-adv-x="429" 
d="M193 0h-211l74 528h191l-10 -86q1 0 1.5 -0.5t1.5 -0.5q11 16 27 33.5t38 32t49 23.5t60 9q8 0 15.5 -0.5t15.5 -1.5l-27 -194q-53 3 -100 -6t-82 -30z" />
    <glyph glyph-name="s" unicode="s" horiz-adv-x="516" 
d="M272 539q92 0 149.5 -36.5t74.5 -109.5l-174 -39q-7 23 -21 38t-40 15q-18 0 -29 -6t-11 -19q0 -17 21 -23.5t53 -11.5q28 -5 60.5 -12.5t60 -24t45.5 -45.5t18 -77q0 -51 -22 -88.5t-60 -62.5t-88 -37t-107 -12q-63 0 -106.5 13t-71.5 33.5t-42 46.5t-17 52l180 45
q2 -8 5.5 -18t11.5 -19t21.5 -15t34.5 -6q32 0 41.5 10t9.5 18q0 17 -24 24t-59 15q-28 6 -58 15t-55 26.5t-41.5 46.5t-16.5 75q0 50 21.5 85.5t57.5 58.5t82.5 34t95.5 11z" />
    <glyph glyph-name="t" unicode="t" horiz-adv-x="442" 
d="M392 29q-11 -6 -29.5 -13.5t-41 -13.5t-48 -10t-51.5 -4q-102 0 -146.5 51.5t-30.5 151.5l29 194h-77l19 143h77l22 153l215 31l-26 -184h134l-19 -143h-134l-26 -177q-5 -29 4.5 -46.5t35.5 -17.5q22 0 39 5t33 13z" />
    <glyph glyph-name="u" unicode="u" horiz-adv-x="574" 
d="M351 528h211l-73 -528h-179l2 61q-1 0 -1.5 0.5t-1.5 0.5q-26 -33 -68 -53.5t-94 -20.5q-81 0 -118.5 47t-25.5 135l50 358h211l-44 -324q-1 -6 -1.5 -15t2.5 -17t11 -14t25 -6q14 0 24.5 7t21.5 19z" />
    <glyph glyph-name="v" unicode="v" horiz-adv-x="574" 
d="M108 0l-100 528h220l31 -334h6l117 334h225l-252 -528h-247z" />
    <glyph glyph-name="w" unicode="w" horiz-adv-x="874" 
d="M81 0l-73 528h210l27 -318l4 1l112 317h200l35 -316h4l101 316h207l-228 -528h-234l-22 280h-4l-88 -280h-251z" />
    <glyph glyph-name="x" unicode="x" horiz-adv-x="575" 
d="M312 0l-60 123l-90 -123h-211l210 264l-142 264h215l62 -132l92 132h212l-206 -272l133 -256h-215z" />
    <glyph glyph-name="y" unicode="y" horiz-adv-x="569" 
d="M6 528h225l36 -323h4l117 323h221l-275 -569q-23 -47 -46.5 -81.5t-52.5 -57t-66 -33t-87 -10.5q-16 0 -35 2.5t-36.5 6t-32.5 8.5t-24 10l33 142q51 -16 77 -16q16 0 27 4t18.5 11.5t13.5 17t14 21.5z" />
    <glyph glyph-name="z" unicode="z" horiz-adv-x="474" 
d="M-33 0l19 134l230 251h-194l20 143h418l-20 -137l-217 -238h202l-23 -153h-435z" />
    <glyph glyph-name="braceleft" unicode="{" horiz-adv-x="367" 
d="M33 354q34 0 46 19.5t16 47.5q4 32 5.5 57t2.5 46t2.5 40.5t4.5 40.5q7 43 26 69.5t48 40t68 18t86 4.5h61l-17 -129h-4q-25 0 -33.5 -12.5t-10.5 -53.5q-1 -21 -2 -44t-2.5 -44t-4.5 -39t-7 -31q-11 -31 -36.5 -50t-65.5 -34q0 -1 -0.5 -2t-0.5 -2q41 -14 58.5 -33
t17.5 -54q0 -26 -6 -50.5t-13.5 -49t-13.5 -48t-6 -47.5q0 -13 6 -20.5t24 -7.5h6l-19 -131h-97q-27 0 -54.5 5.5t-50 18.5t-36.5 35t-14 55q0 31 6.5 58.5t13.5 54.5t13 54t6 59q0 18 -6.5 32t-33.5 14h-26l17 113h26z" />
    <glyph glyph-name="bar" unicode="|" horiz-adv-x="280" 
d="M-28 -143l126 898h192l-126 -898h-192z" />
    <glyph glyph-name="braceright" unicode="}" horiz-adv-x="369" 
d="M319 238q-34 0 -46 -19.5t-16 -47.5q-4 -32 -5.5 -57t-2.5 -46t-2.5 -40.5t-4.5 -40.5q-7 -44 -26 -70t-48 -39.5t-68 -18t-86 -4.5h-61l17 129h4q25 0 33.5 12.5t10.5 53.5q1 43 4 87.5t12 70.5q11 31 36.5 50t65.5 34q0 1 0.5 2t0.5 2q-41 14 -58.5 33t-17.5 54
q0 25 6 50t13.5 49.5t13.5 48t6 47.5q0 13 -6 20.5t-24 7.5h-6l19 131h97q27 0 54.5 -5.5t50 -18.5t36.5 -35t14 -55q0 -32 -6.5 -59t-13.5 -54t-13 -54.5t-6 -58.5q0 -18 6.5 -32t33.5 -14h26l-17 -113h-26z" />
    <glyph glyph-name="asciitilde" unicode="~" horiz-adv-x="683" 
d="M219 477q25 0 61.5 -6.5t73 -14t68.5 -14t49 -6.5q15 0 18 9.5t3 27.5l109 -6q4 -31 1 -61t-15 -54t-35.5 -38.5t-60.5 -14.5q-28 0 -65.5 6.5t-74.5 14.5t-68 14.5t-46 6.5q-17 0 -22.5 -9t-0.5 -32l-119 4q-4 34 0 65.5t18.5 55.5t40.5 38t65 14z" />
    <glyph glyph-name="uni00A0" unicode="&#xa0;" horiz-adv-x="134" 
 />
    <glyph glyph-name="exclamdown" unicode="&#xa1;" horiz-adv-x="323" 
d="M252 321l-52 -518h-225l93 518h184zM66 430q0 51 30.5 80t94.5 29q101 0 101 -78q0 -52 -30.5 -82t-96.5 -30q-51 0 -75 21.5t-24 59.5z" />
    <glyph glyph-name="cent" unicode="&#xa2;" horiz-adv-x="573" 
d="M442 721l-15 -110q62 -18 93.5 -68t35.5 -117l-188 -13q0 35 -8.5 51t-33.5 16q-24 0 -39.5 -13t-24.5 -35.5t-12.5 -51.5t-3.5 -60q0 -37 12 -52t40 -15q29 0 45 17.5t27 59.5l167 -29q-17 -78 -65 -126t-131 -65l-13 -110h-179l17 121q-67 24 -101.5 71t-34.5 119
q0 67 16 119t45 89.5t69.5 62t89.5 35.5l14 104h178z" />
    <glyph glyph-name="sterling" unicode="&#xa3;" horiz-adv-x="625" 
d="M53 151q29 17 47.5 46.5t18.5 68.5q0 17 -5 37h-95l20 144h52q-7 16 -14 37t-7 51q0 42 17.5 79t52.5 64t87 43t121 16q123 0 184.5 -56t63.5 -165l-190 -12q-1 13 -3 27.5t-8.5 27t-19 20.5t-34.5 8q-32 0 -44.5 -15t-12.5 -40q0 -20 7 -41.5t17 -43.5h164l-20 -144
h-126q2 -27 -2.5 -49t-15 -40t-25 -33.5t-31.5 -29.5h41q34 0 56.5 4.5t37.5 14.5t24 27t14 43l172 -27q-13 -111 -82.5 -162t-206.5 -51h-351l20 151h76z" />
    <glyph glyph-name="currency" unicode="&#xa4;" horiz-adv-x="570" 
d="M395 -13l-69 84q-26 -11 -52.5 -17t-58.5 -6q-31 0 -57 6.5t-46 17.5l-98 -85l-88 105l104 88q-2 12 -3 29t-1 31q0 37 10 69.5t28 61.5l-71 86l123 106l66 -81q55 26 116 26q64 0 106 -23l91 77l85 -104l-95 -81q2 -12 3 -27t1 -28q0 -42 -12.5 -76.5t-31.5 -66.5
l72 -86zM241 190q21 0 37.5 9t28.5 24.5t18 35.5t6 42q0 29 -14.5 46t-44.5 17q-42 0 -65.5 -31.5t-23.5 -76.5q0 -28 13.5 -47t44.5 -19z" />
    <glyph glyph-name="yen" unicode="&#xa5;" horiz-adv-x="619" 
d="M405 239l-33 -239h-218l34 239h-117l21 161h60l-122 324h234l61 -264h7l117 264h221l-191 -324h71l-22 -161h-123z" />
    <glyph glyph-name="brokenbar" unicode="&#xa6;" horiz-adv-x="280" 
d="M-28 -143l55 388h192l-55 -388h-192zM51 422l47 333h192l-47 -333h-192z" />
    <glyph glyph-name="section" unicode="&#xa7;" horiz-adv-x="587" 
d="M344 576q-21 0 -40 -10.5t-19 -33.5t19 -38t48 -27.5t62.5 -25t62.5 -32t48 -48t19 -71.5q0 -51 -28.5 -91t-78.5 -72q14 -17 27 -46t13 -67q0 -53 -20 -95t-55.5 -71.5t-84 -45.5t-105.5 -16q-41 0 -80.5 7.5t-72 27.5t-54.5 56.5t-27 95.5l178 19q1 -13 4.5 -25.5
t10.5 -22.5t19 -16t30 -6q16 0 33 9t17 30q0 25 -19 40t-48 26.5t-62 23t-62 29.5t-48 46.5t-19 73.5q0 58 26 95.5t81 70.5q-14 17 -27 48.5t-13 64.5q0 55 21 98t58.5 72.5t89 44.5t112.5 15q40 0 79.5 -8.5t70 -29.5t48.5 -57t16 -92l-179 -19q4 35 -7.5 54t-43.5 19z
M201 272q0 -16 6.5 -25.5t21.5 -17.5t40 -17t63 -22q21 10 21 34q0 15 -6.5 24.5t-22 17.5t-41.5 17.5t-65 23.5q-17 -12 -17 -35z" />
    <glyph glyph-name="dieresis" unicode="&#xa8;" horiz-adv-x="500" 
d="M168 672q0 52 37.5 84t94.5 32q47 0 74 -24t27 -65q0 -54 -36.5 -86t-93.5 -32q-48 0 -75.5 24.5t-27.5 66.5zM429 672q0 52 37.5 84t94.5 32q48 0 74.5 -24t26.5 -65q0 -54 -36.5 -86t-92.5 -32q-48 0 -76 24.5t-28 66.5z" />
    <glyph glyph-name="copyright" unicode="&#xa9;" horiz-adv-x="833" 
d="M781 354q0 -83 -26.5 -150.5t-75 -115.5t-116 -74t-149.5 -26q-90 0 -158.5 26.5t-114.5 74t-69.5 111.5t-23.5 139q0 85 29 153t79 114.5t117 71.5t143 25q85 0 152.5 -24.5t115 -70.5t72.5 -110.5t25 -143.5zM416 89q121 0 188.5 68.5t67.5 190.5q0 62 -19 109.5
t-53 80t-81 49t-103 16.5q-55 0 -102 -17.5t-81.5 -51.5t-54 -82.5t-19.5 -111.5q0 -118 67 -184.5t190 -66.5zM585 282q-5 -39 -23 -64.5t-42 -40.5t-50.5 -21t-48.5 -6q-48 0 -82 14.5t-55.5 41t-31 62t-9.5 77.5t12 78t35 61.5t57 40t78 14.5q29 0 56 -8.5t49 -25.5
t35.5 -43t15.5 -61l-88 -8q-5 37 -23.5 52.5t-48.5 15.5q-37 0 -59 -26.5t-22 -91.5q0 -22 3 -42.5t12 -36.5t24.5 -26t41.5 -10q34 0 53.5 20t24.5 49z" />
    <glyph glyph-name="ordfeminine" unicode="&#xaa;" horiz-adv-x="469" 
d="M419 388q-2 -14 1 -18.5t16 -4.5q10 0 23 4l-8 -79q-6 -3 -17.5 -6t-25 -6t-28 -4.5t-25.5 -1.5q-40 0 -60 13t-29 36q-17 -19 -42.5 -33t-59.5 -14q-60 0 -96.5 33.5t-36.5 105.5q0 70 19.5 114.5t47.5 70t59.5 34.5t55.5 9q35 0 53.5 -11t32.5 -26l10 30h148zM279 522
q-6 5 -11 5.5t-9 0.5q-17 0 -27.5 -9.5t-17 -24t-9 -31t-2.5 -31.5q0 -26 8.5 -37t24.5 -11q5 0 11 1t12 3z" />
    <glyph glyph-name="guillemotleft" unicode="&#xab;" horiz-adv-x="492" 
d="M73 103l-62 152l110 153h162l-111 -148l61 -157h-160zM284 103l-62 152l110 153h162l-111 -148l61 -157h-160z" />
    <glyph glyph-name="logicalnot" unicode="&#xac;" horiz-adv-x="570" 
d="M300 152l16 95h-256l22 153h397l-38 -248h-141z" />
    <glyph glyph-name="uni00AD" unicode="&#xad;" horiz-adv-x="311" 
d="M-15 206l24 166h271l-24 -166h-271z" />
    <glyph glyph-name="registered" unicode="&#xae;" horiz-adv-x="477" 
d="M460 470q0 -44 -14.5 -80.5t-41 -62.5t-63 -40.5t-80.5 -14.5q-48 0 -85 14.5t-62 40t-38 60.5t-13 75q0 46 16 83.5t43 63t63.5 39.5t77.5 14q45 0 81.5 -13.5t62 -39t39.5 -61t14 -78.5zM403 467q0 34 -11 60.5t-29.5 44.5t-44 27t-55.5 9t-55.5 -10t-45 -28.5
t-30.5 -45t-11 -60.5q0 -64 38 -100.5t104 -36.5q64 0 102 37.5t38 102.5zM362 380h-63l-40 69h-10v-69h-56v190h76q44 0 60.5 -17t16.5 -39q0 -23 -11 -34t-24 -16zM263 487q12 0 19.5 5t7.5 16q0 14 -8.5 18t-16.5 4h-16v-43h14z" />
    <glyph glyph-name="macron" unicode="&#xaf;" horiz-adv-x="500" 
d="M258 710h331l-19 -130h-331z" />
    <glyph glyph-name="degree" unicode="&#xb0;" horiz-adv-x="337" 
d="M194 582q17 0 32 13.5t19 31.5q3 17 -8 30.5t-27 13.5q-17 0 -34 -16t-17 -36q0 -15 9.5 -26t25.5 -11zM327 646q0 -30 -11.5 -56t-31.5 -45t-46 -30t-56 -11q-48 0 -77 28.5t-29 73.5q0 32 12.5 58.5t33 45t47 29t54.5 10.5q45 0 74.5 -28.5t29.5 -74.5z" />
    <glyph glyph-name="plusminus" unicode="&#xb1;" horiz-adv-x="569" 
d="M37 0l22 152h117l16 96h-120l22 153h120l18 130h157l-19 -130h121l-22 -153h-121l-15 -96h123l-22 -152h-397z" />
    <glyph glyph-name="twosuperior" unicode="&#xb2;" horiz-adv-x="405" 
d="M21 349l21 139l111 91q32 26 51 42.5t29.5 26.5t13.5 15.5t3 11.5q0 15 -14 15t-19.5 -11.5t-10.5 -33.5l-157 24q5 39 25.5 67t50.5 46t66.5 26t72.5 8q46 0 78.5 -9.5t52.5 -26t29.5 -38t9.5 -44.5q0 -52 -30.5 -87t-80.5 -67l-80 -51v-4h166l-20 -140h-368z" />
    <glyph glyph-name="threesuperior" unicode="&#xb3;" horiz-adv-x="408" 
d="M268 817q74 0 120.5 -25.5t46.5 -83.5q0 -33 -24.5 -62.5t-75.5 -48.5v-3q34 -11 58 -36t24 -64q0 -72 -52.5 -112t-154.5 -40q-33 0 -65.5 6t-59 21.5t-44.5 42t-22 68.5l161 28q-1 -13 2.5 -20.5t8 -12t10 -6t9.5 -1.5q15 0 21.5 8.5t6.5 19.5t-8.5 20.5t-23.5 9.5h-58
l16 103h33q32 0 45.5 14.5t13.5 31.5q0 11 -5.5 15.5t-11.5 4.5q-11 0 -18.5 -8t-11.5 -29l-156 24q10 40 30 66t48 41.5t63 21.5t74 6z" />
    <glyph glyph-name="acute" unicode="&#xb4;" horiz-adv-x="499" 
d="M386 739h213l-154 -167l-135 6z" />
    <glyph glyph-name="mu" unicode="&#xb5;" horiz-adv-x="628" 
d="M369 528h211l-74 -528h-167l-5 42q-20 -23 -44 -38.5t-59 -15.5q-9 0 -18 1.5t-20 3.5l-5 -5l18 -164h-220l100 704h211l-47 -328q-4 -26 -1.5 -41t23.5 -15q11 0 23 3t21 8z" />
    <glyph glyph-name="paragraph" unicode="&#xb6;" horiz-adv-x="645" 
d="M515 -133h-132l104 740h-50l-103 -740h-132l52 372q-53 2 -90 16.5t-60 39t-34 58.5t-11 76q0 81 25.5 137.5t69.5 91.5t103.5 50.5t127.5 15.5h250z" />
    <glyph glyph-name="periodcentered" unicode="&#xb7;" horiz-adv-x="282" 
d="M240 329q0 -51 -28.5 -79.5t-91.5 -28.5q-94 0 -94 77q0 51 29 80t92 29q47 0 70 -20t23 -58z" />
    <glyph glyph-name="cedilla" unicode="&#xb8;" horiz-adv-x="499" 
d="M119 -163q10 -2 25 -4.5t29 -2.5q21 0 36.5 7.5t15.5 30.5q0 19 -16 23t-36 5l35 134l85 -8l-19 -68q32 -5 55.5 -24.5t23.5 -59.5q0 -34 -13 -59.5t-35.5 -42t-52.5 -25t-65 -8.5q-22 0 -45.5 4t-39.5 10z" />
    <glyph glyph-name="onesuperior" unicode="&#xb9;" horiz-adv-x="375" 
d="M130 347l43 274q-9 -3 -23.5 -6t-30 -5.5t-30 -3.5t-22.5 -1v144q21 1 45 5.5t48 12t45.5 17.5t37.5 21h138l-69 -458h-182z" />
    <glyph glyph-name="ordmasculine" unicode="&#xba;" horiz-adv-x="433" 
d="M209 274q-94 0 -136.5 39.5t-42.5 113.5q0 50 16.5 89.5t47 67.5t73.5 42.5t95 14.5q50 0 83.5 -12t53.5 -32.5t28.5 -48.5t8.5 -59q0 -45 -15 -84.5t-44 -68.5t-71.5 -45.5t-96.5 -16.5zM221 374q17 0 26.5 14t14.5 33t6.5 39.5t1.5 33.5q0 27 -7.5 36.5t-19.5 9.5
q-17 0 -26.5 -14t-14.5 -33t-6.5 -40t-1.5 -34q0 -28 8 -36.5t19 -8.5z" />
    <glyph glyph-name="guillemotright" unicode="&#xbb;" horiz-adv-x="491" 
d="M-17 103l106 155l-72 150h153l78 -151l-102 -154h-163zM194 103l106 155l-72 150h153l78 -151l-102 -154h-163z" />
    <glyph glyph-name="onequarter" unicode="&#xbc;" horiz-adv-x="1125" 
d="M129 279l43 274q-9 -3 -23.5 -6t-30 -5.5t-30 -3.5t-22.5 -1v144q21 1 45 5.5t48 12t45.5 17.5t37.5 21h138l-69 -458h-182zM191 -12l458 736h191l-456 -736h-193zM786 0l14 80h-207l17 120l199 259h222l-38 -249h49l-18 -130h-49l-12 -80h-177zM816 210l21 119l-91 -119
h70z" />
    <glyph glyph-name="onehalf" unicode="&#xbd;" horiz-adv-x="1125" 
d="M133 279l43 274q-9 -3 -23.5 -6t-30 -5.5t-30 -3.5t-22.5 -1v144q21 1 45 5.5t48 12t45.5 17.5t37.5 21h138l-69 -458h-182zM179 -12l458 736h191l-456 -736h-193zM622 0l21 139l111 91q32 26 51 42.5t29.5 26.5t13.5 15.5t3 11.5q0 15 -14 15t-19.5 -11.5t-10.5 -33.5
l-157 24q5 39 25.5 67t50.5 46t66.5 26t72.5 8q46 0 78.5 -9.5t52.5 -26t29.5 -38t9.5 -44.5q0 -52 -30.5 -87t-80.5 -67l-80 -51v-4h166l-20 -140h-368z" />
    <glyph glyph-name="threequarters" unicode="&#xbe;" horiz-adv-x="1125" 
d="M217 -12l458 736h191l-456 -736h-193zM792 0l14 80h-207l17 120l199 259h222l-38 -249h49l-18 -130h-49l-12 -80h-177zM822 210l21 119l-91 -119h70zM283 749q74 0 120.5 -25.5t46.5 -83.5q0 -33 -24.5 -62.5t-75.5 -48.5v-3q34 -11 58 -36t24 -64q0 -72 -52.5 -112
t-154.5 -40q-33 0 -65.5 6t-59 21.5t-44.5 42t-22 68.5l161 28q-1 -13 2.5 -20.5t8 -12t10 -6t9.5 -1.5q15 0 21.5 8.5t6.5 19.5t-8.5 20.5t-23.5 9.5h-58l16 103h33q32 0 45.5 14.5t13.5 31.5q0 11 -5.5 15.5t-11.5 4.5q-11 0 -18.5 -8t-11.5 -29l-156 24q10 40 30 66
t48 41.5t63 21.5t74 6z" />
    <glyph glyph-name="questiondown" unicode="&#xbf;" horiz-adv-x="606" 
d="M241 -213q-48 0 -91.5 11t-77.5 35t-54 62t-20 92q0 100 56.5 167t180.5 101l9 66h212l-26 -187q-35 -3 -71.5 -9.5t-66.5 -21t-49 -39t-19 -63.5q0 -22 12 -35.5t37 -13.5q39 0 56 24t28 65l203 -30q-26 -115 -108.5 -169.5t-210.5 -54.5zM258 430q0 51 30 80t94 29
q101 0 101 -78q0 -52 -30.5 -82t-96.5 -30q-50 0 -74 21.5t-24 59.5z" />
    <glyph glyph-name="Agrave" unicode="&#xc0;" horiz-adv-x="741" 
d="M547 724l159 -724h-232l-28 140h-208l-61 -140h-230l336 724h264zM390 524h-6l-93 -220h135zM459 919l63 -145l-146 -6l-131 151h214z" />
    <glyph glyph-name="Aacute" unicode="&#xc1;" horiz-adv-x="741" 
d="M547 724l159 -724h-232l-28 140h-208l-61 -140h-230l336 724h264zM390 524h-6l-93 -220h135zM411 919h212l-173 -151l-144 6z" />
    <glyph glyph-name="Acircumflex" unicode="&#xc2;" horiz-adv-x="741" 
d="M547 724l159 -724h-232l-28 140h-208l-61 -140h-230l336 724h264zM390 524h-6l-93 -220h135zM474 769l-49 67l-75 -68l-132 5l119 155h202l67 -155z" />
    <glyph glyph-name="Atilde" unicode="&#xc3;" horiz-adv-x="741" 
d="M547 724l159 -724h-232l-28 140h-208l-61 -140h-230l336 724h264zM390 524h-6l-93 -220h135zM369 955q25 0 44.5 -6.5t35.5 -14t31 -14t32 -6.5q15 0 20 9t7 28l95 -6q1 -32 -5 -61t-21 -51t-38.5 -34.5t-55.5 -12.5q-28 0 -48.5 6.5t-37 14.5t-30.5 14.5t-29 6.5
q-17 0 -24 -8.5t-5 -32.5l-106 4q-1 34 8.5 64t27 52t43 35t56.5 13z" />
    <glyph glyph-name="Adieresis" unicode="&#xc4;" horiz-adv-x="741" 
d="M547 724l159 -724h-232l-28 140h-208l-61 -140h-230l336 724h264zM390 524h-6l-93 -220h135zM185 861q0 26 10 47.5t27.5 37t41.5 24t53 8.5q47 0 74 -24t27 -66q0 -54 -36.5 -86t-93.5 -32q-48 0 -75.5 24.5t-27.5 66.5zM446 861q0 26 10 47.5t27.5 37t41.5 24t53 8.5
q48 0 74.5 -24t26.5 -66q0 -54 -36.5 -86t-92.5 -32q-48 0 -76 24.5t-28 66.5z" />
    <glyph glyph-name="Aring" unicode="&#xc5;" horiz-adv-x="741" 
d="M571 807q0 -26 -6.5 -47.5t-17.5 -38.5l159 -721h-232l-28 140h-208l-61 -140h-230l335 722q-8 17 -8 45q0 39 14 68t37.5 49t54 30t63.5 10q54 0 91 -30t37 -87zM390 524h-6l-93 -220h135zM414 738q27 0 45 15t18 49q0 43 -46 43q-27 0 -45.5 -15t-18.5 -46
q0 -24 13.5 -35t33.5 -11z" />
    <glyph glyph-name="AE" unicode="&#xc6;" horiz-adv-x="1002" 
d="M413 0l36 262h-147l-139 -262h-221l412 724h658l-23 -169h-282l-17 -126h267l-24 -165h-267l-12 -94h306l-24 -170h-523zM490 555h-42l-68 -133h92z" />
    <glyph glyph-name="Ccedilla" unicode="&#xc7;" horiz-adv-x="715" 
d="M205 -163q9 -2 24.5 -4.5t29.5 -2.5q20 0 35.5 7.5t15.5 30.5q0 19 -16 23t-36 5l25 95q-66 8 -115 33.5t-80.5 65.5t-47 93t-15.5 115q0 95 25.5 175.5t76.5 139t127.5 91.5t178.5 33q69 0 123 -18t90.5 -53.5t54 -88t14.5 -120.5l-199 -19q6 66 -18 100t-78 34
q-81 0 -124.5 -66t-43.5 -204q0 -78 27.5 -113t84.5 -35q31 0 52.5 9.5t36 24.5t24 34.5t16.5 39.5l189 -30q-15 -65 -45.5 -110t-72.5 -73.5t-92 -42.5t-103 -17l-9 -35q32 -5 55.5 -24.5t23.5 -59.5q0 -34 -13 -59.5t-35.5 -42t-52.5 -25t-65 -8.5q-23 0 -46 4t-40 10z
" />
    <glyph glyph-name="Egrave" unicode="&#xc8;" horiz-adv-x="596" 
d="M5 0l103 724h498l-23 -169h-281l-17 -115h266l-24 -166h-266l-15 -104h306l-24 -170h-523zM398 919l63 -145l-146 -6l-131 151h214z" />
    <glyph glyph-name="Eacute" unicode="&#xc9;" horiz-adv-x="596" 
d="M5 0l103 724h498l-23 -169h-281l-17 -115h266l-24 -166h-266l-15 -104h306l-24 -170h-523zM350 919h212l-173 -151l-144 6z" />
    <glyph glyph-name="Ecircumflex" unicode="&#xca;" horiz-adv-x="596" 
d="M5 0l103 724h498l-23 -169h-281l-17 -115h266l-24 -166h-266l-15 -104h306l-24 -170h-523zM413 769l-49 67l-75 -68l-132 5l119 155h202l67 -155z" />
    <glyph glyph-name="Edieresis" unicode="&#xcb;" horiz-adv-x="596" 
d="M5 0l103 724h498l-23 -169h-281l-17 -115h266l-24 -166h-266l-15 -104h306l-24 -170h-523zM124 861q0 26 10 47.5t27.5 37t41.5 24t53 8.5q47 0 74 -24t27 -66q0 -54 -36.5 -86t-93.5 -32q-48 0 -75.5 24.5t-27.5 66.5zM385 861q0 26 10 47.5t27.5 37t41.5 24t53 8.5
q48 0 74.5 -24t26.5 -66q0 -54 -36.5 -86t-92.5 -32q-48 0 -76 24.5t-28 66.5z" />
    <glyph glyph-name="Igrave" unicode="&#xcc;" horiz-adv-x="321" 
d="M5 0l103 724h217l-103 -724h-217zM257 919l63 -145l-146 -6l-131 151h214z" />
    <glyph glyph-name="Iacute" unicode="&#xcd;" horiz-adv-x="321" 
d="M5 0l103 724h217l-103 -724h-217zM231 919h212l-173 -151l-144 6z" />
    <glyph glyph-name="Icircumflex" unicode="&#xce;" horiz-adv-x="321" 
d="M5 0l103 724h217l-103 -724h-217zM272 769l-49 67l-75 -68l-132 5l119 155h202l67 -155z" />
    <glyph glyph-name="Idieresis" unicode="&#xcf;" horiz-adv-x="321" 
d="M5 0l103 724h217l-103 -724h-217zM-17 861q0 26 10 47.5t27.5 37t41.5 24t53 8.5q47 0 74 -24t27 -66q0 -54 -36.5 -86t-93.5 -32q-48 0 -75.5 24.5t-27.5 66.5zM244 861q0 26 10 47.5t27.5 37t41.5 24t53 8.5q48 0 74.5 -24t26.5 -66q0 -54 -36.5 -86t-92.5 -32
q-48 0 -76 24.5t-28 66.5z" />
    <glyph glyph-name="Eth" unicode="&#xd0;" horiz-adv-x="760" 
d="M34 0l42 296h-67l21 152h67l40 276h287q83 0 143 -20t98.5 -57t57 -90.5t18.5 -119.5q0 -93 -26 -173t-80 -138.5t-136.5 -92t-194.5 -33.5h-270zM316 164q105 0 154.5 60.5t49.5 198.5q0 77 -31.5 108t-104.5 31h-52l-16 -114h140l-21 -152h-141l-18 -132h40z" />
    <glyph glyph-name="Ntilde" unicode="&#xd1;" horiz-adv-x="751" 
d="M408 0l-142 423l-6 1l-59 -424h-196l103 724h241l150 -439h5l57 439h194l-103 -724h-244zM384 955q25 0 44.5 -6.5t35.5 -14t31 -14t32 -6.5q15 0 20 9t7 28l95 -6q1 -32 -5 -61t-21 -51t-38.5 -34.5t-55.5 -12.5q-28 0 -48.5 6.5t-37 14.5t-30.5 14.5t-29 6.5
q-17 0 -24 -8.5t-5 -32.5l-106 4q-1 34 8.5 64t27 52t43 35t56.5 13z" />
    <glyph glyph-name="Ograve" unicode="&#xd2;" horiz-adv-x="767" 
d="M336 -12q-86 0 -145.5 23.5t-96.5 64.5t-53 96.5t-16 120.5q0 87 26 167.5t77.5 142t130 98t183.5 36.5q87 0 146.5 -25t95.5 -68.5t51.5 -101t15.5 -122.5q0 -83 -24.5 -160.5t-75.5 -138t-129.5 -97t-185.5 -36.5zM360 156q55 0 88 29.5t51 71.5t23.5 88.5t5.5 81.5
q0 26 -5 51.5t-17 45t-32.5 31.5t-51.5 12q-57 0 -91.5 -27t-53 -67.5t-24.5 -87.5t-6 -86q0 -28 5.5 -53.5t19 -45.5t35 -32t53.5 -12zM485 919l63 -145l-146 -6l-131 151h214z" />
    <glyph glyph-name="Oacute" unicode="&#xd3;" horiz-adv-x="767" 
d="M336 -12q-86 0 -145.5 23.5t-96.5 64.5t-53 96.5t-16 120.5q0 87 26 167.5t77.5 142t130 98t183.5 36.5q87 0 146.5 -25t95.5 -68.5t51.5 -101t15.5 -122.5q0 -83 -24.5 -160.5t-75.5 -138t-129.5 -97t-185.5 -36.5zM360 156q55 0 88 29.5t51 71.5t23.5 88.5t5.5 81.5
q0 26 -5 51.5t-17 45t-32.5 31.5t-51.5 12q-57 0 -91.5 -27t-53 -67.5t-24.5 -87.5t-6 -86q0 -28 5.5 -53.5t19 -45.5t35 -32t53.5 -12zM462 919h212l-173 -151l-144 6z" />
    <glyph glyph-name="Ocircumflex" unicode="&#xd4;" horiz-adv-x="767" 
d="M336 -12q-86 0 -145.5 23.5t-96.5 64.5t-53 96.5t-16 120.5q0 87 26 167.5t77.5 142t130 98t183.5 36.5q87 0 146.5 -25t95.5 -68.5t51.5 -101t15.5 -122.5q0 -83 -24.5 -160.5t-75.5 -138t-129.5 -97t-185.5 -36.5zM360 156q55 0 88 29.5t51 71.5t23.5 88.5t5.5 81.5
q0 26 -5 51.5t-17 45t-32.5 31.5t-51.5 12q-57 0 -91.5 -27t-53 -67.5t-24.5 -87.5t-6 -86q0 -28 5.5 -53.5t19 -45.5t35 -32t53.5 -12zM500 769l-49 67l-75 -68l-132 5l119 155h202l67 -155z" />
    <glyph glyph-name="Otilde" unicode="&#xd5;" horiz-adv-x="767" 
d="M336 -12q-86 0 -145.5 23.5t-96.5 64.5t-53 96.5t-16 120.5q0 87 26 167.5t77.5 142t130 98t183.5 36.5q87 0 146.5 -25t95.5 -68.5t51.5 -101t15.5 -122.5q0 -83 -24.5 -160.5t-75.5 -138t-129.5 -97t-185.5 -36.5zM360 156q55 0 88 29.5t51 71.5t23.5 88.5t5.5 81.5
q0 26 -5 51.5t-17 45t-32.5 31.5t-51.5 12q-57 0 -91.5 -27t-53 -67.5t-24.5 -87.5t-6 -86q0 -28 5.5 -53.5t19 -45.5t35 -32t53.5 -12zM395 955q25 0 44.5 -6.5t35.5 -14t31 -14t32 -6.5q15 0 20 9t7 28l95 -6q1 -32 -5 -61t-21 -51t-38.5 -34.5t-55.5 -12.5
q-28 0 -48.5 6.5t-37 14.5t-30.5 14.5t-29 6.5q-17 0 -24 -8.5t-5 -32.5l-106 4q-1 34 8.5 64t27 52t43 35t56.5 13z" />
    <glyph glyph-name="Odieresis" unicode="&#xd6;" horiz-adv-x="767" 
d="M336 -12q-86 0 -145.5 23.5t-96.5 64.5t-53 96.5t-16 120.5q0 87 26 167.5t77.5 142t130 98t183.5 36.5q87 0 146.5 -25t95.5 -68.5t51.5 -101t15.5 -122.5q0 -83 -24.5 -160.5t-75.5 -138t-129.5 -97t-185.5 -36.5zM360 156q55 0 88 29.5t51 71.5t23.5 88.5t5.5 81.5
q0 26 -5 51.5t-17 45t-32.5 31.5t-51.5 12q-57 0 -91.5 -27t-53 -67.5t-24.5 -87.5t-6 -86q0 -28 5.5 -53.5t19 -45.5t35 -32t53.5 -12zM211 861q0 26 10 47.5t27.5 37t41.5 24t53 8.5q47 0 74 -24t27 -66q0 -54 -36.5 -86t-93.5 -32q-48 0 -75.5 24.5t-27.5 66.5zM472 861
q0 26 10 47.5t27.5 37t41.5 24t53 8.5q48 0 74.5 -24t26.5 -66q0 -54 -36.5 -86t-92.5 -32q-48 0 -76 24.5t-28 66.5z" />
    <glyph glyph-name="multiply" unicode="&#xd7;" horiz-adv-x="569" 
d="M267 212l-105 -92l-95 110l105 92l-79 92l126 111l79 -92l106 92l95 -111l-106 -92l80 -92l-126 -110z" />
    <glyph glyph-name="Oslash" unicode="&#xd8;" horiz-adv-x="767" 
d="M324 -12l-27 -67h-203l46 115q-62 41 -88.5 107.5t-26.5 149.5q0 87 26 167.5t77.5 142t130 98t183.5 36.5h1l24 58h203l-42 -104q34 -21 57.5 -50t38 -64t21 -74.5t6.5 -82.5q0 -83 -24.5 -160.5t-75.5 -138t-129.5 -97t-185.5 -36.5h-12zM360 156q55 0 88 29.5t51 71.5
t23.5 88.5t5.5 81.5q0 26 -5 51.5t-17 45t-32.5 31.5t-51.5 12q-57 0 -91.5 -27t-53 -67.5t-24.5 -87.5t-6 -86q0 -28 5.5 -53.5t19 -45.5t35 -32t53.5 -12z" />
    <glyph glyph-name="Ugrave" unicode="&#xd9;" horiz-adv-x="707" 
d="M658 264q-11 -81 -40 -134t-73.5 -84.5t-103.5 -44.5t-129 -13q-170 0 -234.5 76t-42.5 231l61 429h218l-59 -416q-5 -32 -7 -60t4 -49t24 -33t55 -12q33 0 53 9t31.5 27.5t17 47t11.5 66.5l61 420h216zM447 919l63 -145l-146 -6l-131 151h214z" />
    <glyph glyph-name="Uacute" unicode="&#xda;" horiz-adv-x="707" 
d="M658 264q-11 -81 -40 -134t-73.5 -84.5t-103.5 -44.5t-129 -13q-170 0 -234.5 76t-42.5 231l61 429h218l-59 -416q-5 -32 -7 -60t4 -49t24 -33t55 -12q33 0 53 9t31.5 27.5t17 47t11.5 66.5l61 420h216zM422 919h212l-173 -151l-144 6z" />
    <glyph glyph-name="Ucircumflex" unicode="&#xdb;" horiz-adv-x="707" 
d="M658 264q-11 -81 -40 -134t-73.5 -84.5t-103.5 -44.5t-129 -13q-170 0 -234.5 76t-42.5 231l61 429h218l-59 -416q-5 -32 -7 -60t4 -49t24 -33t55 -12q33 0 53 9t31.5 27.5t17 47t11.5 66.5l61 420h216zM462 769l-49 67l-75 -68l-132 5l119 155h202l67 -155z" />
    <glyph glyph-name="Udieresis" unicode="&#xdc;" horiz-adv-x="707" 
d="M658 264q-11 -81 -40 -134t-73.5 -84.5t-103.5 -44.5t-129 -13q-170 0 -234.5 76t-42.5 231l61 429h218l-59 -416q-5 -32 -7 -60t4 -49t24 -33t55 -12q33 0 53 9t31.5 27.5t17 47t11.5 66.5l61 420h216zM180 861q0 26 10 47.5t27.5 37t41.5 24t53 8.5q47 0 74 -24t27 -66
q0 -54 -36.5 -86t-93.5 -32q-48 0 -75.5 24.5t-27.5 66.5zM441 861q0 26 10 47.5t27.5 37t41.5 24t53 8.5q48 0 74.5 -24t26.5 -66q0 -54 -36.5 -86t-92.5 -32q-48 0 -76 24.5t-28 66.5z" />
    <glyph glyph-name="Yacute" unicode="&#xdd;" horiz-adv-x="652" 
d="M434 264q-8 -66 -17.5 -132t-18.5 -132h-219l39 267l-191 457h226l92 -270h7l156 270h229zM396 919h212l-173 -151l-144 6z" />
    <glyph glyph-name="Thorn" unicode="&#xde;" horiz-adv-x="620" 
d="M198 0h-216l100 724h213l-13 -114h71q68 0 114.5 -17t74.5 -47t40 -71t12 -88q0 -60 -18.5 -111t-57.5 -88t-98.5 -57.5t-140.5 -20.5h-64zM259 270q23 0 43 5t34.5 17t22.5 33t8 53q0 24 -7 38t-18 21t-23.5 9t-23.5 2h-33l-24 -178h21z" />
    <glyph glyph-name="germandbls" unicode="&#xdf;" horiz-adv-x="650" 
d="M-42 -212l95 699q11 81 38 134.5t68 86t96 46t122 13.5q56 0 101.5 -13t78 -37t50.5 -59.5t18 -80.5q0 -43 -15 -75t-36 -53.5t-43.5 -33.5t-36.5 -16l-1 -4q17 -6 38.5 -16.5t40 -29.5t31.5 -49t13 -75q0 -40 -13 -82t-42 -76.5t-76.5 -56.5t-116.5 -22q-21 0 -41.5 2.5
t-38.5 6t-31 7.5t-18 6l21 145q16 -4 31.5 -7.5t30.5 -3.5q16 0 30.5 4t25.5 14t17.5 27t6.5 42q0 42 -22 59.5t-54 17.5h-31l20 138h18q36 0 57 29t21 84q0 28 -16 44t-41 16q-15 0 -28.5 -3.5t-24.5 -14.5t-19.5 -32t-13.5 -56l-100 -725h-210z" />
    <glyph glyph-name="agrave" unicode="&#xe0;" 
d="M536 152q-3 -20 2 -28.5t24 -8.5q7 0 13.5 1.5t17.5 4.5l-10 -109q-9 -4 -24.5 -8.5t-33.5 -8t-36.5 -6t-33.5 -2.5q-54 0 -81.5 16t-39.5 51q-25 -29 -62 -47.5t-85 -18.5q-42 0 -76 12t-58 37.5t-37.5 65t-13.5 93.5q0 101 26 167t65 105t83.5 55t81.5 16
q48 0 76 -13.5t49 -36.5l8 39h199zM356 366q-10 9 -20 11.5t-19 2.5q-26 0 -43 -15.5t-27 -39.5t-14 -51.5t-4 -51.5q0 -31 12 -53t44 -22q9 0 21 2.5t20 7.5zM298 572l-107 167h215l29 -161z" />
    <glyph glyph-name="aacute" unicode="&#xe1;" 
d="M536 152q-3 -20 2 -28.5t24 -8.5q7 0 13.5 1.5t17.5 4.5l-10 -109q-9 -4 -24.5 -8.5t-33.5 -8t-36.5 -6t-33.5 -2.5q-54 0 -81.5 16t-39.5 51q-25 -29 -62 -47.5t-85 -18.5q-42 0 -76 12t-58 37.5t-37.5 65t-13.5 93.5q0 101 26 167t65 105t83.5 55t81.5 16
q48 0 76 -13.5t49 -36.5l8 39h199zM356 366q-10 9 -20 11.5t-19 2.5q-26 0 -43 -15.5t-27 -39.5t-14 -51.5t-4 -51.5q0 -31 12 -53t44 -22q9 0 21 2.5t20 7.5zM329 739h213l-154 -167l-135 6z" />
    <glyph glyph-name="acircumflex" unicode="&#xe2;" 
d="M536 152q-3 -20 2 -28.5t24 -8.5q7 0 13.5 1.5t17.5 4.5l-10 -109q-9 -4 -24.5 -8.5t-33.5 -8t-36.5 -6t-33.5 -2.5q-54 0 -81.5 16t-39.5 51q-25 -29 -62 -47.5t-85 -18.5q-42 0 -76 12t-58 37.5t-37.5 65t-13.5 93.5q0 101 26 167t65 105t83.5 55t81.5 16
q48 0 76 -13.5t49 -36.5l8 39h199zM356 366q-10 9 -20 11.5t-19 2.5q-26 0 -43 -15.5t-27 -39.5t-14 -51.5t-4 -51.5q0 -31 12 -53t44 -22q9 0 21 2.5t20 7.5zM399 574l-46 77l-69 -77l-146 5l128 164h199l66 -164z" />
    <glyph glyph-name="atilde" unicode="&#xe3;" 
d="M536 152q-3 -20 2 -28.5t24 -8.5q7 0 13.5 1.5t17.5 4.5l-10 -109q-9 -4 -24.5 -8.5t-33.5 -8t-36.5 -6t-33.5 -2.5q-54 0 -81.5 16t-39.5 51q-25 -29 -62 -47.5t-85 -18.5q-42 0 -76 12t-58 37.5t-37.5 65t-13.5 93.5q0 101 26 167t65 105t83.5 55t81.5 16
q48 0 76 -13.5t49 -36.5l8 39h199zM356 366q-10 9 -20 11.5t-19 2.5q-26 0 -43 -15.5t-27 -39.5t-14 -51.5t-4 -51.5q0 -31 12 -53t44 -22q9 0 21 2.5t20 7.5zM288 746q25 0 44.5 -6.5t35.5 -14t30.5 -14t31.5 -6.5q15 0 20 9t7 28l95 -5q0 -31 -6 -59.5t-20 -50.5
t-37 -35.5t-56 -13.5q-28 0 -49 6.5t-37.5 14.5t-30 14.5t-28.5 6.5q-17 0 -24.5 -8.5t-5.5 -33.5l-106 5q0 34 9.5 64t27 52t42.5 34.5t57 12.5z" />
    <glyph glyph-name="adieresis" unicode="&#xe4;" 
d="M536 152q-3 -20 2 -28.5t24 -8.5q7 0 13.5 1.5t17.5 4.5l-10 -109q-9 -4 -24.5 -8.5t-33.5 -8t-36.5 -6t-33.5 -2.5q-54 0 -81.5 16t-39.5 51q-25 -29 -62 -47.5t-85 -18.5q-42 0 -76 12t-58 37.5t-37.5 65t-13.5 93.5q0 101 26 167t65 105t83.5 55t81.5 16
q48 0 76 -13.5t49 -36.5l8 39h199zM356 366q-10 9 -20 11.5t-19 2.5q-26 0 -43 -15.5t-27 -39.5t-14 -51.5t-4 -51.5q0 -31 12 -53t44 -22q9 0 21 2.5t20 7.5zM111 672q0 52 37.5 84t94.5 32q47 0 74 -24t27 -65q0 -54 -36.5 -86t-93.5 -32q-48 0 -75.5 24.5t-27.5 66.5z
M372 672q0 52 37.5 84t94.5 32q48 0 74.5 -24t26.5 -65q0 -54 -36.5 -86t-92.5 -32q-48 0 -76 24.5t-28 66.5z" />
    <glyph glyph-name="aring" unicode="&#xe5;" 
d="M536 152q-3 -20 2 -28.5t24 -8.5q7 0 13.5 1.5t17.5 4.5l-10 -109q-9 -4 -24.5 -8.5t-33.5 -8t-36.5 -6t-33.5 -2.5q-54 0 -81.5 16t-39.5 51q-25 -29 -62 -47.5t-85 -18.5q-42 0 -76 12t-58 37.5t-37.5 65t-13.5 93.5q0 101 26 167t65 105t83.5 55t81.5 16
q48 0 76 -13.5t49 -36.5l8 39h199zM356 366q-10 9 -20 11.5t-19 2.5q-26 0 -43 -15.5t-27 -39.5t-14 -51.5t-4 -51.5q0 -31 12 -53t44 -22q9 0 21 2.5t20 7.5zM477 690q0 -30 -10.5 -53t-29 -38.5t-43 -23.5t-52.5 -8q-48 0 -77 23t-29 68q0 31 11.5 55t30.5 40t43.5 24.5
t51.5 8.5q45 0 74.5 -25t29.5 -71zM351 637q17 0 30.5 9.5t13.5 34.5q0 16 -9.5 24t-23.5 8q-18 0 -32 -11t-14 -33q0 -17 10 -24.5t25 -7.5z" />
    <glyph glyph-name="ae" unicode="&#xe6;" horiz-adv-x="866" 
d="M561 -12q-64 0 -108.5 16.5t-73.5 44.5q-45 -35 -95 -48t-92 -13t-76.5 12t-60 37.5t-39.5 65t-14 93.5q0 101 26 167t65 105t83.5 55t81.5 16q48 0 76 -13.5t49 -36.5l8 39h150q32 8 57.5 9.5t45.5 1.5q52 0 88.5 -12t60 -33t34 -49t10.5 -59q0 -40 -15.5 -69t-41 -49
t-57 -32.5t-64 -20t-62.5 -11t-52 -5.5q2 -27 11.5 -44t38.5 -17q26 0 40.5 15t23.5 42l165 -42q-12 -35 -34 -65t-54.5 -52.5t-76 -35t-98.5 -12.5zM326 158q-2 13 -3 27t-1 29q0 47 7.5 85t21.5 70q-8 7 -17 9t-17 2q-26 0 -43 -15.5t-27 -39.5t-14 -51.5t-4 -51.5
q0 -31 12 -53t44 -22q9 0 21 3t20 8zM613 402q-7 0 -16 -2.5t-17.5 -11t-15.5 -24t-10 -41.5q27 2 43.5 7.5t25.5 13t12 16.5t3 17q0 11 -5.5 18t-19.5 7z" />
    <glyph glyph-name="ccedilla" unicode="&#xe7;" horiz-adv-x="555" 
d="M119 -163q10 -2 25 -4.5t29 -2.5q21 0 36.5 7.5t15.5 30.5q0 19 -16 23t-36 5l25 96q-49 7 -86 27t-61.5 49.5t-37 67.5t-12.5 82q0 74 20.5 133.5t60 101t96.5 64t130 22.5q115 0 171.5 -61t52.5 -163l-180 -12q1 16 0.5 31.5t-5 28.5t-14.5 21t-27 8q-27 0 -43 -19.5
t-24.5 -47.5t-11.5 -58.5t-3 -52.5q0 -35 12 -54t40 -19q16 0 28.5 7.5t21.5 19t14 25.5t8 28l171 -26q-23 -101 -84.5 -149.5t-150.5 -56.5l-10 -35q32 -5 55.5 -24.5t23.5 -59.5q0 -34 -13 -59.5t-35.5 -42t-52.5 -25t-65 -8.5q-22 0 -45.5 4t-39.5 10z" />
    <glyph glyph-name="egrave" unicode="&#xe8;" horiz-adv-x="544" 
d="M240 -12q-67 0 -112.5 18.5t-73.5 50t-40.5 72t-12.5 85.5q0 87 26.5 148.5t70.5 100.5t100 57.5t116 18.5q57 0 95.5 -12t62.5 -33t34 -49t10 -59q0 -54 -24 -87t-64 -53q-25 -13 -53 -21.5t-56 -13.5t-52.5 -8t-42.5 -4q1 -11 2.5 -21.5t6.5 -19.5t14.5 -14.5
t25.5 -5.5q27 0 41.5 15.5t23.5 41.5l165 -42q-12 -35 -34 -65t-54.5 -52.5t-76 -35t-98.5 -12.5zM290 402q-8 0 -16.5 -2.5t-16.5 -11t-14.5 -24t-9.5 -41.5q18 1 23 2.5t7 1.5q31 7 42 19t11 27q0 12 -7 20.5t-19 8.5zM268 572l-107 167h215l29 -161z" />
    <glyph glyph-name="eacute" unicode="&#xe9;" horiz-adv-x="544" 
d="M240 -12q-67 0 -112.5 18.5t-73.5 50t-40.5 72t-12.5 85.5q0 87 26.5 148.5t70.5 100.5t100 57.5t116 18.5q57 0 95.5 -12t62.5 -33t34 -49t10 -59q0 -54 -24 -87t-64 -53q-25 -13 -53 -21.5t-56 -13.5t-52.5 -8t-42.5 -4q1 -11 2.5 -21.5t6.5 -19.5t14.5 -14.5
t25.5 -5.5q27 0 41.5 15.5t23.5 41.5l165 -42q-12 -35 -34 -65t-54.5 -52.5t-76 -35t-98.5 -12.5zM290 402q-8 0 -16.5 -2.5t-16.5 -11t-14.5 -24t-9.5 -41.5q18 1 23 2.5t7 1.5q31 7 42 19t11 27q0 12 -7 20.5t-19 8.5zM299 739h213l-154 -167l-135 6z" />
    <glyph glyph-name="ecircumflex" unicode="&#xea;" horiz-adv-x="544" 
d="M240 -12q-67 0 -112.5 18.5t-73.5 50t-40.5 72t-12.5 85.5q0 87 26.5 148.5t70.5 100.5t100 57.5t116 18.5q57 0 95.5 -12t62.5 -33t34 -49t10 -59q0 -54 -24 -87t-64 -53q-25 -13 -53 -21.5t-56 -13.5t-52.5 -8t-42.5 -4q1 -11 2.5 -21.5t6.5 -19.5t14.5 -14.5
t25.5 -5.5q27 0 41.5 15.5t23.5 41.5l165 -42q-12 -35 -34 -65t-54.5 -52.5t-76 -35t-98.5 -12.5zM290 402q-8 0 -16.5 -2.5t-16.5 -11t-14.5 -24t-9.5 -41.5q18 1 23 2.5t7 1.5q31 7 42 19t11 27q0 12 -7 20.5t-19 8.5zM369 574l-46 77l-69 -77l-146 5l128 164h199l66 -164
z" />
    <glyph glyph-name="edieresis" unicode="&#xeb;" horiz-adv-x="544" 
d="M240 -12q-67 0 -112.5 18.5t-73.5 50t-40.5 72t-12.5 85.5q0 87 26.5 148.5t70.5 100.5t100 57.5t116 18.5q57 0 95.5 -12t62.5 -33t34 -49t10 -59q0 -54 -24 -87t-64 -53q-25 -13 -53 -21.5t-56 -13.5t-52.5 -8t-42.5 -4q1 -11 2.5 -21.5t6.5 -19.5t14.5 -14.5
t25.5 -5.5q27 0 41.5 15.5t23.5 41.5l165 -42q-12 -35 -34 -65t-54.5 -52.5t-76 -35t-98.5 -12.5zM290 402q-8 0 -16.5 -2.5t-16.5 -11t-14.5 -24t-9.5 -41.5q18 1 23 2.5t7 1.5q31 7 42 19t11 27q0 12 -7 20.5t-19 8.5zM81 672q0 52 37.5 84t94.5 32q47 0 74 -24t27 -65
q0 -54 -36.5 -86t-93.5 -32q-48 0 -75.5 24.5t-27.5 66.5zM342 672q0 52 37.5 84t94.5 32q48 0 74.5 -24t26.5 -65q0 -54 -36.5 -86t-92.5 -32q-48 0 -76 24.5t-28 66.5z" />
    <glyph glyph-name="igrave" unicode="&#xec;" horiz-adv-x="289" 
d="M198 0h-211l74 528h211zM126 572l-107 167h215l29 -161z" />
    <glyph glyph-name="iacute" unicode="&#xed;" horiz-adv-x="289" 
d="M198 0h-211l74 528h211zM157 739h213l-154 -167l-135 6z" />
    <glyph glyph-name="icircumflex" unicode="&#xee;" horiz-adv-x="289" 
d="M198 0h-211l74 528h211zM227 574l-46 77l-69 -77l-146 5l128 164h199l66 -164z" />
    <glyph glyph-name="idieresis" unicode="&#xef;" horiz-adv-x="289" 
d="M198 0h-211l74 528h211zM-61 672q0 52 37.5 84t94.5 32q47 0 74 -24t27 -65q0 -54 -36.5 -86t-93.5 -32q-48 0 -75.5 24.5t-27.5 66.5zM200 672q0 52 37.5 84t94.5 32q48 0 74.5 -24t26.5 -65q0 -54 -36.5 -86t-92.5 -32q-48 0 -76 24.5t-28 66.5z" />
    <glyph glyph-name="eth" unicode="&#xf0;" horiz-adv-x="601" 
d="M-1 222q0 55 16 106.5t48 91.5t81 64.5t115 24.5q29 0 57 -8t54 -26q2 -2 3.5 1.5t3.5 5.5q-19 32 -48 58.5t-63.5 48.5t-72 39t-73.5 30l133 135q64 -25 117 -59l85 68l104 -121l-70 -56q43 -57 61.5 -116.5t18.5 -112.5q0 -89 -16 -164t-53.5 -129t-100.5 -84.5
t-156 -30.5q-66 0 -112.5 16.5t-75.5 46.5t-42.5 73.5t-13.5 97.5zM293 371q-27 0 -43 -17.5t-24 -42.5t-10 -53.5t-2 -49.5q0 -26 5 -41.5t13 -24t17.5 -11.5t19.5 -3q27 0 43.5 19t26 48.5t12.5 64t3 65.5q0 9 -0.5 17t-0.5 16q-17 8 -32.5 10.5t-27.5 2.5z" />
    <glyph glyph-name="ntilde" unicode="&#xf1;" horiz-adv-x="585" 
d="M193 0h-211l74 528h196l-9 -65q2 0 2 -0.5t1 -0.5q14 15 30 29t36.5 24.5t46.5 17t60 6.5q74 0 109.5 -42.5t22.5 -133.5l-51 -363h-211l45 324q4 31 -5.5 38.5t-24.5 7.5q-19 0 -36.5 -9t-26.5 -18zM263 746q25 0 44.5 -6.5t35.5 -14t30.5 -14t31.5 -6.5q15 0 20 9t7 28
l95 -5q0 -31 -6 -59.5t-20 -50.5t-37 -35.5t-56 -13.5q-28 0 -49 6.5t-37.5 14.5t-30 14.5t-28.5 6.5q-17 0 -24.5 -8.5t-5.5 -33.5l-106 5q0 34 9.5 64t27 52t42.5 34.5t57 12.5z" />
    <glyph glyph-name="ograve" unicode="&#xf2;" horiz-adv-x="597" 
d="M258 -12q-135 0 -196 59t-61 163q0 73 21.5 134t62.5 104t101 67t137 24q69 0 115.5 -17.5t74.5 -47.5t40 -69.5t12 -82.5q0 -70 -19.5 -131t-58 -106t-96 -71t-133.5 -26zM265 128q27 0 42.5 22t24 52.5t11 63t2.5 53.5q0 44 -13 60.5t-34 16.5q-26 0 -42 -22
t-24.5 -52.5t-11.5 -63t-3 -52.5q0 -46 14 -62t34 -16zM278 572l-107 167h215l29 -161z" />
    <glyph glyph-name="oacute" unicode="&#xf3;" horiz-adv-x="597" 
d="M258 -12q-135 0 -196 59t-61 163q0 73 21.5 134t62.5 104t101 67t137 24q69 0 115.5 -17.5t74.5 -47.5t40 -69.5t12 -82.5q0 -70 -19.5 -131t-58 -106t-96 -71t-133.5 -26zM265 128q27 0 42.5 22t24 52.5t11 63t2.5 53.5q0 44 -13 60.5t-34 16.5q-26 0 -42 -22
t-24.5 -52.5t-11.5 -63t-3 -52.5q0 -46 14 -62t34 -16zM309 739h213l-154 -167l-135 6z" />
    <glyph glyph-name="ocircumflex" unicode="&#xf4;" horiz-adv-x="597" 
d="M258 -12q-135 0 -196 59t-61 163q0 73 21.5 134t62.5 104t101 67t137 24q69 0 115.5 -17.5t74.5 -47.5t40 -69.5t12 -82.5q0 -70 -19.5 -131t-58 -106t-96 -71t-133.5 -26zM265 128q27 0 42.5 22t24 52.5t11 63t2.5 53.5q0 44 -13 60.5t-34 16.5q-26 0 -42 -22
t-24.5 -52.5t-11.5 -63t-3 -52.5q0 -46 14 -62t34 -16zM389 574l-46 77l-69 -77l-146 5l128 164h199l66 -164z" />
    <glyph glyph-name="otilde" unicode="&#xf5;" horiz-adv-x="597" 
d="M258 -12q-135 0 -196 59t-61 163q0 73 21.5 134t62.5 104t101 67t137 24q69 0 115.5 -17.5t74.5 -47.5t40 -69.5t12 -82.5q0 -70 -19.5 -131t-58 -106t-96 -71t-133.5 -26zM265 128q27 0 42.5 22t24 52.5t11 63t2.5 53.5q0 44 -13 60.5t-34 16.5q-26 0 -42 -22
t-24.5 -52.5t-11.5 -63t-3 -52.5q0 -46 14 -62t34 -16zM268 746q25 0 44.5 -6.5t35.5 -14t30.5 -14t31.5 -6.5q15 0 20 9t7 28l95 -5q0 -31 -6 -59.5t-20 -50.5t-37 -35.5t-56 -13.5q-28 0 -49 6.5t-37.5 14.5t-30 14.5t-28.5 6.5q-17 0 -24.5 -8.5t-5.5 -33.5l-106 5
q0 34 9.5 64t27 52t42.5 34.5t57 12.5z" />
    <glyph glyph-name="odieresis" unicode="&#xf6;" horiz-adv-x="597" 
d="M258 -12q-135 0 -196 59t-61 163q0 73 21.5 134t62.5 104t101 67t137 24q69 0 115.5 -17.5t74.5 -47.5t40 -69.5t12 -82.5q0 -70 -19.5 -131t-58 -106t-96 -71t-133.5 -26zM265 128q27 0 42.5 22t24 52.5t11 63t2.5 53.5q0 44 -13 60.5t-34 16.5q-26 0 -42 -22
t-24.5 -52.5t-11.5 -63t-3 -52.5q0 -46 14 -62t34 -16zM91 672q0 52 37.5 84t94.5 32q47 0 74 -24t27 -65q0 -54 -36.5 -86t-93.5 -32q-48 0 -75.5 24.5t-27.5 66.5zM352 672q0 52 37.5 84t94.5 32q48 0 74.5 -24t26.5 -65q0 -54 -36.5 -86t-92.5 -32q-48 0 -76 24.5
t-28 66.5z" />
    <glyph glyph-name="divide" unicode="&#xf7;" horiz-adv-x="569" 
d="M349 156q0 -42 -26.5 -68.5t-80.5 -26.5q-43 0 -63 18.5t-20 51.5q0 39 26.5 68.5t80.5 29.5q42 0 62.5 -21.5t20.5 -51.5zM69 245l21 152h397l-21 -152h-397zM398 507q0 -42 -26 -68.5t-80 -26.5q-44 0 -63.5 18.5t-19.5 51.5q0 40 26.5 69t80.5 29q43 0 62.5 -21
t19.5 -52z" />
    <glyph glyph-name="oslash" unicode="&#xf8;" horiz-adv-x="597" 
d="M101 19q-52 27 -76 75.5t-24 115.5q0 73 21.5 134t62.5 104t101 67t137 24h2l23 56h193l-43 -107q36 -31 51.5 -74t15.5 -92q0 -68 -18 -126.5t-53.5 -103t-88.5 -72t-123 -31.5l-27 -68h-193zM265 128q27 0 42.5 22t24 52.5t11 63t2.5 53.5q0 44 -13 60.5t-34 16.5
q-26 0 -42 -22t-24.5 -52.5t-11.5 -63t-3 -52.5q0 -46 14 -62t34 -16z" />
    <glyph glyph-name="ugrave" unicode="&#xf9;" horiz-adv-x="574" 
d="M351 528h211l-73 -528h-179l2 61q-1 0 -1.5 0.5t-1.5 0.5q-26 -33 -68 -53.5t-94 -20.5q-81 0 -118.5 47t-25.5 135l50 358h211l-44 -324q-1 -6 -1.5 -15t2.5 -17t11 -14t25 -6q14 0 24.5 7t21.5 19zM266 572l-107 167h215l29 -161z" />
    <glyph glyph-name="uacute" unicode="&#xfa;" horiz-adv-x="574" 
d="M351 528h211l-73 -528h-179l2 61q-1 0 -1.5 0.5t-1.5 0.5q-26 -33 -68 -53.5t-94 -20.5q-81 0 -118.5 47t-25.5 135l50 358h211l-44 -324q-1 -6 -1.5 -15t2.5 -17t11 -14t25 -6q14 0 24.5 7t21.5 19zM297 739h213l-154 -167l-135 6z" />
    <glyph glyph-name="ucircumflex" unicode="&#xfb;" horiz-adv-x="574" 
d="M351 528h211l-73 -528h-179l2 61q-1 0 -1.5 0.5t-1.5 0.5q-26 -33 -68 -53.5t-94 -20.5q-81 0 -118.5 47t-25.5 135l50 358h211l-44 -324q-1 -6 -1.5 -15t2.5 -17t11 -14t25 -6q14 0 24.5 7t21.5 19zM367 574l-46 77l-69 -77l-146 5l128 164h199l66 -164z" />
    <glyph glyph-name="udieresis" unicode="&#xfc;" horiz-adv-x="574" 
d="M351 528h211l-73 -528h-179l2 61q-1 0 -1.5 0.5t-1.5 0.5q-26 -33 -68 -53.5t-94 -20.5q-81 0 -118.5 47t-25.5 135l50 358h211l-44 -324q-1 -6 -1.5 -15t2.5 -17t11 -14t25 -6q14 0 24.5 7t21.5 19zM79 672q0 52 37.5 84t94.5 32q47 0 74 -24t27 -65q0 -54 -36.5 -86
t-93.5 -32q-48 0 -75.5 24.5t-27.5 66.5zM340 672q0 52 37.5 84t94.5 32q48 0 74.5 -24t26.5 -65q0 -54 -36.5 -86t-92.5 -32q-48 0 -76 24.5t-28 66.5z" />
    <glyph glyph-name="yacute" unicode="&#xfd;" horiz-adv-x="569" 
d="M6 528h225l36 -323h4l117 323h221l-275 -569q-23 -47 -46.5 -81.5t-52.5 -57t-66 -33t-87 -10.5q-16 0 -35 2.5t-36.5 6t-32.5 8.5t-24 10l33 142q51 -16 77 -16q16 0 27 4t18.5 11.5t13.5 17t14 21.5zM300 739h213l-154 -167l-135 6z" />
    <glyph glyph-name="thorn" unicode="&#xfe;" horiz-adv-x="601" 
d="M216 166q20 -18 51 -18q36 0 56.5 37.5t20.5 115.5q0 35 -10 56t-44 21q-11 0 -23.5 -4t-23.5 -12zM88 755h207l-38 -272q33 32 70 44t77 12q35 0 65.5 -11t53 -35.5t35.5 -63.5t13 -95q0 -93 -21 -158.5t-56 -107t-82 -61t-98 -19.5q-50 0 -76 12.5t-45 35.5l-35 -248
h-204z" />
    <glyph glyph-name="ydieresis" unicode="&#xff;" horiz-adv-x="569" 
d="M6 528h225l36 -323h4l117 323h221l-275 -569q-23 -47 -46.5 -81.5t-52.5 -57t-66 -33t-87 -10.5q-16 0 -35 2.5t-36.5 6t-32.5 8.5t-24 10l33 142q51 -16 77 -16q16 0 27 4t18.5 11.5t13.5 17t14 21.5zM82 672q0 52 37.5 84t94.5 32q47 0 74 -24t27 -65q0 -54 -36.5 -86
t-93.5 -32q-48 0 -75.5 24.5t-27.5 66.5zM343 672q0 52 37.5 84t94.5 32q48 0 74.5 -24t26.5 -65q0 -54 -36.5 -86t-92.5 -32q-48 0 -76 24.5t-28 66.5z" />
    <glyph glyph-name="apostrophe" unicode="&#x2bc;" horiz-adv-x="500" 
d="M289 729h184l-131 -236l-137 19z" />
    <glyph glyph-name="tilde" unicode="&#x2dc;" horiz-adv-x="499" 
d="M345 746q25 0 44.5 -6.5t35.5 -14t30.5 -14t31.5 -6.5q15 0 20 9t7 28l95 -5q0 -31 -6 -59.5t-20 -50.5t-37 -35.5t-56 -13.5q-28 0 -49 6.5t-37.5 14.5t-30 14.5t-28.5 6.5q-17 0 -24.5 -8.5t-5.5 -33.5l-106 5q0 34 9.5 64t27 52t42.5 34.5t57 12.5z" />
    <glyph glyph-name="endash" unicode="&#x2013;" horiz-adv-x="499" 
d="M-23 207l20 145h500l-20 -145h-500z" />
    <glyph glyph-name="emdash" unicode="&#x2014;" horiz-adv-x="999" 
d="M-23 207l20 145h1000l-20 -145h-1000z" />
    <glyph glyph-name="quoteleft" unicode="&#x2018;" horiz-adv-x="286" 
d="M243 539h-193l133 261l148 -14z" />
    <glyph glyph-name="quoteright" unicode="&#x2019;" horiz-adv-x="286" 
d="M143 781h193l-133 -261l-148 14z" />
    <glyph glyph-name="quotedblleft" unicode="&#x201c;" horiz-adv-x="509" 
d="M468 539h-193l133 261l148 -14zM245 539h-193l133 261l148 -14z" />
    <glyph glyph-name="quotedblright" unicode="&#x201d;" horiz-adv-x="508" 
d="M368 781h193l-133 -261l-148 14zM146 781h193l-133 -261l-148 14z" />
    <glyph glyph-name="quotedblbase" unicode="&#x201e;" horiz-adv-x="510" 
d="M31 102h193l-133 -261l-148 14zM255 102h193l-133 -261l-148 14z" />
    <glyph glyph-name="bullet" unicode="&#x2022;" horiz-adv-x="526" 
d="M419 307q0 -91 -48 -138.5t-142 -47.5q-71 0 -108 32.5t-37 97.5q0 91 48.5 138.5t140.5 47.5q146 0 146 -130z" />
    <glyph glyph-name="ellipsis" unicode="&#x2026;" horiz-adv-x="849" 
d="M781 115q0 -60 -31.5 -93.5t-101.5 -33.5q-106 0 -106 88q0 60 32.5 94t104.5 34q52 0 77 -23t25 -66zM236 115q0 -60 -31.5 -93.5t-101.5 -33.5q-106 0 -106 88q0 60 32.5 94t104.5 34q52 0 77 -23t25 -66zM508 115q0 -60 -31.5 -93.5t-101.5 -33.5q-106 0 -106 88
q0 60 32.5 94t104.5 34q52 0 77 -23t25 -66z" />
    <glyph glyph-name="guilsinglleft" unicode="&#x2039;" horiz-adv-x="280" 
d="M73 103l-62 152l110 153h162l-111 -148l61 -157h-160z" />
    <glyph glyph-name="guilsinglright" unicode="&#x203a;" horiz-adv-x="279" 
d="M-17 103l106 155l-72 150h153l78 -151l-102 -154h-163z" />
    <glyph glyph-name="Euro" unicode="&#x20ac;" horiz-adv-x="663" 
d="M87 439q13 61 39 115t67.5 95t99 65t134.5 24q56 0 99.5 -14.5t72.5 -45t41.5 -79.5t6.5 -118l-182 -19q6 62 -7.5 86.5t-51.5 24.5q-24 0 -42.5 -11t-32 -29.5t-22.5 -42.5t-15 -51h167l-49 -162h-133v-23q0 -55 16 -77t47 -22q23 0 38 6.5t26 19.5t18.5 31.5t15.5 42.5
l170 -27q-16 -72 -47.5 -118.5t-72 -73.5t-85.5 -37.5t-88 -10.5q-68 0 -115 20.5t-76 58.5t-42.5 90.5t-13.5 117.5v2h-75l49 162h43z" />
    <glyph glyph-name="trademark" unicode="&#x2122;" horiz-adv-x="880" 
d="M747 348v213l-71 -213h-79l-69 214v-213h-90v375h113l89 -273l90 273h107v-376h-90zM289 348h-101v295h-107v81h315v-81h-107v-295z" />
    </font>
</defs>
</svg>
