<?xml version="1.0" standalone="no"?>
<!DOCTYPE svg PUBLIC "-//W3C//DTD SVG 1.1//EN" "http://www.w3.org/Graphics/SVG/1.1/DTD/svg11.dtd" >
<svg xmlns="http://www.w3.org/2000/svg" xmlns:xlink="http://www.w3.org/1999/xlink" version="1.1">
<metadata>
Created by FontForge 20170731 at Wed Feb  6 03:45:37 2013
 By Aleksey,,,
Copyright (c) 2012 by TypeTogether. All rights reserved.
</metadata>
<defs>
<font id="AdelleSans-Light" horiz-adv-x="500" >
  <font-face 
    font-family="Adelle Sans"
    font-weight="300"
    font-stretch="normal"
    units-per-em="1000"
    panose-1="2 0 5 3 0 0 0 2 0 4"
    ascent="750"
    descent="-250"
    x-height="511"
    cap-height="724"
    bbox="-60 -226 999 912"
    underline-thickness="50"
    underline-position="-150"
    unicode-range="U+000D-2122"
  />
<missing-glyph 
d="M50 500h400v-500h-400v500zM400 50v400h-300v-400h300z" />
    <glyph glyph-name=".notdef" 
d="M50 500h400v-500h-400v500zM400 50v400h-300v-400h300z" />
    <glyph glyph-name=".null" horiz-adv-x="0" 
 />
    <glyph glyph-name="nonmarkingreturn" unicode="&#xd;" horiz-adv-x="230" 
 />
    <glyph glyph-name="NULL" horiz-adv-x="0" 
 />
    <glyph glyph-name="NULL" horiz-adv-x="0" 
 />
    <glyph glyph-name="space" unicode=" " horiz-adv-x="230" 
 />
    <glyph glyph-name="exclam" unicode="!" horiz-adv-x="256" 
d="M106 183l-17 541h77l-15 -541h-45zM187 45q0 -57 -58 -57t-58 57t58 57t58 -57z" />
    <glyph glyph-name="quotedbl" unicode="&#x22;" horiz-adv-x="360" 
d="M65 465v259h72v-259h-72zM223 465v259h72v-259h-72z" />
    <glyph glyph-name="numbersign" unicode="#" horiz-adv-x="607" 
d="M330 0l22 146h-135l-22 -146h-59l21 146h-121l13 52h117l25 162h-121l12 53h117l19 130h60l-20 -130h133l19 130h60l-20 -130h121l-11 -53h-118l-23 -162h119l-11 -52h-116l-22 -146h-59zM383 360h-133l-25 -162h135z" />
    <glyph glyph-name="dollar" unicode="$" horiz-adv-x="521" 
d="M239 7q-40 1 -74.5 11t-60.5 31.5t-43.5 56.5t-23.5 88l63 14q6 -36 15.5 -62t25.5 -44t39.5 -28t58.5 -12v269q-33 9 -65 20.5t-56.5 32t-40 52.5t-15.5 83q0 44 13.5 78t37.5 57t56 36.5t70 17.5v84h56v-83q73 -6 115.5 -47.5t54.5 -126.5l-64 -11q-5 24 -12.5 45
t-19.5 37.5t-30 27.5t-44 15v-269q37 -10 69 -23.5t56 -35t37.5 -53t13.5 -76.5q0 -80 -46.5 -127.5t-129.5 -56.5v-88h-56v87zM130 524q0 -23 5 -42.5t17 -35.5t33 -29t54 -23v255q-33 -4 -54 -16t-33 -29.5t-17 -38t-5 -41.5zM402 191q0 28 -8.5 48.5t-23 34.5t-34 23.5
t-41.5 17.5v-251q47 8 77 37.5t30 89.5z" />
    <glyph glyph-name="percent" unicode="%" horiz-adv-x="789" 
d="M206 374q-44 0 -74 14.5t-48 39t-26 56.5t-8 66q0 41 10.5 75.5t31.5 59t51.5 38.5t70.5 14q82 0 118.5 -48t36.5 -126q0 -42 -10.5 -76.5t-31 -59.5t-51 -39t-70.5 -14zM333 312l244 412h65l-195 -329l-243 -412h-66zM576 -12q-44 0 -74 14.5t-48 39t-26 56.5t-8 66
q0 41 10.5 75.5t31.5 59t51.5 38.5t70.5 14q82 0 118.5 -48t36.5 -126q0 -42 -10.5 -76.5t-31 -59.5t-51 -39t-70.5 -14zM579 40q28 0 46.5 10t29 28t15 42.5t4.5 52.5q0 25 -4 47.5t-14.5 40t-28 27.5t-45.5 10q-29 0 -47.5 -12t-29.5 -30.5t-15.5 -41.5t-4.5 -45
q0 -26 4 -49.5t14.5 -41t29 -28t46.5 -10.5zM209 426q28 0 46.5 10t29 28t15 42.5t4.5 52.5q0 38 -9.5 69.5t-36.5 45.5q-20 10 -46 10q-29 0 -47.5 -12t-29.5 -30.5t-15.5 -41.5t-4.5 -45q0 -40 10 -72t38 -47q17 -10 46 -10z" />
    <glyph glyph-name="ampersand" unicode="&#x26;" horiz-adv-x="681" 
d="M465 563q0 -30 -9 -55t-31.5 -47.5t-59.5 -45t-92 -48.5q15 -27 38 -60t48.5 -66.5t51.5 -64.5t47 -53q30 39 43.5 93.5t15.5 119.5h60q-2 -69 -19 -135.5t-58 -117.5q23 -20 46.5 -31.5t49.5 -11.5q23 0 49 12l16 -46q-14 -10 -33 -14t-35 -4q-42 0 -72.5 15t-61.5 40
q-33 -26 -77.5 -40.5t-102.5 -14.5q-47 0 -87 14t-68.5 39.5t-44.5 61.5t-16 79q0 74 34.5 119.5t96.5 80.5q-29 54 -37 114q-3 19 -3 40q0 33 12.5 62.5t35 51t53.5 34.5t69 13q17 0 37 -3q19 -3 37.5 -11.5t33.5 -23.5t24 -38.5t9 -57.5zM285 45q80 0 132 37
q-69 67 -118 135.5t-81 122.5q-30 -17 -51.5 -40.5t-31.5 -58.5q-6 -24 -6 -53q0 -27 9.5 -52.5t28.5 -46t48.5 -32.5t69.5 -12zM220 540q0 -63 31 -129l41 18q58 25 84.5 57t26.5 74q0 32 -21 55.5t-63 23.5q-44 0 -71.5 -25t-27.5 -74z" />
    <glyph glyph-name="quotesingle" unicode="'" horiz-adv-x="202" 
d="M65 465v259h72v-259h-72z" />
    <glyph glyph-name="parenleft" unicode="(" horiz-adv-x="299" 
d="M201 -152q-27 42 -52.5 89t-45.5 101t-32 114t-12 128q0 67 13 129.5t34.5 118.5t48.5 105.5t55 90.5h69q-72 -116 -112 -223.5t-40 -219.5q0 -66 10.5 -123.5t29.5 -110t45 -102t56 -98.5z" />
    <glyph glyph-name="parenright" unicode=")" horiz-adv-x="299" 
d="M31 -153q30 49 56 98.5t45 102t29.5 110t10.5 123.5q0 112 -40 219.5t-112 223.5h69q28 -41 55 -90.5t48.5 -105.5t34.5 -118.5t13 -129.5q0 -68 -12 -128t-32 -114t-45.5 -101t-52.5 -89z" />
    <glyph glyph-name="asterisk" unicode="*" horiz-adv-x="469" 
d="M268 610l133 34l10 -30l-124 -62l82 -126l-25 -19l-110 104l-108 -106l-25 20l81 126l-126 62l11 30l135 -33l19 145h30z" />
    <glyph glyph-name="plus" unicode="+" horiz-adv-x="570" 
d="M250 131v161h-152v62h152v154h69v-154h152v-62h-152v-161h-69z" />
    <glyph glyph-name="comma" unicode="," horiz-adv-x="208" 
d="M75 93h79l-79 -218l-53 8z" />
    <glyph glyph-name="hyphen" unicode="-" horiz-adv-x="317" 
d="M20 262v67h271v-67h-271z" />
    <glyph glyph-name="period" unicode="." horiz-adv-x="216" 
d="M166 45q0 -57 -58 -57t-58 57t58 57t58 -57z" />
    <glyph glyph-name="slash" unicode="/" horiz-adv-x="353" 
d="M6 -92l281 847h60l-280 -847h-61z" />
    <glyph glyph-name="zero" unicode="0" horiz-adv-x="553" 
d="M274 -12q-74 0 -118.5 29.5t-69.5 80t-33 118t-8 143.5t10 144.5t36 120.5t72.5 82.5t120.5 30.5q73 0 117 -30.5t68 -81t31.5 -116t7.5 -136.5q0 -80 -9 -150.5t-34.5 -122.5t-71.5 -82t-119 -30zM277 44q52 0 84 25t49.5 68.5t23 102t5.5 126.5q0 66 -5 123t-21 99
t-47.5 66t-83.5 24q-53 0 -86 -24t-51 -67t-24.5 -102t-6.5 -129q0 -63 5.5 -119.5t23 -99.5t49.5 -68t85 -25z" />
    <glyph glyph-name="one" unicode="1" horiz-adv-x="401" 
d="M206 0v624q-13 -8 -34.5 -14.5t-44.5 -11t-44 -7t-33 -2.5l-7 51q72 6 117.5 25t79.5 59h31v-724h-65z" />
    <glyph glyph-name="two" unicode="2" horiz-adv-x="515" 
d="M263 737q41 0 76 -10t60.5 -31.5t39.5 -55t14 -80.5q0 -42 -11.5 -80t-32 -75t-49.5 -75t-65 -80l-159 -192h327v-58h-403v52l175 217q39 48 67.5 85t46.5 69.5t26.5 63.5t8.5 69q0 68 -35 96.5t-93 28.5q-40 0 -65.5 -10.5t-41.5 -28t-24 -41.5t-13 -51l-60 12
q15 94 71 134.5t140 40.5z" />
    <glyph glyph-name="three" unicode="3" horiz-adv-x="535" 
d="M109 160q4 -24 11.5 -45t22.5 -36t40 -24t65 -9q30 0 57.5 9t48 27.5t33 48.5t12.5 72q0 43 -12.5 72t-34.5 47t-52.5 25.5t-66.5 7.5h-62v58h46q81 0 126.5 40.5t45.5 105.5q0 25 -6 46.5t-21 38t-39 26t-60 9.5q-35 0 -58.5 -7.5t-39 -21.5t-25 -34t-16.5 -46l-62 14
q9 43 28 72t46 47t61.5 26t73.5 8q46 0 81 -12.5t58 -35t35 -53.5t12 -68q0 -43 -13.5 -74t-34.5 -52t-46 -33.5t-49 -17.5v-2q70 -11 112.5 -55.5t42.5 -130.5q0 -48 -15.5 -87.5t-44.5 -68t-70.5 -44t-92.5 -15.5q-85 0 -138.5 38t-63.5 122z" />
    <glyph glyph-name="four" unicode="4" horiz-adv-x="535" 
d="M358 0v186h-338v49l318 489h86v-481h87v-57h-88v-186h-65zM359 243v415l-268 -415h268z" />
    <glyph glyph-name="five" unicode="5" horiz-adv-x="534" 
d="M102 724h332v-58h-276l-22 -256q26 20 60 34.5t82 14.5q36 0 71.5 -10t64 -35t46.5 -68t18 -108q0 -54 -15.5 -100t-45.5 -79t-73.5 -52t-100.5 -19q-38 0 -72.5 9.5t-62.5 29t-47.5 50t-26.5 72.5l65 16q5 -21 13.5 -42t25 -37.5t42 -27t64.5 -10.5q29 0 58 10t52 32.5
t37 58.5t14 88q0 85 -41 124t-105 39q-41 0 -75 -15.5t-63 -43.5l-47 22z" />
    <glyph glyph-name="six" unicode="6" horiz-adv-x="560" 
d="M439 573q-8 33 -20 53.5t-27 32.5t-34 16.5t-40 4.5q-38 0 -66 -15.5t-48.5 -41.5t-34 -60t-22 -71t-12 -74t-3.5 -69q13 16 32.5 32t44 29t52.5 21.5t58 8.5q49 0 85 -16t59.5 -44t34.5 -66t11 -82q0 -57 -15 -102.5t-43.5 -77t-69 -48t-90.5 -16.5q-69 0 -112.5 28.5
t-68.5 76.5t-34 111t-9 132q0 40 4.5 85t15.5 89.5t29.5 85.5t47.5 72.5t68.5 50t93.5 18.5q63 0 110 -33.5t63 -114.5zM136 286q2 -42 8.5 -85t23 -78.5t46.5 -57.5t80 -22q31 0 58 10.5t47 33t31.5 57t11.5 82.5q0 78 -32.5 117t-93.5 39q-28 0 -54 -8.5t-49.5 -22
t-42.5 -30.5t-34 -35z" />
    <glyph glyph-name="seven" unicode="7" horiz-adv-x="505" 
d="M111 0l302 666h-376v58h448v-50l-302 -674h-72z" />
    <glyph glyph-name="eight" unicode="8" horiz-adv-x="528" 
d="M326 375q30 -13 59.5 -28.5t53 -38t37.5 -53.5t14 -76q0 -42 -16 -77t-46 -60.5t-72 -39.5t-94 -14q-58 0 -99.5 14t-68.5 39t-39.5 58.5t-12.5 72.5q0 40 13 70.5t35.5 53.5t51 40.5t60.5 31.5q-28 12 -53 30t-43.5 41.5t-29.5 51.5t-11 60q0 46 16.5 81t45.5 58t68 35
t84 12q93 0 146.5 -43.5t53.5 -121.5q0 -33 -11.5 -62t-32 -53.5t-48.5 -45t-61 -36.5zM260 342q-35 -15 -62.5 -31t-47.5 -35.5t-30.5 -44t-10.5 -57.5q0 -27 9 -51t27.5 -42t48 -28t71.5 -10q43 0 73.5 12.5t49.5 32t27.5 44t8.5 48.5q0 38 -16 64.5t-40 45t-53 30.5
t-55 22zM269 398q30 15 56.5 33.5t46 40t30.5 46.5t11 53q0 53 -34.5 83t-105.5 30q-66 0 -104 -33.5t-38 -90.5q0 -32 12 -57.5t31.5 -45.5t44 -34.5t50.5 -24.5z" />
    <glyph glyph-name="nine" unicode="9" horiz-adv-x="560" 
d="M115 155q16 -65 51.5 -88.5t86.5 -23.5q52 0 86.5 26.5t54.5 71t28.5 103t10.5 123.5q-13 -16 -32.5 -32t-44.5 -29t-53 -21.5t-58 -8.5q-50 0 -85.5 16.5t-59 46t-34.5 69t-11 85.5q0 57 15 102t43.5 76.5t69 48.5t90.5 17q69 0 112.5 -28.5t68.5 -76.5t34 -111t9 -132
q0 -50 -4 -99t-14.5 -93.5t-28.5 -82.5t-45.5 -66t-66.5 -44t-91 -16q-73 0 -125.5 35t-68.5 116zM428 430q-2 42 -8.5 86.5t-23 81.5t-46.5 60.5t-80 23.5q-31 0 -58 -11t-47 -33.5t-31.5 -58.5t-11.5 -85q0 -78 32.5 -119t98.5 -41q26 0 50.5 8t47 21t42.5 30.5t35 36.5z
" />
    <glyph glyph-name="colon" unicode=":" horiz-adv-x="216" 
d="M166 439q0 -57 -58 -57t-58 57t58 57t58 -57zM166 45q0 -57 -58 -57t-58 57t58 57t58 -57z" />
    <glyph glyph-name="semicolon" unicode=";" horiz-adv-x="208" 
d="M64 93h79l-79 -218l-53 8zM176 439q0 -57 -58 -57t-58 57t58 57t58 -57z" />
    <glyph glyph-name="less" unicode="&#x3c;" horiz-adv-x="570" 
d="M89 246v78l374 159v-65l-310 -129l310 -123v-68z" />
    <glyph glyph-name="equal" unicode="=" horiz-adv-x="570" 
d="M101 171v62h369v-62h-369zM101 330v62h369v-62h-369z" />
    <glyph glyph-name="greater" unicode="&#x3e;" horiz-adv-x="570" 
d="M89 104v62l310 123l-310 126v68l374 -159v-72z" />
    <glyph glyph-name="question" unicode="?" horiz-adv-x="493" 
d="M145 182v177q42 4 81 13t69 28.5t47.5 50.5t17.5 79q0 41 -11 67.5t-29.5 41.5t-43.5 21t-53 6q-27 0 -50.5 -5t-43 -18t-34 -36t-22.5 -60l-60 12q6 29 19.5 58.5t38.5 53t63 38.5t93 15q40 0 76.5 -9.5t64.5 -31t44 -57.5t16 -90t-17.5 -92.5t-47.5 -65t-70 -42.5
t-85 -24v-130h-63zM233 45q0 -57 -58 -57t-58 57t58 57t58 -57z" />
    <glyph glyph-name="at" unicode="@" horiz-adv-x="837" 
d="M680 -83q-45 -45 -112.5 -65t-142.5 -20q-79 0 -147.5 22.5t-119 67.5t-79.5 112t-29 157q0 85 28 155t79 119t122 76t157 27q74 0 138 -19.5t111.5 -59t74.5 -99.5t27 -140q0 -131 -46.5 -191.5t-121.5 -60.5q-41 0 -69 15.5t-40 40.5q-19 -26 -50 -44t-73 -18t-70.5 15
t-46 40.5t-24.5 59t-7 71.5q0 47 12 87t34.5 69.5t54.5 46t72 16.5q55 0 94 -36l4 30h55v-250q0 -20 1 -37t6.5 -29.5t17 -19.5t32.5 -7q20 0 38.5 10.5t32 33t21.5 58t8 85.5q0 73 -20 125.5t-57.5 86.5t-91.5 49.5t-123 15.5q-72 0 -130 -23.5t-98.5 -65.5t-62.5 -101
t-22 -129q0 -79 24 -136t66.5 -94.5t100.5 -55.5t125 -18t121 19t88 51zM503 309q-17 14 -37 24t-49 10q-46 0 -78.5 -38.5t-32.5 -124.5q0 -29 4.5 -53.5t15 -42.5t27 -28t41.5 -10q36 0 64.5 20.5t44.5 52.5v190z" />
    <glyph glyph-name="A" unicode="A" horiz-adv-x="678" 
d="M383 724l250 -724h-74l-78 233h-292l-78 -233h-66l246 724h92zM336 669v0l-127 -377h253z" />
    <glyph glyph-name="B" unicode="B" horiz-adv-x="634" 
d="M105 0v724h238q64 0 106 -13.5t66.5 -37.5t34.5 -56.5t10 -69.5q0 -39 -12 -68t-32.5 -50t-48 -33.5t-58.5 -18.5v-2q91 -12 133 -58.5t42 -121.5q0 -56 -19.5 -93t-54.5 -60t-84 -32.5t-108 -9.5h-213zM313 59q42 0 79 4.5t64 19t42.5 42t15.5 72.5q0 49 -19 77.5
t-51 43.5t-74.5 19t-89.5 4h-109v-282h142zM295 399q31 0 65 6t63 21.5t48 43t19 70.5q0 44 -13 69.5t-39.5 38t-67 15.5t-95.5 3h-104v-267h124z" />
    <glyph glyph-name="C" unicode="C" horiz-adv-x="691" 
d="M367 -12q-84 0 -143 26.5t-96.5 74t-55 114t-17.5 146.5q0 94 24 166.5t67.5 121.5t105 74.5t135.5 25.5q55 0 101.5 -14t80.5 -43t55 -73.5t26 -105.5l-63 -6q-6 44 -20 78t-38 57.5t-59 36t-83 12.5q-61 0 -110 -20.5t-83 -61t-52.5 -101t-18.5 -139.5q0 -83 17 -142
t49 -97t78 -56t105 -18q91 0 142 39.5t71 124.5l59 -13q-10 -58 -37 -97.5t-64.5 -64t-83 -35t-92.5 -10.5z" />
    <glyph glyph-name="D" unicode="D" horiz-adv-x="729" 
d="M105 0v724h210q94 0 162 -24.5t111.5 -70t64.5 -110.5t21 -146q0 -83 -22.5 -152t-68.5 -118t-117 -76t-168 -27h-193zM303 58q149 0 225 78.5t76 221.5q0 90 -20.5 149t-58.5 94.5t-92.5 50t-123.5 14.5h-137v-608h131z" />
    <glyph glyph-name="E" unicode="E" horiz-adv-x="572" 
d="M172 58h352v-58h-419v724h409v-58h-342v-269h320v-59h-320v-280z" />
    <glyph glyph-name="F" unicode="F" horiz-adv-x="545" 
d="M172 0h-67v724h409v-58h-342v-282h317v-59h-317v-325z" />
    <glyph glyph-name="G" unicode="G" horiz-adv-x="735" 
d="M587 102q-9 -23 -30 -43.5t-50.5 -36.5t-65.5 -25t-76 -9q-82 0 -140.5 27t-96 75t-55.5 115.5t-18 148.5q0 94 23.5 165.5t67 120t105.5 73t138 24.5q56 0 102 -13t79.5 -41.5t54 -73.5t25.5 -108l-63 -7q-11 102 -62 144t-139 42q-123 0 -193 -83.5t-70 -236.5
q0 -93 20 -154.5t54.5 -97.5t80.5 -50.5t98 -14.5q53 0 92.5 18t66 46.5t39.5 63.5t13 70v75h-217v59h278v-375h-50z" />
    <glyph glyph-name="H" unicode="H" horiz-adv-x="726" 
d="M621 0h-67v343h-382v-343h-67v724h67v-322h382v322h67v-724z" />
    <glyph glyph-name="I" unicode="I" horiz-adv-x="277" 
d="M172 0h-67v724h67v-724z" />
    <glyph glyph-name="J" unicode="J" horiz-adv-x="487" 
d="M325 724h67v-551q0 -54 -13.5 -89.5t-38.5 -57t-59.5 -30t-77.5 -8.5q-87 0 -128 38.5t-45 115.5l64 11q3 -25 9 -45t18 -34t32.5 -21.5t53.5 -7.5q24 0 45.5 4t37.5 17.5t25.5 38.5t9.5 66v553z" />
    <glyph glyph-name="K" unicode="K" horiz-adv-x="632" 
d="M172 353l343 371h79l-293 -315l314 -409h-79l-280 361l-84 -90v-271h-67v724h67v-371z" />
    <glyph glyph-name="L" unicode="L" horiz-adv-x="545" 
d="M172 58h332v-58h-399v724h67v-666z" />
    <glyph glyph-name="M" unicode="M" horiz-adv-x="890" 
d="M785 0h-64v652v0l-238 -652h-79l-236 653v0v-653h-63v724h104l237 -657v0l237 657h102v-724z" />
    <glyph glyph-name="N" unicode="N" horiz-adv-x="745" 
d="M555 0l-386 652v-652h-64v724h96l376 -643v643h63v-724h-85z" />
    <glyph glyph-name="O" unicode="O" horiz-adv-x="759" 
d="M375 -12q-82 0 -142 28t-99.5 78t-59 119t-19.5 150t22 149.5t64.5 118.5t104.5 78t143 28q80 0 139 -28t98 -76.5t58.5 -114t19.5 -140.5q0 -89 -21 -161t-62.5 -123t-103 -78.5t-142.5 -27.5zM379 47q56 0 103 20t81 60t53 100t19 141q0 75 -18 133t-50.5 97
t-78.5 59.5t-101 20.5q-56 0 -104 -20.5t-83 -60.5t-55 -99t-20 -135q0 -77 18.5 -136t52 -99t80.5 -60.5t103 -20.5z" />
    <glyph glyph-name="P" unicode="P" horiz-adv-x="614" 
d="M171 0h-66v724h221q69 0 115.5 -17t74.5 -46.5t39.5 -68t11.5 -81.5q0 -64 -19 -109t-54.5 -73t-86.5 -40.5t-114 -12.5h-122v-276zM291 335q43 0 80.5 6t65.5 25t44 53t16 90q0 49 -14 80t-43.5 48t-74 23t-104.5 6h-90v-331h120z" />
    <glyph glyph-name="Q" unicode="Q" horiz-adv-x="759" 
d="M375 -12q-82 0 -142 28t-99.5 78t-59 119t-19.5 150t22 149.5t64.5 118.5t104.5 78t143 28q80 0 139 -28t98 -76.5t58.5 -114t19.5 -140.5q0 -97 -25 -173.5t-75 -127.5l92 -100l-42 -38l-94 100q-38 -25 -83.5 -38t-101.5 -13zM379 47q79 0 138 39l-136 150l44 40
l136 -151q35 40 54.5 100.5t19.5 142.5q0 75 -18 133t-50.5 97t-78.5 59.5t-101 20.5q-56 0 -104 -20.5t-83 -60.5t-55 -99t-20 -135q0 -77 18.5 -136t52 -99t80.5 -60.5t103 -20.5z" />
    <glyph glyph-name="R" unicode="R" horiz-adv-x="633" 
d="M608 0h-73l-174 312h-190v-312h-66v724h234q67 0 112 -17t71.5 -44t37.5 -62t11 -71q0 -82 -40 -131.5t-106 -69.5zM328 370q39 0 71 7.5t54.5 26t35 49t12.5 76.5q0 42 -13.5 68.5t-38 42t-59.5 21t-77 5.5h-142v-296h157z" />
    <glyph glyph-name="S" unicode="S" horiz-adv-x="591" 
d="M307 677q-47 0 -79 -10t-52 -27.5t-28.5 -41t-8.5 -50.5q0 -39 17 -64.5t45.5 -42.5t64 -28.5t73 -23t73.5 -25.5t64.5 -35.5t45.5 -54t17 -81.5q0 -56 -20.5 -94.5t-54.5 -63.5t-78.5 -36t-93.5 -11q-120 0 -180.5 51.5t-76.5 149.5l67 10q7 -30 19 -58t34 -49t55 -33.5
t82 -12.5q31 0 62.5 6t56.5 22t41 42.5t16 67.5t-17 67.5t-45.5 43.5t-64.5 28t-73.5 21.5t-73 24t-64 35.5t-45.5 56t-17 85q0 44 17.5 79.5t49 60.5t75 38.5t94.5 13.5q47 0 86.5 -10.5t69.5 -34.5t49.5 -62.5t25.5 -93.5l-64 -8q-5 26 -14.5 52.5t-27.5 48t-47 35
t-75 13.5z" />
    <glyph glyph-name="T" unicode="T" horiz-adv-x="538" 
d="M236 0v666h-221v58h508v-58h-220v-666h-67z" />
    <glyph glyph-name="U" unicode="U" horiz-adv-x="716" 
d="M359 47q46 0 81.5 9.5t59.5 32t36.5 59t12.5 90.5v486h67v-489q0 -125 -67.5 -186t-195.5 -61q-135 0 -194 64t-59 184v488h67v-484q0 -54 13.5 -90.5t38 -59.5t60 -33t80.5 -10z" />
    <glyph glyph-name="V" unicode="V" horiz-adv-x="604" 
d="M263 0l-248 724h74l221 -665v0l211 665h68l-234 -724h-92z" />
    <glyph glyph-name="W" unicode="W" horiz-adv-x="858" 
d="M601 0l-169 640v0l-174 -640h-78l-160 724h71l132 -644v0l172 644h77l171 -654v0l129 654h66l-152 -724h-85z" />
    <glyph glyph-name="X" unicode="X" horiz-adv-x="614" 
d="M343 373l251 -373h-75l-217 323l-208 -323h-74l240 368l-228 356h75l194 -306l198 306h72z" />
    <glyph glyph-name="Y" unicode="Y" horiz-adv-x="550" 
d="M313 0h-67v284l-246 440h74l207 -373v0l201 373h68l-237 -437v-287z" />
    <glyph glyph-name="Z" unicode="Z" horiz-adv-x="586" 
d="M120 58h421v-58h-504v48l404 618h-392v58h475v-50z" />
    <glyph glyph-name="bracketleft" unicode="[" horiz-adv-x="253" 
d="M68 -143v867h145v-44l-83 -8v-761l83 -9v-45h-145z" />
    <glyph glyph-name="backslash" unicode="\" horiz-adv-x="353" 
d="M286 -92l-280 847h60l281 -847h-61z" />
    <glyph glyph-name="bracketright" unicode="]" horiz-adv-x="253" 
d="M40 -143v45l83 9v761l-83 8v44h145v-867h-145z" />
    <glyph glyph-name="asciicircum" unicode="^" horiz-adv-x="526" 
d="M428 299l-168 303l-165 -303h-65l197 365h69l200 -365h-68z" />
    <glyph glyph-name="underscore" unicode="_" 
d="M0 -181v52h500v-52h-500z" />
    <glyph glyph-name="grave" unicode="`" 
d="M139 749h88l106 -164l-52 -13z" />
    <glyph glyph-name="a" unicode="a" horiz-adv-x="535" 
d="M442 82q0 -21 5.5 -30.5t25.5 -9.5q11 0 31 6l4 -43q-28 -14 -61 -14q-35 0 -49.5 19t-16.5 45q-29 -30 -72.5 -48.5t-97.5 -18.5q-49 0 -78.5 14.5t-45.5 36t-21.5 45.5t-5.5 42q0 54 22.5 88t58 52.5t79.5 25t88 6.5q22 0 37 -0.5t30 -1.5v51q0 29 -5 51.5t-17.5 37.5
t-34 23t-54.5 8q-61 0 -86.5 -23.5t-33.5 -68.5l-63 11q12 72 58.5 103.5t128.5 31.5q91 0 132.5 -40t41.5 -135v-264zM376 242q-12 2 -26.5 2.5t-36.5 0.5q-26 0 -58 -2.5t-60 -13t-46.5 -32.5t-18.5 -61q0 -19 4 -36t15 -30t29.5 -20.5t48.5 -7.5q45 0 85 21t64 49v130z
" />
    <glyph glyph-name="b" unicode="b" horiz-adv-x="577" 
d="M90 0v755h66v-304q35 29 78 49.5t103 20.5q40 0 74 -13t58.5 -43t38.5 -78.5t14 -118.5q0 -75 -17.5 -128t-47 -86.5t-69 -49.5t-82.5 -16q-45 0 -84 17.5t-68 38.5l-5 -44h-59zM157 106q9 -7 24 -17.5t34.5 -20t42 -16.5t48.5 -7q41 0 69 16.5t45.5 46.5t25.5 71.5
t8 91.5q0 105 -33 150t-101 45q-24 0 -48 -7t-45.5 -18t-39.5 -24.5t-30 -26.5v-284z" />
    <glyph glyph-name="c" unicode="c" horiz-adv-x="536" 
d="M285 -12q-63 0 -107 19.5t-71 54.5t-39.5 83.5t-12.5 106.5q0 135 63.5 202t178.5 67q38 0 71 -10.5t57.5 -32t40 -53.5t17.5 -75l-67 -9q-7 62 -36.5 92t-88.5 30q-30 0 -59.5 -9.5t-53.5 -32.5t-38.5 -62t-14.5 -98q0 -63 14 -104t37 -65.5t52.5 -34t60.5 -9.5
q56 0 90 26t45 87l63 -13q-6 -43 -25 -73t-46.5 -49.5t-61 -28.5t-69.5 -9z" />
    <glyph glyph-name="d" unicode="d" horiz-adv-x="572" 
d="M487 0h-57l-6 57q-35 -29 -77 -49t-99 -20q-43 0 -78.5 14.5t-61 46t-39.5 81t-14 119.5q0 75 17.5 126.5t47 84t68.5 47t83 14.5q45 0 82.5 -13.5t66.5 -34.5v282h67v-755zM420 411q-9 7 -24 16t-34.5 17.5t-42.5 14t-48 5.5q-41 0 -69 -15.5t-45.5 -44t-25.5 -68.5
t-8 -90q0 -106 33.5 -154.5t107.5 -48.5q47 0 88.5 23.5t67.5 52.5v292z" />
    <glyph glyph-name="e" unicode="e" horiz-adv-x="546" 
d="M285 -12q-67 0 -111 22t-70.5 58.5t-37.5 85t-11 101.5q0 70 19 120.5t51 82.5t75.5 47.5t91.5 15.5q52 0 89.5 -17t61.5 -46t35 -68.5t11 -85.5q-1 -15 -2 -30.5t-3 -31.5h-358q1 -57 14.5 -94.5t35.5 -59.5t51.5 -31t62.5 -9q60 0 88.5 24.5t40.5 72.5l63 -12
q-17 -76 -71.5 -110.5t-125.5 -34.5zM419 296q2 79 -29.5 123t-103.5 44q-29 0 -57 -9.5t-50 -29.5t-36 -51.5t-16 -76.5h292z" />
    <glyph glyph-name="f" unicode="f" horiz-adv-x="311" 
d="M318 694q-15 5 -35 9t-38 4q-35 0 -57.5 -19.5t-22.5 -73.5v-103h145v-56h-145v-455h-67v455h-78v56h78v93q0 160 138 160q28 0 50 -5t35 -11z" />
    <glyph glyph-name="g" unicode="g" horiz-adv-x="549" 
d="M267 521q49 0 88.5 -12t65.5 -42q10 23 28.5 42t45.5 19q23 0 43 -7v-60q-24 1 -53 -3t-48 -10q17 -20 26.5 -49t9.5 -60q0 -44 -15.5 -78t-43 -57t-64 -35.5t-78.5 -12.5q-25 0 -50 3.5t-43 10.5q-13 -11 -26 -25.5t-13 -32.5q0 -9 3 -16t11 -12t22.5 -8.5t37.5 -4.5
l142 -8q39 -2 69.5 -9t51 -22t31.5 -39.5t11 -61.5q0 -47 -23.5 -77.5t-61 -48t-83.5 -24.5t-91 -7q-72 0 -116 12.5t-67.5 31t-31.5 41.5t-8 44q0 24 8 43t20 34.5t26.5 27.5t28.5 21q-23 7 -36.5 23t-13.5 42q0 31 19 52.5t44 41.5q-26 14 -45 39.5t-27 59.5q-6 22 -6 47
q0 43 15.5 77.5t43 59t66.5 37.5t87 13zM406 338q0 66 -35.5 97t-100.5 31q-30 0 -56.5 -7t-46 -22.5t-31 -39.5t-11.5 -57q0 -56 33.5 -91.5t109.5 -35.5q63 0 100.5 33.5t37.5 91.5zM449 -67q0 29 -19 48t-76 22l-182 10q-29 -20 -47.5 -43.5t-18.5 -54.5q0 -17 7 -32
t25 -26t50 -18t83 -7q91 0 134.5 26.5t43.5 74.5z" />
    <glyph glyph-name="h" unicode="h" horiz-adv-x="582" 
d="M500 0h-67v338q0 58 -23.5 91t-82.5 33q-25 0 -50.5 -7.5t-48 -18.5t-41 -24t-30.5 -23v-389h-67v755h67v-307q42 31 88 52t100 21q82 0 118.5 -44.5t36.5 -131.5v-345z" />
    <glyph glyph-name="i" unicode="i" horiz-adv-x="242" 
d="M157 0h-67v511h67v-511zM179 688q0 -26 -14 -39.5t-40 -13.5t-40 13.5t-14 39.5t14 39.5t40 13.5t40 -13.5t14 -39.5z" />
    <glyph glyph-name="j" unicode="j" horiz-adv-x="239" 
d="M26 -223q-9 0 -21 1t-24.5 3t-23.5 5t-17 7l9 55q17 -6 36.5 -10t36.5 -4q32 0 50 19t18 64v594h67v-590q0 -75 -32.5 -109.5t-98.5 -34.5zM180 688q0 -26 -14 -39.5t-40 -13.5t-40 13.5t-14 39.5t14 39.5t40 13.5t40 -13.5t14 -39.5z" />
    <glyph glyph-name="k" unicode="k" horiz-adv-x="518" 
d="M157 264l240 247h78l-180 -185l193 -326h-73l-168 278l-90 -92v-186h-67v755h67v-491z" />
    <glyph glyph-name="l" unicode="l" horiz-adv-x="242" 
d="M157 0h-67v755h67v-755z" />
    <glyph glyph-name="m" unicode="m" horiz-adv-x="871" 
d="M157 0h-67v511h59l4 -64q42 31 85 52.5t97 21.5q53 0 83 -19t44 -56q42 31 86.5 53t98.5 22q41 0 68 -11.5t43.5 -33.5t23.5 -55t7 -76v-345h-67v338q0 29 -3 52t-13 39t-27.5 24.5t-45.5 8.5q-22 0 -44.5 -6.5t-44 -17t-39.5 -22.5t-31 -22q3 -23 3 -49v-345h-67v338
q0 29 -3 52t-13 39t-27.5 24.5t-45.5 8.5q-23 0 -47 -7.5t-46 -18.5t-40.5 -24t-30.5 -23v-389z" />
    <glyph glyph-name="n" unicode="n" horiz-adv-x="582" 
d="M500 0h-67v338q0 58 -23.5 91t-82.5 33q-25 0 -50.5 -7.5t-48 -18.5t-41 -24t-30.5 -23v-389h-67v511h59l4 -64q42 31 90 52.5t102 21.5q82 0 118.5 -44.5t36.5 -131.5v-345z" />
    <glyph glyph-name="o" unicode="o" horiz-adv-x="574" 
d="M285 -12q-65 0 -109 20.5t-71 56t-38.5 84t-11.5 104.5q0 125 62.5 196.5t180.5 71.5q58 0 100 -18.5t69 -52t39.5 -80.5t12.5 -104q0 -63 -13 -114.5t-41.5 -87.5t-72.5 -56t-107 -20zM290 45q37 0 66.5 12t50 37.5t31.5 66.5t11 99q0 57 -10.5 96t-30.5 62.5t-48.5 34
t-65.5 10.5q-76 0 -123 -49t-47 -157q0 -212 166 -212z" />
    <glyph glyph-name="p" unicode="p" horiz-adv-x="577" 
d="M90 511h59l4 -62q35 29 79.5 50.5t104.5 21.5q40 0 74 -13t58.5 -43t38.5 -78.5t14 -118.5q0 -75 -17.5 -128t-47 -86.5t-69 -49.5t-82.5 -16q-45 0 -83.5 17.5t-67.5 38.5v-256h-65v723zM157 106q9 -7 24 -17.5t34.5 -20t42 -16.5t48.5 -7q41 0 69 16.5t45.5 46.5
t25.5 71.5t8 91.5q0 105 -33 150t-101 45q-24 0 -48 -7t-45.5 -18t-39.5 -24.5t-30 -26.5v-284z" />
    <glyph glyph-name="q" unicode="q" horiz-adv-x="569" 
d="M487 -212h-64v269q-35 -29 -76.5 -49t-98.5 -20q-43 0 -78.5 14.5t-61 46t-39.5 81t-14 119.5q0 75 17.5 126.5t47 84t68.5 47t83 14.5q45 0 82.5 -16.5t66.5 -37.5l5 44h62v-723zM420 405q-9 7 -24 17t-34.5 19.5t-42.5 16t-48 6.5q-41 0 -69 -15.5t-45.5 -44
t-25.5 -68.5t-8 -90q0 -106 33.5 -154.5t107.5 -48.5q23 0 45.5 6.5t42.5 17.5t37.5 24.5t30.5 27.5v286z" />
    <glyph glyph-name="r" unicode="r" horiz-adv-x="352" 
d="M341 451q-24 4 -49.5 1t-50.5 -11t-46.5 -21t-37.5 -28v-392h-67v511h55l6 -71q37 49 79 65.5t95 15.5h16v-70z" />
    <glyph glyph-name="s" unicode="s" horiz-adv-x="481" 
d="M245 521q46 0 78 -11t53 -31t32 -48.5t16 -63.5l-66 -8q-5 25 -11.5 44.5t-19 33t-33 20.5t-51.5 7q-33 0 -54.5 -7t-34 -18t-17 -26.5t-4.5 -31.5q0 -23 8 -37.5t24 -24.5t38.5 -17t51.5 -14q35 -9 67.5 -18.5t57 -25.5t39 -42t14.5 -68q0 -66 -48 -106t-141 -40
q-84 0 -135.5 35.5t-62.5 119.5l64 11q5 -23 13.5 -42.5t23.5 -34t39 -23t61 -8.5q25 0 46.5 4t37.5 14t25 26.5t9 40.5q0 22 -7.5 36.5t-22.5 24.5t-36.5 16.5t-49.5 13.5q-32 8 -65 16.5t-59.5 24t-43.5 41.5t-17 70q0 37 15 64.5t39.5 46t57.5 27.5t69 9z" />
    <glyph glyph-name="t" unicode="t" horiz-adv-x="366" 
d="M354 20q-19 -13 -52 -22.5t-64 -9.5q-69 0 -102.5 32.5t-33.5 104.5v330h-80v56h80v147l67 10v-157h143v-56h-143v-321q0 -44 14.5 -67.5t64.5 -23.5q23 0 48.5 8t42.5 18z" />
    <glyph glyph-name="u" unicode="u" horiz-adv-x="582" 
d="M89 511h67v-338q0 -59 22 -91.5t81 -32.5q25 0 50.5 7.5t48 18.5t41 23.5t30.5 23.5v389h67v-511h-59l-4 64q-42 -31 -90 -52.5t-102 -21.5q-82 0 -117 44.5t-35 131.5v345z" />
    <glyph glyph-name="v" unicode="v" horiz-adv-x="492" 
d="M211 0l-201 511h73l167 -445v0l165 445h67l-196 -511h-75z" />
    <glyph glyph-name="w" unicode="w" horiz-adv-x="737" 
d="M174 0l-164 511h69l136 -443v0l121 443h73l119 -441v0l135 441h64l-161 -511h-81l-115 436v0l-116 -436h-80z" />
    <glyph glyph-name="x" unicode="x" horiz-adv-x="476" 
d="M271 268l185 -268h-74l-149 221l-141 -221h-72l174 267l-172 244h73l138 -199l144 199h69z" />
    <glyph glyph-name="y" unicode="y" horiz-adv-x="469" 
d="M13 511h72l150 -432l156 432h68l-206 -541q-20 -55 -38.5 -92t-38.5 -59.5t-45 -32t-58 -9.5q-28 0 -53 6t-39 12l10 52q12 -4 37 -9.5t47 -5.5q18 0 34.5 7.5t32.5 26t30.5 50.5t28.5 80z" />
    <glyph glyph-name="z" unicode="z" horiz-adv-x="456" 
d="M110 56h319v-56h-397v47l308 408h-303v56h382v-48z" />
    <glyph glyph-name="braceleft" unicode="{" horiz-adv-x="293" 
d="M263 -145h-45q-71 0 -100.5 30t-29.5 79q0 50 6.5 105t6.5 100q0 53 -22.5 72.5t-56.5 19.5h-17v55h15q38 0 59.5 21.5t21.5 70.5q0 22 -2 51.5t-4.5 60t-4.5 59t-2 49.5q0 109 129 109h46v-56h-45q-35 -1 -49.5 -14.5t-14.5 -42.5q0 -22 2 -49.5t4 -56.5l4 -58t2 -54
q0 -30 -6 -50.5t-16 -33.5t-22.5 -20.5t-25.5 -12.5q13 -5 25.5 -13t22.5 -21t16 -33.5t6 -50.5q0 -51 -6 -103t-6 -93q0 -32 16 -49.5t61 -17.5h32v-53z" />
    <glyph glyph-name="bar" unicode="|" horiz-adv-x="280" 
d="M110 -143v898h60v-898h-60z" />
    <glyph glyph-name="braceright" unicode="}" horiz-adv-x="293" 
d="M30 737h45q71 0 100.5 -30t29.5 -79q0 -50 -6.5 -105t-6.5 -100q0 -53 22 -72.5t57 -19.5h17v-55h-15q-38 0 -59.5 -21.5t-21.5 -70.5q0 -23 2 -52t4.5 -59.5t4.5 -59t2 -49.5q0 -109 -129 -109h-46v56h45q35 1 49.5 14.5t14.5 42.5q0 22 -2 49.5t-4 56.5t-4 57.5
t-2 54.5q0 30 6 50.5t16 33.5t22.5 20.5t25.5 12.5q-13 5 -25.5 13t-22.5 21t-16 33.5t-6 50.5q0 51 6 103t6 93q0 32 -16 49.5t-61 17.5h-32v53z" />
    <glyph glyph-name="asciitilde" unicode="~" horiz-adv-x="484" 
d="M122 406q23 0 56 -7.5t66.5 -16t63 -16t46.5 -7.5q20 0 30.5 9.5t10.5 45.5l47 -2q4 -31 -2 -52t-18 -34.5t-28 -19.5t-34 -6q-23 0 -55.5 7.5t-66.5 16t-64.5 16t-48.5 7.5q-16 0 -27.5 -11.5t-9.5 -45.5l-46 2q-4 31 2 52.5t18 35t27.5 20t32.5 6.5z" />
    <glyph glyph-name="uni00A0" unicode="&#xa0;" horiz-adv-x="230" 
 />
    <glyph glyph-name="exclamdown" unicode="&#xa1;" horiz-adv-x="256" 
d="M160 326l17 -541h-77l15 541h45zM79 464q0 57 58 57t58 -57t-58 -57t-58 57z" />
    <glyph glyph-name="cent" unicode="&#xa2;" horiz-adv-x="507" 
d="M307 695v-99q65 -5 108.5 -44t47.5 -114l-62 -9q-5 53 -28 78t-66 30v-376q45 5 68 29t34 72l58 -12q-6 -36 -20.5 -62t-36 -44t-48 -28.5t-55.5 -13.5v-102h-55v102q-48 4 -83.5 24t-58.5 52.5t-34 75t-11 93.5q0 112 51.5 174t135.5 73v101h55zM135 355
q0 -36 5.5 -68.5t19 -58.5t36 -43.5t56.5 -22.5v373q-24 -4 -45 -15.5t-37 -32.5t-25.5 -53.5t-9.5 -78.5z" />
    <glyph glyph-name="sterling" unicode="&#xa3;" horiz-adv-x="548" 
d="M78 60q88 81 88 169q0 48 -26 98h-107v56h82q-14 25 -30.5 63.5t-16.5 88.5q0 45 16.5 82t45.5 63.5t69.5 41.5t87.5 15q91 0 141.5 -42t61.5 -140l-61 -6q-8 66 -38 98t-103 32q-33 0 -61 -8.5t-48.5 -25.5t-32 -43t-11.5 -61q0 -48 16.5 -88.5t30.5 -69.5h238v-56h-214
q22 -50 22 -99q0 -93 -77 -168h197q28 0 47.5 6.5t33 20t21.5 35t13 51.5l62 -13q-11 -86 -55.5 -123t-122.5 -37h-322v60h53z" />
    <glyph glyph-name="currency" unicode="&#xa4;" horiz-adv-x="570" 
d="M513 9l-93 91q-26 -20 -60 -30.5t-76 -10.5q-45 0 -79.5 11.5t-60.5 31.5l-92 -93l-46 47l95 95q-17 28 -25 61.5t-8 69.5q0 67 35 123l-94 93l50 49l90 -90q27 22 62.5 34.5t79.5 12.5t79.5 -11.5t61.5 -32.5l86 86l46 -47l-89 -90q32 -53 32 -123q0 -37 -9.5 -71.5
t-29.5 -63.5l95 -94zM289 119q35 0 61.5 12.5t44.5 34.5t27 52t9 64q0 75 -36 117.5t-109 42.5q-71 0 -106.5 -45t-35.5 -115q0 -34 8.5 -64t26 -52t45 -34.5t65.5 -12.5z" />
    <glyph glyph-name="yen" unicode="&#xa5;" horiz-adv-x="512" 
d="M295 247v-247h-67v247h-135v53h135v71h-135v53h102l-168 300h75l161 -295l155 295h69l-162 -300h105v-53h-135v-71h135v-53h-135z" />
    <glyph glyph-name="brokenbar" unicode="&#xa6;" horiz-adv-x="280" 
d="M110 -143v388h60v-388h-60zM110 410v345h60v-345h-60z" />
    <glyph glyph-name="section" unicode="&#xa7;" horiz-adv-x="540" 
d="M50 254q0 42 25.5 81.5t70.5 67.5q-27 20 -44 51t-17 79q0 44 16 77t44 55t65.5 33t79.5 11q91 0 143 -47t57 -132l-67 -9q-7 60 -37.5 95t-97.5 35q-68 0 -101 -32t-33 -79t25.5 -72t64 -40t83.5 -25.5t83.5 -28t64 -48t25.5 -85.5q0 -42 -25.5 -82t-70.5 -68
q27 -20 44 -50.5t17 -78.5q0 -44 -16 -77t-44 -55t-65.5 -33t-79.5 -11q-91 0 -143 47t-57 132l67 9q7 -60 38 -95t99 -35q67 0 99.5 32.5t32.5 83.5q0 46 -25.5 71t-64 39t-83.5 24t-83.5 27t-64 47.5t-25.5 85.5zM117 259q0 -38 22 -58.5t56 -33.5t75.5 -22.5t79.5 -24.5
q38 24 60.5 52.5t22.5 63.5q0 37 -22 58t-56.5 34t-75.5 22.5t-79 24.5q-38 -25 -60.5 -53t-22.5 -63z" />
    <glyph glyph-name="dieresis" unicode="&#xa8;" 
d="M202 668q0 -24 -14.5 -37.5t-37.5 -13.5q-24 0 -38.5 13.5t-14.5 37.5q0 23 14.5 37t38.5 14q23 0 37.5 -14t14.5 -37zM401 668q0 -24 -14.5 -37.5t-37.5 -13.5q-24 0 -38.5 13.5t-14.5 37.5q0 23 14.5 37t38.5 14q23 0 37.5 -14t14.5 -37z" />
    <glyph glyph-name="copyright" unicode="&#xa9;" horiz-adv-x="759" 
d="M710 319q0 -74 -24 -135t-68 -104.5t-105 -67.5t-134 -24q-82 0 -144 24.5t-103 67t-62 100.5t-21 125q0 78 26 139t71 103.5t105.5 65t129.5 22.5q76 0 137 -22.5t104 -63.5t65.5 -99.5t22.5 -130.5zM381 37q64 0 114.5 19t86 55t54.5 87t19 115q0 67 -20.5 118
t-56.5 85.5t-86.5 52t-110.5 17.5q-59 0 -109.5 -19t-87.5 -55t-57.5 -88t-20.5 -118q0 -63 19 -112.5t54 -84.5t86 -53.5t116 -18.5zM535 247q-5 -39 -21 -63.5t-37.5 -39t-46 -19.5t-46.5 -5q-48 0 -82.5 14.5t-56.5 41t-32 62t-10 77.5t12 78t35 61.5t57 40t78 14.5
q29 0 54.5 -6.5t45 -21.5t31.5 -39t14 -59l-54 -8q-4 45 -25 65t-67 20q-23 0 -44.5 -8t-38 -25t-26 -45.5t-9.5 -68.5q0 -29 7 -55.5t21 -46t36 -31t51 -11.5q50 0 72 21t32 65z" />
    <glyph glyph-name="ordfeminine" unicode="&#xaa;" horiz-adv-x="370" 
d="M306 345q0 -14 4 -19.5t17 -5.5q8 0 20 3l3 -37q-10 -5 -22 -7.5t-24 -2.5q-26 0 -37 11.5t-13 30.5q-18 -20 -46.5 -32t-64.5 -12q-32 0 -51.5 9.5t-30.5 23t-14.5 29t-3.5 27.5q0 33 14 54.5t37 33.5t52 17t60 6q13 0 22.5 -0.5t19.5 -0.5v30q0 31 -13 49t-55 18
q-35 0 -51 -13.5t-21 -41.5l-51 9q15 93 128 93q63 0 92 -25t29 -87v-160zM249 430q-7 1 -15.5 1h-20.5q-18 0 -37 -1.5t-35.5 -7.5t-27 -18t-10.5 -34q0 -18 11.5 -34t46.5 -16q26 0 50 13.5t38 28.5v68z" />
    <glyph glyph-name="guillemotleft" unicode="&#xab;" horiz-adv-x="424" 
d="M303 103l-88 157l89 148h66l-83 -146l82 -159h-66zM153 103l-88 157l89 148h66l-83 -146l82 -159h-66z" />
    <glyph glyph-name="logicalnot" unicode="&#xac;" horiz-adv-x="570" 
d="M402 199v94h-304v66h373v-160h-69z" />
    <glyph glyph-name="uni00AD" unicode="&#xad;" horiz-adv-x="311" 
d="M20 262v67h271v-67h-271z" />
    <glyph glyph-name="registered" unicode="&#xae;" horiz-adv-x="447" 
d="M407 480q0 -41 -13.5 -74.5t-37.5 -57.5t-58 -37.5t-75 -13.5q-45 0 -79.5 13.5t-57.5 37t-34.5 55.5t-11.5 70q0 43 14.5 77t39.5 58t58.5 36.5t71.5 12.5q85 0 134 -48t49 -129zM368 477q0 70 -41 107t-103 37q-30 0 -56.5 -10t-46 -28.5t-30.5 -46t-11 -62.5
q0 -66 38.5 -103.5t105.5 -37.5t105.5 38.5t38.5 105.5zM311 384h-38l-45 76h-28v-76h-36v191h66q39 0 51.5 -16.5t12.5 -37.5q0 -20 -9 -31.5t-25 -18.5zM213 488q19 0 31.5 6t12.5 26q0 17 -10 22t-27 5h-20v-59h13z" />
    <glyph glyph-name="macron" unicode="&#xaf;" 
d="M108 636v57h283v-57h-283z" />
    <glyph glyph-name="degree" unicode="&#xb0;" horiz-adv-x="300" 
d="M165 577q28 0 42 17t14 46q0 61 -56 61q-26 0 -42 -16t-16 -49q0 -28 14.5 -43.5t43.5 -15.5zM274 640q0 -52 -29 -81t-80 -29t-81 28t-30 78q0 55 32 83.5t79 28.5q48 0 78.5 -27t30.5 -81z" />
    <glyph glyph-name="plusminus" unicode="&#xb1;" horiz-adv-x="570" 
d="M98 0v61h373v-61h-373zM250 131v161h-152v62h152v154h69v-154h152v-62h-152v-161h-69z" />
    <glyph glyph-name="twosuperior" unicode="&#xb2;" horiz-adv-x="345" 
d="M178 799q58 0 92 -27t34 -84q0 -26 -7 -48.5t-20.5 -44.5t-33 -45.5t-44.5 -51.5l-85 -93v-1h197v-55h-269v52l105 121q24 27 41.5 48.5t29 40t17 36.5t5.5 39q0 33 -18.5 47.5t-50.5 14.5q-42 0 -58.5 -21t-21.5 -53l-54 10q9 61 47 88t94 27z" />
    <glyph glyph-name="threesuperior" unicode="&#xb3;" horiz-adv-x="361" 
d="M87 458q3 -15 7.5 -27t13 -20.5t22.5 -13t35 -4.5q34 0 58.5 19t24.5 63q0 46 -25 63t-67 17h-41v49h29q47 0 72.5 23t25.5 59q0 26 -14.5 43.5t-53.5 17.5t-54.5 -16t-23.5 -45l-56 11q11 56 50 79t90 23q62 0 93.5 -28.5t31.5 -76.5q0 -24 -8 -42.5t-21 -31.5
t-28.5 -21t-30.5 -12v-1q45 -8 70.5 -35t25.5 -78q0 -60 -40.5 -95.5t-107.5 -35.5q-54 0 -91.5 24.5t-44.5 80.5z" />
    <glyph glyph-name="acute" unicode="&#xb4;" 
d="M223 572l-52 13l106 164h88z" />
    <glyph glyph-name="mu" unicode="&#xb5;" horiz-adv-x="629" 
d="M108 511h67v-336q0 -67 19.5 -98.5t73.5 -31.5q27 0 53 9.5t49.5 24.5t43 33t34.5 36v363h67v-511h-64v73q-17 -15 -38.5 -30t-45.5 -27t-51.5 -20t-56.5 -8q-59 0 -86 35q-1 -1 -1.5 -1t-1.5 -1l5 -197h-67v687z" />
    <glyph glyph-name="paragraph" unicode="&#xb6;" horiz-adv-x="547" 
d="M449 -133h-67v801h-89v-801h-67v384q-94 9 -150 68.5t-56 159.5q0 67 22 113.5t60 76t87.5 42.5t105.5 13h153z" />
    <glyph glyph-name="periodcentered" unicode="&#xb7;" horiz-adv-x="176" 
d="M146 302q0 -57 -58 -57t-58 57t58 57t58 -57z" />
    <glyph glyph-name="cedilla" unicode="&#xb8;" 
d="M152 -160q8 -5 23.5 -11t32.5 -6q25 0 37 14t12 34q0 25 -16.5 37t-59.5 13l15 109l52 -8l-9 -66q30 -6 53 -24.5t23 -61.5q0 -42 -29 -68t-72 -26q-29 0 -48 7t-29 14z" />
    <glyph glyph-name="onesuperior" unicode="&#xb9;" horiz-adv-x="279" 
d="M135 347v362q-8 -5 -21.5 -8.5t-27.5 -6t-27.5 -4t-21.5 -1.5l-4 49q44 3 74.5 15t52.5 36h38v-442h-63z" />
    <glyph glyph-name="ordmasculine" unicode="&#xba;" horiz-adv-x="392" 
d="M194 274q-44 0 -74 13t-48 36t-26 54.5t-8 67.5q0 80 42 126t123 46q80 0 115.5 -45.5t35.5 -118.5q0 -81 -37.5 -130t-122.5 -49zM197 323q45 0 70.5 29t25.5 97q0 66 -24 92.5t-69 26.5q-46 0 -73.5 -29t-27.5 -92q0 -124 98 -124z" />
    <glyph glyph-name="guillemotright" unicode="&#xbb;" horiz-adv-x="424" 
d="M272 408l88 -155l-89 -150h-66l83 148l-82 157h66zM122 408l88 -155l-89 -150h-66l83 148l-82 157h66z" />
    <glyph glyph-name="onequarter" unicode="&#xbc;" horiz-adv-x="855" 
d="M156 279v362q-8 -5 -21.5 -8.5t-27.5 -6t-27.5 -4t-21.5 -1.5l-4 49q44 3 74.5 15t52.5 36h38v-442h-63zM198 -12l356 736h63l-355 -736h-64zM677 0v107h-209v45l193 290h78v-284h53v-51h-53v-107h-62zM678 158v226l-150 -226h150z" />
    <glyph glyph-name="onehalf" unicode="&#xbd;" horiz-adv-x="855" 
d="M166 279v362q-8 -5 -21.5 -8.5t-27.5 -6t-27.5 -4t-21.5 -1.5l-4 49q44 3 74.5 15t52.5 36h38v-442h-63zM182 -12l356 736h63l-355 -736h-64zM649 450q58 0 92 -27t34 -84q0 -26 -7 -48.5t-20.5 -44.5t-33 -45.5t-44.5 -51.5l-85 -93v-1h197v-55h-269v52l105 121
q24 27 41.5 48.5t29 40t17 36.5t5.5 39q0 33 -18.5 47.5t-50.5 14.5q-42 0 -58.5 -21t-21.5 -53l-54 10q9 61 47 88t94 27z" />
    <glyph glyph-name="threequarters" unicode="&#xbe;" horiz-adv-x="855" 
d="M236 -12l356 736h63l-355 -736h-64zM703 0v107h-209v45l193 290h78v-284h53v-51h-53v-107h-62zM704 158v226l-150 -226h150zM97 390q3 -15 7.5 -27t13 -20.5t22.5 -13t35 -4.5q34 0 58.5 19t24.5 63q0 46 -25 63t-67 17h-41v49h29q47 0 72.5 23t25.5 59q0 26 -14.5 43.5
t-53.5 17.5t-54.5 -16t-23.5 -45l-56 11q11 56 50 79t90 23q62 0 93.5 -28.5t31.5 -76.5q0 -24 -8 -42.5t-21 -31.5t-28.5 -21t-30.5 -12v-1q45 -8 70.5 -35t25.5 -78q0 -60 -40.5 -95.5t-107.5 -35.5q-54 0 -91.5 24.5t-44.5 80.5z" />
    <glyph glyph-name="questiondown" unicode="&#xbf;" horiz-adv-x="457" 
d="M325 327v-177q-42 -4 -81 -13t-69 -28.5t-47.5 -50.5t-17.5 -79q0 -41 11 -67.5t29.5 -41.5t43.5 -21t53 -6q27 0 50.5 5t43 18t34 36t22.5 60l60 -12q-6 -29 -19.5 -58.5t-38.5 -53t-63 -38.5t-93 -15q-41 0 -77 9.5t-64 31t-44 57.5t-16 90t17.5 92.5t47.5 65t70 42.5
t85 24v130h63zM237 464q0 57 58 57t58 -57t-58 -57t-58 57z" />
    <glyph glyph-name="Agrave" unicode="&#xc0;" horiz-adv-x="678" 
d="M383 724l250 -724h-74l-78 233h-292l-78 -233h-66l246 724h92zM336 669v0l-127 -377h253zM197 912h89l102 -132l-54 -13z" />
    <glyph glyph-name="Aacute" unicode="&#xc1;" horiz-adv-x="678" 
d="M383 724l250 -724h-74l-78 233h-292l-78 -233h-66l246 724h92zM336 669v0l-127 -377h253zM348 767l-54 13l102 132h89z" />
    <glyph glyph-name="Acircumflex" unicode="&#xc2;" horiz-adv-x="678" 
d="M383 724l250 -724h-74l-78 233h-292l-78 -233h-66l246 724h92zM336 669v0l-127 -377h253zM334 850l-88 -83l-57 10l120 122h54l120 -122l-59 -8z" />
    <glyph glyph-name="Atilde" unicode="&#xc3;" horiz-adv-x="678" 
d="M383 724l250 -724h-74l-78 233h-292l-78 -233h-66l246 724h92zM336 669l-127 -377h253zM260 892q23 0 43.5 -7.5t39 -16t35.5 -16t34 -7.5q20 0 30.5 9.5t10.5 45.5l47 -2q4 -31 -1.5 -52t-17.5 -34.5t-28.5 -19.5t-34.5 -6q-23 0 -43 7.5t-39 16t-37 16t-36 7.5
q-16 0 -27.5 -11.5t-9.5 -45.5l-46 2q-4 31 2 53t18 35.5t27.5 19.5t32.5 6z" />
    <glyph glyph-name="Adieresis" unicode="&#xc4;" horiz-adv-x="678" 
d="M383 724l250 -724h-74l-78 233h-292l-78 -233h-66l246 724h92zM336 669l-127 -377h253zM289 833q0 -24 -14.5 -37.5t-37.5 -13.5q-24 0 -38.5 13.5t-14.5 37.5q0 23 14.5 37t38.5 14q23 0 37.5 -14t14.5 -37zM488 833q0 -24 -14.5 -37.5t-37.5 -13.5q-24 0 -38.5 13.5
t-14.5 37.5q0 23 14.5 37t38.5 14q23 0 37.5 -14t14.5 -37z" />
    <glyph glyph-name="Aring" unicode="&#xc5;" horiz-adv-x="678" 
d="M440 806q0 -68 -55 -90l248 -716h-74l-78 233h-292l-78 -233h-66l243 715q-26 11 -40.5 32.5t-14.5 53.5q0 25 8.5 44t22.5 32t32.5 19t39.5 6q43 0 73.5 -23t30.5 -73zM336 669l-127 -377h253zM336 752q26 0 38.5 15t12.5 39q0 50 -51 50q-23 0 -37.5 -13.5t-14.5 -39.5
q0 -24 13 -37.5t39 -13.5z" />
    <glyph glyph-name="AE" unicode="&#xc6;" horiz-adv-x="997" 
d="M597 56h352v-56h-420v330h-229l-187 -330h-68l410 724h484v-56h-342v-279h320v-57h-320v-276zM529 668h-40l-157 -281h197v281z" />
    <glyph glyph-name="Ccedilla" unicode="&#xc7;" horiz-adv-x="691" 
d="M303 -160q8 -5 23.5 -11t32.5 -6q25 0 37 14t12 34q0 25 -16.5 37t-59.5 13l9 68q-77 4 -131 32t-88.5 75t-50.5 111.5t-16 141.5q0 94 24 166.5t67.5 121.5t105 74.5t135.5 25.5q55 0 101.5 -14t80.5 -43t55 -73.5t26 -105.5l-63 -6q-6 44 -20 78t-38 57.5t-59 36
t-83 12.5q-61 0 -110 -20.5t-83 -61t-52.5 -101t-18.5 -139.5q0 -83 17 -142t49 -97t78 -56t105 -18q91 0 142 39.5t71 124.5l59 -13q-9 -54 -33 -91.5t-58 -62t-75 -37t-84 -15.5l-4 -33q30 -6 53 -24.5t23 -61.5q0 -42 -29 -68t-72 -26q-29 0 -48 7t-29 14z" />
    <glyph glyph-name="Egrave" unicode="&#xc8;" horiz-adv-x="572" 
d="M172 58h352v-58h-419v724h409v-58h-342v-269h320v-59h-320v-280zM204 912h89l102 -132l-54 -13z" />
    <glyph glyph-name="Eacute" unicode="&#xc9;" horiz-adv-x="572" 
d="M172 58h352v-58h-419v724h409v-58h-342v-269h320v-59h-320v-280zM296 767l-54 13l102 132h89z" />
    <glyph glyph-name="Ecircumflex" unicode="&#xca;" horiz-adv-x="572" 
d="M172 58h352v-58h-419v724h409v-58h-342v-269h320v-59h-320v-280zM308 850l-88 -83l-57 10l120 122h54l120 -122l-59 -8z" />
    <glyph glyph-name="Edieresis" unicode="&#xcb;" horiz-adv-x="572" 
d="M172 58h352v-58h-419v724h409v-58h-342v-269h320v-59h-320v-280zM263 833q0 -24 -14.5 -37.5t-37.5 -13.5q-24 0 -38.5 13.5t-14.5 37.5q0 23 14.5 37t38.5 14q23 0 37.5 -14t14.5 -37zM462 833q0 -24 -14.5 -37.5t-37.5 -13.5q-24 0 -38.5 13.5t-14.5 37.5q0 23 14.5 37
t38.5 14q23 0 37.5 -14t14.5 -37z" />
    <glyph glyph-name="Igrave" unicode="&#xcc;" horiz-adv-x="277" 
d="M172 0h-67v724h67v-724zM-9 912h89l102 -132l-54 -13z" />
    <glyph glyph-name="Iacute" unicode="&#xcd;" horiz-adv-x="277" 
d="M172 0h-67v724h67v-724zM155 767l-54 13l102 132h89z" />
    <glyph glyph-name="Icircumflex" unicode="&#xce;" horiz-adv-x="277" 
d="M172 0h-67v724h67v-724zM136 850l-88 -83l-57 10l120 122h54l120 -122l-59 -8z" />
    <glyph glyph-name="Idieresis" unicode="&#xcf;" horiz-adv-x="277" 
d="M172 0h-67v724h67v-724zM91 833q0 -24 -14.5 -37.5t-37.5 -13.5q-24 0 -38.5 13.5t-14.5 37.5q0 23 14.5 37t38.5 14q23 0 37.5 -14t14.5 -37zM290 833q0 -24 -14.5 -37.5t-37.5 -13.5q-24 0 -38.5 13.5t-14.5 37.5q0 23 14.5 37t38.5 14q23 0 37.5 -14t14.5 -37z" />
    <glyph glyph-name="Eth" unicode="&#xd0;" horiz-adv-x="744" 
d="M120 0v342h-86v56h86v326h210q94 0 162 -24.5t111.5 -70t64.5 -110.5t21 -146q0 -83 -22.5 -152t-68.5 -118t-117 -76t-168 -27h-193zM318 58q149 0 225 78.5t76 221.5q0 90 -20.5 149t-58.5 94.5t-92.5 50t-123.5 14.5h-137v-268h235v-56h-235v-284h131z" />
    <glyph glyph-name="Ntilde" unicode="&#xd1;" horiz-adv-x="745" 
d="M555 0l-386 652v-652h-64v724h96l376 -643v643h63v-724h-85zM304 892q23 0 43.5 -7.5t39 -16t35.5 -16t34 -7.5q20 0 30.5 9.5t10.5 45.5l47 -2q4 -31 -1.5 -52t-17.5 -34.5t-28.5 -19.5t-34.5 -6q-23 0 -43 7.5t-39 16t-37 16t-36 7.5q-16 0 -27.5 -11.5t-9.5 -45.5
l-46 2q-4 31 2 53t18 35.5t27.5 19.5t32.5 6z" />
    <glyph glyph-name="Ograve" unicode="&#xd2;" horiz-adv-x="759" 
d="M375 -12q-82 0 -142 28t-99.5 78t-59 119t-19.5 150t22 149.5t64.5 118.5t104.5 78t143 28q80 0 139 -28t98 -76.5t58.5 -114t19.5 -140.5q0 -89 -21 -161t-62.5 -123t-103 -78.5t-142.5 -27.5zM379 47q56 0 103 20t81 60t53 100t19 141q0 75 -18 133t-50.5 97
t-78.5 59.5t-101 20.5q-56 0 -104 -20.5t-83 -60.5t-55 -99t-20 -135q0 -77 18.5 -136t52 -99t80.5 -60.5t103 -20.5zM282 912h89l102 -132l-54 -13z" />
    <glyph glyph-name="Oacute" unicode="&#xd3;" horiz-adv-x="759" 
d="M375 -12q-82 0 -142 28t-99.5 78t-59 119t-19.5 150t22 149.5t64.5 118.5t104.5 78t143 28q80 0 139 -28t98 -76.5t58.5 -114t19.5 -140.5q0 -89 -21 -161t-62.5 -123t-103 -78.5t-142.5 -27.5zM379 47q56 0 103 20t81 60t53 100t19 141q0 75 -18 133t-50.5 97
t-78.5 59.5t-101 20.5q-56 0 -104 -20.5t-83 -60.5t-55 -99t-20 -135q0 -77 18.5 -136t52 -99t80.5 -60.5t103 -20.5zM359 767l-54 13l102 132h89z" />
    <glyph glyph-name="Ocircumflex" unicode="&#xd4;" horiz-adv-x="759" 
d="M375 -12q-82 0 -142 28t-99.5 78t-59 119t-19.5 150t22 149.5t64.5 118.5t104.5 78t143 28q80 0 139 -28t98 -76.5t58.5 -114t19.5 -140.5q0 -89 -21 -161t-62.5 -123t-103 -78.5t-142.5 -27.5zM379 47q56 0 103 20t81 60t53 100t19 141q0 75 -18 133t-50.5 97
t-78.5 59.5t-101 20.5q-56 0 -104 -20.5t-83 -60.5t-55 -99t-20 -135q0 -77 18.5 -136t52 -99t80.5 -60.5t103 -20.5zM386 850l-88 -83l-57 10l120 122h54l120 -122l-59 -8z" />
    <glyph glyph-name="Otilde" unicode="&#xd5;" horiz-adv-x="759" 
d="M375 -12q-82 0 -142 28t-99.5 78t-59 119t-19.5 150t22 149.5t64.5 118.5t104.5 78t143 28q80 0 139 -28t98 -76.5t58.5 -114t19.5 -140.5q0 -89 -21 -161t-62.5 -123t-103 -78.5t-142.5 -27.5zM379 47q56 0 103 20t81 60t53 100t19 141q0 75 -18 133t-50.5 97
t-78.5 59.5t-101 20.5q-56 0 -104 -20.5t-83 -60.5t-55 -99t-20 -135q0 -77 18.5 -136t52 -99t80.5 -60.5t103 -20.5zM312 892q23 0 43.5 -7.5t39 -16t35.5 -16t34 -7.5q20 0 30.5 9.5t10.5 45.5l47 -2q4 -31 -1.5 -52t-17.5 -34.5t-28.5 -19.5t-34.5 -6q-23 0 -43 7.5
t-39 16t-37 16t-36 7.5q-16 0 -27.5 -11.5t-9.5 -45.5l-46 2q-4 31 2 53t18 35.5t27.5 19.5t32.5 6z" />
    <glyph glyph-name="Odieresis" unicode="&#xd6;" horiz-adv-x="759" 
d="M375 -12q-82 0 -142 28t-99.5 78t-59 119t-19.5 150t22 149.5t64.5 118.5t104.5 78t143 28q80 0 139 -28t98 -76.5t58.5 -114t19.5 -140.5q0 -89 -21 -161t-62.5 -123t-103 -78.5t-142.5 -27.5zM379 47q56 0 103 20t81 60t53 100t19 141q0 75 -18 133t-50.5 97
t-78.5 59.5t-101 20.5q-56 0 -104 -20.5t-83 -60.5t-55 -99t-20 -135q0 -77 18.5 -136t52 -99t80.5 -60.5t103 -20.5zM341 833q0 -24 -14.5 -37.5t-37.5 -13.5q-24 0 -38.5 13.5t-14.5 37.5q0 23 14.5 37t38.5 14q23 0 37.5 -14t14.5 -37zM540 833q0 -24 -14.5 -37.5
t-37.5 -13.5q-24 0 -38.5 13.5t-14.5 37.5q0 23 14.5 37t38.5 14q23 0 37.5 -14t14.5 -37z" />
    <glyph glyph-name="multiply" unicode="&#xd7;" horiz-adv-x="570" 
d="M284 272l-107 -109l-48 48l108 109l-108 110l48 48l107 -109l108 109l48 -48l-108 -110l108 -109l-48 -48z" />
    <glyph glyph-name="Oslash" unicode="&#xd8;" horiz-adv-x="759" 
d="M375 -12q-60 0 -108 15l-31 -74h-68l41 99q-79 45 -116.5 132.5t-37.5 202.5q0 81 22 149.5t64.5 118.5t104.5 78t143 28q60 0 109 -17l31 73h67l-41 -98q75 -45 112 -129t37 -188q0 -89 -21 -161t-62.5 -123t-103 -78.5t-142.5 -27.5zM125 363q0 -98 29 -166.5
t81 -106.5l239 573q-39 15 -87 15q-56 0 -104 -20.5t-83 -60.5t-55 -99t-20 -135zM379 47q56 0 103 20t81 60t53 100t19 141q0 94 -28 160.5t-78 104.5l-238 -572q42 -14 88 -14z" />
    <glyph glyph-name="Ugrave" unicode="&#xd9;" horiz-adv-x="716" 
d="M359 47q46 0 81.5 9.5t59.5 32t36.5 59t12.5 90.5v486h67v-489q0 -125 -67.5 -186t-195.5 -61q-135 0 -194 64t-59 184v488h67v-484q0 -54 13.5 -90.5t38 -59.5t60 -33t80.5 -10zM252 912h89l102 -132l-54 -13z" />
    <glyph glyph-name="Uacute" unicode="&#xda;" horiz-adv-x="716" 
d="M359 47q46 0 81.5 9.5t59.5 32t36.5 59t12.5 90.5v486h67v-489q0 -125 -67.5 -186t-195.5 -61q-135 0 -194 64t-59 184v488h67v-484q0 -54 13.5 -90.5t38 -59.5t60 -33t80.5 -10zM363 767l-54 13l102 132h89z" />
    <glyph glyph-name="Ucircumflex" unicode="&#xdb;" horiz-adv-x="716" 
d="M359 47q46 0 81.5 9.5t59.5 32t36.5 59t12.5 90.5v486h67v-489q0 -125 -67.5 -186t-195.5 -61q-135 0 -194 64t-59 184v488h67v-484q0 -54 13.5 -90.5t38 -59.5t60 -33t80.5 -10zM366 850l-88 -83l-57 10l120 122h54l120 -122l-59 -8z" />
    <glyph glyph-name="Udieresis" unicode="&#xdc;" horiz-adv-x="716" 
d="M359 47q46 0 81.5 9.5t59.5 32t36.5 59t12.5 90.5v486h67v-489q0 -125 -67.5 -186t-195.5 -61q-135 0 -194 64t-59 184v488h67v-484q0 -54 13.5 -90.5t38 -59.5t60 -33t80.5 -10zM317 833q0 -24 -14.5 -37.5t-37.5 -13.5q-24 0 -38.5 13.5t-14.5 37.5q0 23 14.5 37
t38.5 14q23 0 37.5 -14t14.5 -37zM516 833q0 -24 -14.5 -37.5t-37.5 -13.5q-24 0 -38.5 13.5t-14.5 37.5q0 23 14.5 37t38.5 14q23 0 37.5 -14t14.5 -37z" />
    <glyph glyph-name="Yacute" unicode="&#xdd;" horiz-adv-x="550" 
d="M313 0h-67v284l-246 440h74l207 -373v0l201 373h68l-237 -437v-287zM252 767l-54 13l102 132h89z" />
    <glyph glyph-name="Thorn" unicode="&#xde;" horiz-adv-x="614" 
d="M171 0h-66v724h66v-127h155q69 0 115.5 -17t74.5 -45.5t39.5 -66.5t11.5 -79q0 -62 -19 -105.5t-54.5 -71t-86.5 -40.5t-114 -13h-122v-159zM291 218q43 0 80.5 6.5t65.5 25.5t44 51.5t16 85.5q0 48 -14 77.5t-43.5 46t-74 22.5t-104.5 6h-90v-321h120z" />
    <glyph glyph-name="germandbls" unicode="&#xdf;" horiz-adv-x="657" 
d="M157 0h-67v549q0 59 17 100.5t47.5 67.5t72.5 38t92 12q109 0 162 -46t53 -131q0 -34 -9 -60.5t-25 -46.5t-37 -35t-46 -25v-3q42 -7 76.5 -21.5t60 -39.5t39.5 -62t14 -88q0 -49 -14 -89.5t-40.5 -69.5t-64 -45t-85.5 -16q-36 0 -67 8.5t-55 27t-40.5 48t-22.5 70.5
l64 11q5 -23 13 -42.5t22 -34t35 -22.5t53 -8q62 0 97 38.5t35 116.5q0 51 -16 85.5t-44 55t-65 29t-79 8.5h-42v56h15q45 0 75.5 12.5t49.5 32.5t27 45t8 49q0 73 -39.5 104t-108.5 31q-38 0 -68 -8t-50.5 -27.5t-31.5 -52.5t-11 -84v-538z" />
    <glyph glyph-name="agrave" unicode="&#xe0;" horiz-adv-x="535" 
d="M442 82q0 -21 5.5 -30.5t25.5 -9.5q11 0 31 6l4 -43q-28 -14 -61 -14q-35 0 -49.5 19t-16.5 45q-29 -30 -72.5 -48.5t-97.5 -18.5q-49 0 -78.5 14.5t-45.5 36t-21.5 45.5t-5.5 42q0 54 22.5 88t58 52.5t79.5 25t88 6.5q22 0 37 -0.5t30 -1.5v51q0 29 -5 51.5t-17.5 37.5
t-34 23t-54.5 8q-61 0 -86.5 -23.5t-33.5 -68.5l-63 11q12 72 58.5 103.5t128.5 31.5q91 0 132.5 -40t41.5 -135v-264zM376 242q-12 2 -26.5 2.5t-36.5 0.5q-26 0 -58 -2.5t-60 -13t-46.5 -32.5t-18.5 -61q0 -19 4 -36t15 -30t29.5 -20.5t48.5 -7.5q45 0 85 21t64 49v130z
M157 749h88l106 -164l-52 -13z" />
    <glyph glyph-name="aacute" unicode="&#xe1;" horiz-adv-x="535" 
d="M442 82q0 -21 5.5 -30.5t25.5 -9.5q11 0 31 6l4 -43q-28 -14 -61 -14q-35 0 -49.5 19t-16.5 45q-29 -30 -72.5 -48.5t-97.5 -18.5q-49 0 -78.5 14.5t-45.5 36t-21.5 45.5t-5.5 42q0 54 22.5 88t58 52.5t79.5 25t88 6.5q22 0 37 -0.5t30 -1.5v51q0 29 -5 51.5t-17.5 37.5
t-34 23t-54.5 8q-61 0 -86.5 -23.5t-33.5 -68.5l-63 11q12 72 58.5 103.5t128.5 31.5q91 0 132.5 -40t41.5 -135v-264zM376 242q-12 2 -26.5 2.5t-36.5 0.5q-26 0 -58 -2.5t-60 -13t-46.5 -32.5t-18.5 -61q0 -19 4 -36t15 -30t29.5 -20.5t48.5 -7.5q45 0 85 21t64 49v130z
M241 572l-52 13l106 164h88z" />
    <glyph glyph-name="acircumflex" unicode="&#xe2;" horiz-adv-x="535" 
d="M442 82q0 -21 5.5 -30.5t25.5 -9.5q11 0 31 6l4 -43q-28 -14 -61 -14q-35 0 -49.5 19t-16.5 45q-29 -30 -72.5 -48.5t-97.5 -18.5q-49 0 -78.5 14.5t-45.5 36t-21.5 45.5t-5.5 42q0 54 22.5 88t58 52.5t79.5 25t88 6.5q22 0 37 -0.5t30 -1.5v51q0 29 -5 51.5t-17.5 37.5
t-34 23t-54.5 8q-61 0 -86.5 -23.5t-33.5 -68.5l-63 11q12 72 58.5 103.5t128.5 31.5q91 0 132.5 -40t41.5 -135v-264zM376 242q-12 2 -26.5 2.5t-36.5 0.5q-26 0 -58 -2.5t-60 -13t-46.5 -32.5t-18.5 -61q0 -19 4 -36t15 -30t29.5 -20.5t48.5 -7.5q45 0 85 21t64 49v130z
M364 578l-96 122l-92 -124l-55 8l114 165h67l118 -165z" />
    <glyph glyph-name="atilde" unicode="&#xe3;" horiz-adv-x="535" 
d="M442 82q0 -21 5.5 -30.5t25.5 -9.5q11 0 31 6l4 -43q-28 -14 -61 -14q-35 0 -49.5 19t-16.5 45q-29 -30 -72.5 -48.5t-97.5 -18.5q-49 0 -78.5 14.5t-45.5 36t-21.5 45.5t-5.5 42q0 54 22.5 88t58 52.5t79.5 25t88 6.5q22 0 37 -0.5t30 -1.5v51q0 29 -5 51.5t-17.5 37.5
t-34 23t-54.5 8q-61 0 -86.5 -23.5t-33.5 -68.5l-63 11q12 72 58.5 103.5t128.5 31.5q91 0 132.5 -40t41.5 -135v-264zM376 242q-12 2 -26.5 2.5t-36.5 0.5q-26 0 -58 -2.5t-60 -13t-46.5 -32.5t-18.5 -61q0 -19 4 -36t15 -30t29.5 -20.5t48.5 -7.5q45 0 85 21t64 49v130z
M191 708q23 0 43.5 -7.5t39 -16t35.5 -16t34 -7.5q20 0 30.5 9.5t10.5 45.5l47 -2q4 -31 -2 -52t-18 -34.5t-28 -19.5t-34 -6q-23 0 -43 7.5t-39 16t-37 16t-36 7.5q-16 0 -27.5 -11.5t-9.5 -45.5l-46 2q-4 31 2 52.5t18 35t27.5 20t32.5 6.5z" />
    <glyph glyph-name="adieresis" unicode="&#xe4;" horiz-adv-x="535" 
d="M442 82q0 -21 5.5 -30.5t25.5 -9.5q11 0 31 6l4 -43q-28 -14 -61 -14q-35 0 -49.5 19t-16.5 45q-29 -30 -72.5 -48.5t-97.5 -18.5q-49 0 -78.5 14.5t-45.5 36t-21.5 45.5t-5.5 42q0 54 22.5 88t58 52.5t79.5 25t88 6.5q22 0 37 -0.5t30 -1.5v51q0 29 -5 51.5t-17.5 37.5
t-34 23t-54.5 8q-61 0 -86.5 -23.5t-33.5 -68.5l-63 11q12 72 58.5 103.5t128.5 31.5q91 0 132.5 -40t41.5 -135v-264zM376 242q-12 2 -26.5 2.5t-36.5 0.5q-26 0 -58 -2.5t-60 -13t-46.5 -32.5t-18.5 -61q0 -19 4 -36t15 -30t29.5 -20.5t48.5 -7.5q45 0 85 21t64 49v130z
M220 668q0 -24 -14.5 -37.5t-37.5 -13.5q-24 0 -38.5 13.5t-14.5 37.5q0 23 14.5 37t38.5 14q23 0 37.5 -14t14.5 -37zM419 668q0 -24 -14.5 -37.5t-37.5 -13.5q-24 0 -38.5 13.5t-14.5 37.5q0 23 14.5 37t38.5 14q23 0 37.5 -14t14.5 -37z" />
    <glyph glyph-name="aring" unicode="&#xe5;" horiz-adv-x="535" 
d="M442 82q0 -21 5.5 -30.5t25.5 -9.5q11 0 31 6l4 -43q-28 -14 -61 -14q-35 0 -49.5 19t-16.5 45q-29 -30 -72.5 -48.5t-97.5 -18.5q-49 0 -78.5 14.5t-45.5 36t-21.5 45.5t-5.5 42q0 54 22.5 88t58 52.5t79.5 25t88 6.5q22 0 37 -0.5t30 -1.5v51q0 29 -5 51.5t-17.5 37.5
t-34 23t-54.5 8q-61 0 -86.5 -23.5t-33.5 -68.5l-63 11q12 72 58.5 103.5t128.5 31.5q91 0 132.5 -40t41.5 -135v-264zM376 242q-12 2 -26.5 2.5t-36.5 0.5q-26 0 -58 -2.5t-60 -13t-46.5 -32.5t-18.5 -61q0 -19 4 -36t15 -30t29.5 -20.5t48.5 -7.5q45 0 85 21t64 49v130z
M372 674q0 -47 -28 -73t-76 -26q-47 0 -75 24.5t-28 69.5q0 25 8.5 44t22.5 32t32.5 19t39.5 6q43 0 73.5 -23t30.5 -73zM268 620q26 0 38.5 15t12.5 39q0 50 -51 50q-23 0 -37.5 -13.5t-14.5 -39.5q0 -24 13 -37.5t39 -13.5z" />
    <glyph glyph-name="ae" unicode="&#xe6;" horiz-adv-x="867" 
d="M606 -12q-68 0 -111.5 21.5t-69.5 59.5q-45 -42 -99.5 -61.5t-109.5 -19.5q-49 0 -78.5 14.5t-45.5 36t-21.5 45.5t-5.5 42q0 52 21 85.5t55.5 52.5t78.5 26.5t91 7.5q17 0 35 -0.5t34 -1.5v62q0 25 -5.5 45t-18.5 34.5t-35 22t-55 7.5q-58 0 -84.5 -22.5t-34.5 -67.5
l-61 11q12 72 58.5 102.5t128.5 30.5q68 0 103 -22.5t51 -70.5q33 49 81 71t105 22q52 0 89.5 -16.5t61.5 -45.5t35 -68.5t11 -85.5q0 -15 -1.5 -31t-3.5 -32h-358q1 -57 14.5 -94.5t35.5 -59.5t51.5 -31t62.5 -9q60 0 88.5 24.5t40.5 72.5l63 -12q-17 -76 -71.5 -110.5
t-125.5 -34.5zM232 42q47 0 91 20t77 57q-10 28 -14.5 59t-5.5 65q-14 1 -33 1.5t-37 0.5q-32 0 -63.5 -4t-56.5 -16t-40 -33.5t-15 -56.5q0 -18 4 -35t14.5 -30t29.5 -20.5t49 -7.5zM740 296q2 79 -29.5 123t-103.5 44q-29 0 -57 -9.5t-50 -29.5t-36 -51.5t-16 -76.5h292z
" />
    <glyph glyph-name="ccedilla" unicode="&#xe7;" horiz-adv-x="536" 
d="M215 -160q8 -5 23.5 -11t32.5 -6q25 0 37 14t12 34q0 25 -16.5 37t-59.5 13l9 69q-54 4 -91.5 25.5t-61.5 56t-34.5 80.5t-10.5 100q0 135 63.5 202t178.5 67q38 0 71 -10.5t57.5 -32t40 -53.5t17.5 -75l-67 -9q-7 62 -36.5 92t-88.5 30q-30 0 -59.5 -9.5t-53.5 -32.5
t-38.5 -62t-14.5 -98q0 -63 14 -104t37 -65.5t52.5 -34t60.5 -9.5q56 0 90 26t45 87l63 -13q-6 -40 -23 -68.5t-41 -48t-54 -29.5t-63 -13l-4 -33q30 -6 53 -24.5t23 -61.5q0 -42 -29 -68t-72 -26q-29 0 -48 7t-29 14z" />
    <glyph glyph-name="egrave" unicode="&#xe8;" horiz-adv-x="546" 
d="M285 -12q-67 0 -111 22t-70.5 58.5t-37.5 85t-11 101.5q0 70 19 120.5t51 82.5t75.5 47.5t91.5 15.5q52 0 89.5 -17t61.5 -46t35 -68.5t11 -85.5q-1 -15 -2 -30.5t-3 -31.5h-358q1 -57 14.5 -94.5t35.5 -59.5t51.5 -31t62.5 -9q60 0 88.5 24.5t40.5 72.5l63 -12
q-17 -76 -71.5 -110.5t-125.5 -34.5zM419 296q2 79 -29.5 123t-103.5 44q-29 0 -57 -9.5t-50 -29.5t-36 -51.5t-16 -76.5h292zM174 749h88l106 -164l-52 -13z" />
    <glyph glyph-name="eacute" unicode="&#xe9;" horiz-adv-x="546" 
d="M285 -12q-67 0 -111 22t-70.5 58.5t-37.5 85t-11 101.5q0 70 19 120.5t51 82.5t75.5 47.5t91.5 15.5q52 0 89.5 -17t61.5 -46t35 -68.5t11 -85.5q-1 -15 -2 -30.5t-3 -31.5h-358q1 -57 14.5 -94.5t35.5 -59.5t51.5 -31t62.5 -9q60 0 88.5 24.5t40.5 72.5l63 -12
q-17 -76 -71.5 -110.5t-125.5 -34.5zM419 296q2 79 -29.5 123t-103.5 44q-29 0 -57 -9.5t-50 -29.5t-36 -51.5t-16 -76.5h292zM258 572l-52 13l106 164h88z" />
    <glyph glyph-name="ecircumflex" unicode="&#xea;" horiz-adv-x="546" 
d="M285 -12q-67 0 -111 22t-70.5 58.5t-37.5 85t-11 101.5q0 70 19 120.5t51 82.5t75.5 47.5t91.5 15.5q52 0 89.5 -17t61.5 -46t35 -68.5t11 -85.5q-1 -15 -2 -30.5t-3 -31.5h-358q1 -57 14.5 -94.5t35.5 -59.5t51.5 -31t62.5 -9q60 0 88.5 24.5t40.5 72.5l63 -12
q-17 -76 -71.5 -110.5t-125.5 -34.5zM419 296q2 79 -29.5 123t-103.5 44q-29 0 -57 -9.5t-50 -29.5t-36 -51.5t-16 -76.5h292zM381 578l-96 122l-92 -124l-55 8l114 165h67l118 -165z" />
    <glyph glyph-name="edieresis" unicode="&#xeb;" horiz-adv-x="546" 
d="M285 -12q-67 0 -111 22t-70.5 58.5t-37.5 85t-11 101.5q0 70 19 120.5t51 82.5t75.5 47.5t91.5 15.5q52 0 89.5 -17t61.5 -46t35 -68.5t11 -85.5q-1 -15 -2 -30.5t-3 -31.5h-358q1 -57 14.5 -94.5t35.5 -59.5t51.5 -31t62.5 -9q60 0 88.5 24.5t40.5 72.5l63 -12
q-17 -76 -71.5 -110.5t-125.5 -34.5zM419 296q2 79 -29.5 123t-103.5 44q-29 0 -57 -9.5t-50 -29.5t-36 -51.5t-16 -76.5h292zM237 668q0 -24 -14.5 -37.5t-37.5 -13.5q-24 0 -38.5 13.5t-14.5 37.5q0 23 14.5 37t38.5 14q23 0 37.5 -14t14.5 -37zM436 668
q0 -24 -14.5 -37.5t-37.5 -13.5q-24 0 -38.5 13.5t-14.5 37.5q0 23 14.5 37t38.5 14q23 0 37.5 -14t14.5 -37z" />
    <glyph glyph-name="igrave" unicode="&#xec;" horiz-adv-x="242" 
d="M157 0h-67v511h67v-511zM-30 749h88l106 -164l-52 -13z" />
    <glyph glyph-name="iacute" unicode="&#xed;" horiz-adv-x="242" 
d="M157 0h-67v511h67v-511zM141 572l-52 13l106 164h88z" />
    <glyph glyph-name="icircumflex" unicode="&#xee;" horiz-adv-x="242" 
d="M157 0h-67v511h67v-511zM219 578l-96 122l-92 -124l-55 8l114 165h67l118 -165z" />
    <glyph glyph-name="idieresis" unicode="&#xef;" horiz-adv-x="242" 
d="M157 0h-67v511h67v-511zM75 668q0 -24 -14.5 -37.5t-37.5 -13.5q-24 0 -38.5 13.5t-14.5 37.5q0 23 14.5 37t38.5 14q23 0 37.5 -14t14.5 -37zM274 668q0 -24 -14.5 -37.5t-37.5 -13.5q-24 0 -38.5 13.5t-14.5 37.5q0 23 14.5 37t38.5 14q23 0 37.5 -14t14.5 -37z" />
    <glyph glyph-name="eth" unicode="&#xf0;" horiz-adv-x="572" 
d="M201 613l91 49q-60 39 -146 49l22 51q110 -12 185 -67l102 55l28 -48l-85 -46q60 -63 87 -151.5t27 -193.5q0 -53 -8.5 -110t-34 -104.5t-71.5 -78t-121 -30.5q-57 0 -99 19t-70 52.5t-41.5 79.5t-13.5 100q0 57 14.5 105t43 83t70.5 54.5t97 19.5q42 0 82 -11.5
t69 -34.5l2 1q-13 50 -35 92.5t-57 76.5l-110 -59zM122 246q0 -34 7 -70t25 -65.5t48 -48.5t77 -19q52 0 84.5 23.5t51.5 61.5t26 85.5t7 95.5q0 34 -3 67q-20 26 -63 46t-95 20q-82 0 -123.5 -53t-41.5 -143z" />
    <glyph glyph-name="ntilde" unicode="&#xf1;" horiz-adv-x="582" 
d="M500 0h-67v338q0 58 -23.5 91t-82.5 33q-25 0 -50.5 -7.5t-48 -18.5t-41 -24t-30.5 -23v-389h-67v511h59l4 -64q42 31 90 52.5t102 21.5q82 0 118.5 -44.5t36.5 -131.5v-345zM212 708q23 0 43.5 -7.5t39 -16t35.5 -16t34 -7.5q20 0 30.5 9.5t10.5 45.5l47 -2
q4 -31 -2 -52t-18 -34.5t-28 -19.5t-34 -6q-23 0 -43 7.5t-39 16t-37 16t-36 7.5q-16 0 -27.5 -11.5t-9.5 -45.5l-46 2q-4 31 2 52.5t18 35t27.5 20t32.5 6.5z" />
    <glyph glyph-name="ograve" unicode="&#xf2;" horiz-adv-x="574" 
d="M285 -12q-65 0 -109 20.5t-71 56t-38.5 84t-11.5 104.5q0 125 62.5 196.5t180.5 71.5q58 0 100 -18.5t69 -52t39.5 -80.5t12.5 -104q0 -63 -13 -114.5t-41.5 -87.5t-72.5 -56t-107 -20zM290 45q37 0 66.5 12t50 37.5t31.5 66.5t11 99q0 57 -10.5 96t-30.5 62.5t-48.5 34
t-65.5 10.5q-76 0 -123 -49t-47 -157q0 -212 166 -212zM186 749h88l106 -164l-52 -13z" />
    <glyph glyph-name="oacute" unicode="&#xf3;" horiz-adv-x="574" 
d="M285 -12q-65 0 -109 20.5t-71 56t-38.5 84t-11.5 104.5q0 125 62.5 196.5t180.5 71.5q58 0 100 -18.5t69 -52t39.5 -80.5t12.5 -104q0 -63 -13 -114.5t-41.5 -87.5t-72.5 -56t-107 -20zM290 45q37 0 66.5 12t50 37.5t31.5 66.5t11 99q0 57 -10.5 96t-30.5 62.5t-48.5 34
t-65.5 10.5q-76 0 -123 -49t-47 -157q0 -212 166 -212zM270 572l-52 13l106 164h88z" />
    <glyph glyph-name="ocircumflex" unicode="&#xf4;" horiz-adv-x="574" 
d="M285 -12q-65 0 -109 20.5t-71 56t-38.5 84t-11.5 104.5q0 125 62.5 196.5t180.5 71.5q58 0 100 -18.5t69 -52t39.5 -80.5t12.5 -104q0 -63 -13 -114.5t-41.5 -87.5t-72.5 -56t-107 -20zM290 45q37 0 66.5 12t50 37.5t31.5 66.5t11 99q0 57 -10.5 96t-30.5 62.5t-48.5 34
t-65.5 10.5q-76 0 -123 -49t-47 -157q0 -212 166 -212zM393 578l-96 122l-92 -124l-55 8l114 165h67l118 -165z" />
    <glyph glyph-name="otilde" unicode="&#xf5;" horiz-adv-x="574" 
d="M285 -12q-65 0 -109 20.5t-71 56t-38.5 84t-11.5 104.5q0 125 62.5 196.5t180.5 71.5q58 0 100 -18.5t69 -52t39.5 -80.5t12.5 -104q0 -63 -13 -114.5t-41.5 -87.5t-72.5 -56t-107 -20zM290 45q37 0 66.5 12t50 37.5t31.5 66.5t11 99q0 57 -10.5 96t-30.5 62.5t-48.5 34
t-65.5 10.5q-76 0 -123 -49t-47 -157q0 -212 166 -212zM220 708q23 0 43.5 -7.5t39 -16t35.5 -16t34 -7.5q20 0 30.5 9.5t10.5 45.5l47 -2q4 -31 -2 -52t-18 -34.5t-28 -19.5t-34 -6q-23 0 -43 7.5t-39 16t-37 16t-36 7.5q-16 0 -27.5 -11.5t-9.5 -45.5l-46 2q-4 31 2 52.5
t18 35t27.5 20t32.5 6.5z" />
    <glyph glyph-name="odieresis" unicode="&#xf6;" horiz-adv-x="574" 
d="M285 -12q-65 0 -109 20.5t-71 56t-38.5 84t-11.5 104.5q0 125 62.5 196.5t180.5 71.5q58 0 100 -18.5t69 -52t39.5 -80.5t12.5 -104q0 -63 -13 -114.5t-41.5 -87.5t-72.5 -56t-107 -20zM290 45q37 0 66.5 12t50 37.5t31.5 66.5t11 99q0 57 -10.5 96t-30.5 62.5t-48.5 34
t-65.5 10.5q-76 0 -123 -49t-47 -157q0 -212 166 -212zM249 668q0 -24 -14.5 -37.5t-37.5 -13.5q-24 0 -38.5 13.5t-14.5 37.5q0 23 14.5 37t38.5 14q23 0 37.5 -14t14.5 -37zM448 668q0 -24 -14.5 -37.5t-37.5 -13.5q-24 0 -38.5 13.5t-14.5 37.5q0 23 14.5 37t38.5 14
q23 0 37.5 -14t14.5 -37z" />
    <glyph glyph-name="divide" unicode="&#xf7;" horiz-adv-x="570" 
d="M336 171q0 -57 -58 -57t-58 57t58 57t58 -57zM95 292v62h373v-62h-373zM336 473q0 -57 -58 -57t-58 57t58 57t58 -57z" />
    <glyph glyph-name="oslash" unicode="&#xf8;" horiz-adv-x="574" 
d="M285 -12q-23 0 -43 2.5t-38 7.5l-31 -70h-67l43 95q-52 34 -73 94.5t-21 135.5q0 125 62.5 196.5t180.5 71.5q40 0 72 -9l34 74h66l-45 -98q49 -32 71.5 -89t22.5 -133q0 -63 -13 -114.5t-41.5 -87.5t-72.5 -56t-107 -20zM290 45q37 0 66.5 12t50 37.5t31.5 66.5t11 99
q0 63 -13 104t-37 64l-170 -375q29 -8 61 -8zM124 257q0 -121 53 -173l168 373q-23 6 -51 6q-76 0 -123 -49t-47 -157z" />
    <glyph glyph-name="ugrave" unicode="&#xf9;" horiz-adv-x="582" 
d="M89 511h67v-338q0 -59 22 -91.5t81 -32.5q25 0 50.5 7.5t48 18.5t41 23.5t30.5 23.5v389h67v-511h-59l-4 64q-42 -31 -90 -52.5t-102 -21.5q-82 0 -117 44.5t-35 131.5v345zM172 749h88l106 -164l-52 -13z" />
    <glyph glyph-name="uacute" unicode="&#xfa;" horiz-adv-x="582" 
d="M89 511h67v-338q0 -59 22 -91.5t81 -32.5q25 0 50.5 7.5t48 18.5t41 23.5t30.5 23.5v389h67v-511h-59l-4 64q-42 -31 -90 -52.5t-102 -21.5q-82 0 -117 44.5t-35 131.5v345zM270 572l-52 13l106 164h88z" />
    <glyph glyph-name="ucircumflex" unicode="&#xfb;" horiz-adv-x="582" 
d="M89 511h67v-338q0 -59 22 -91.5t81 -32.5q25 0 50.5 7.5t48 18.5t41 23.5t30.5 23.5v389h67v-511h-59l-4 64q-42 -31 -90 -52.5t-102 -21.5q-82 0 -117 44.5t-35 131.5v345zM388 578l-96 122l-92 -124l-55 8l114 165h67l118 -165z" />
    <glyph glyph-name="udieresis" unicode="&#xfc;" horiz-adv-x="582" 
d="M89 511h67v-338q0 -59 22 -91.5t81 -32.5q25 0 50.5 7.5t48 18.5t41 23.5t30.5 23.5v389h67v-511h-59l-4 64q-42 -31 -90 -52.5t-102 -21.5q-82 0 -117 44.5t-35 131.5v345zM239 668q0 -24 -14.5 -37.5t-37.5 -13.5q-24 0 -38.5 13.5t-14.5 37.5q0 23 14.5 37t38.5 14
q23 0 37.5 -14t14.5 -37zM438 668q0 -24 -14.5 -37.5t-37.5 -13.5q-24 0 -38.5 13.5t-14.5 37.5q0 23 14.5 37t38.5 14q23 0 37.5 -14t14.5 -37z" />
    <glyph glyph-name="yacute" unicode="&#xfd;" horiz-adv-x="469" 
d="M13 511h72l150 -432l156 432h68l-206 -541q-20 -55 -38.5 -92t-38.5 -59.5t-45 -32t-58 -9.5q-28 0 -53 6t-39 12l10 52q12 -4 37 -9.5t47 -5.5q18 0 34.5 7.5t32.5 26t30.5 50.5t28.5 80zM221 572l-52 13l106 164h88z" />
    <glyph glyph-name="thorn" unicode="&#xfe;" horiz-adv-x="577" 
d="M90 -212v967h66v-304q35 29 78 49.5t103 20.5q40 0 74 -13t58.5 -43t38.5 -78.5t14 -118.5q0 -75 -17.5 -128t-47 -86.5t-69 -49.5t-82.5 -16q-45 0 -83 17t-66 37v-254h-67zM157 106q9 -7 24 -17.5t34.5 -20t42 -16.5t48.5 -7q41 0 69 16.5t45.5 46.5t25.5 71.5t8 91.5
q0 105 -33 150t-101 45q-24 0 -48 -7t-45.5 -18t-39.5 -24.5t-30 -26.5v-284z" />
    <glyph glyph-name="ydieresis" unicode="&#xff;" horiz-adv-x="469" 
d="M13 511h72l150 -432l156 432h68l-206 -541q-20 -55 -38.5 -92t-38.5 -59.5t-45 -32t-58 -9.5q-28 0 -53 6t-39 12l10 52q12 -4 37 -9.5t47 -5.5q18 0 34.5 7.5t32.5 26t30.5 50.5t28.5 80zM187 668q0 -24 -14.5 -37.5t-37.5 -13.5q-24 0 -38.5 13.5t-14.5 37.5
q0 23 14.5 37t38.5 14q23 0 37.5 -14t14.5 -37zM386 668q0 -24 -14.5 -37.5t-37.5 -13.5q-24 0 -38.5 13.5t-14.5 37.5q0 23 14.5 37t38.5 14q23 0 37.5 -14t14.5 -37z" />
    <glyph glyph-name="apostrophe" unicode="&#x2bc;" 
d="M221 688h79l-62 -159l-53 8z" />
    <glyph glyph-name="tilde" unicode="&#x2dc;" 
d="M173 708q23 0 43.5 -7.5t39 -16t35.5 -16t34 -7.5q20 0 30.5 9.5t10.5 45.5l47 -2q4 -31 -2 -52t-18 -34.5t-28 -19.5t-34 -6q-23 0 -43 7.5t-39 16t-37 16t-36 7.5q-16 0 -27.5 -11.5t-9.5 -45.5l-46 2q-4 31 2 52.5t18 35t27.5 20t32.5 6.5z" />
    <glyph glyph-name="endash" unicode="&#x2013;" 
d="M0 255v54h499v-54h-499z" />
    <glyph glyph-name="emdash" unicode="&#x2014;" horiz-adv-x="1000" 
d="M0 255v54h999v-54h-999z" />
    <glyph glyph-name="quoteleft" unicode="&#x2018;" horiz-adv-x="177" 
d="M116 557h-79l79 218l53 -8z" />
    <glyph glyph-name="quoteright" unicode="&#x2019;" horiz-adv-x="177" 
d="M86 773h79l-79 -218l-53 8z" />
    <glyph glyph-name="quotedblleft" unicode="&#x201c;" horiz-adv-x="320" 
d="M116 557h-79l79 218l53 -8zM259 557h-79l79 218l53 -8z" />
    <glyph glyph-name="quotedblright" unicode="&#x201d;" horiz-adv-x="320" 
d="M81 773h79l-79 -218l-53 8zM224 773h79l-79 -218l-53 8z" />
    <glyph glyph-name="quotedblbase" unicode="&#x201e;" horiz-adv-x="309" 
d="M210 84h79l-79 -218l-53 8zM68 84h79l-79 -218l-53 8z" />
    <glyph glyph-name="bullet" unicode="&#x2022;" horiz-adv-x="365" 
d="M314 280q0 -65 -34.5 -97t-97.5 -32t-97 32t-34 97t34 97t97 32t97.5 -32t34.5 -97z" />
    <glyph glyph-name="ellipsis" unicode="&#x2026;" horiz-adv-x="582" 
d="M166 45q0 -57 -58 -57t-58 57t58 57t58 -57zM532 45q0 -57 -58 -57t-58 57t58 57t58 -57zM349 45q0 -57 -58 -57t-58 57t58 57t58 -57z" />
    <glyph glyph-name="guilsinglleft" unicode="&#x2039;" horiz-adv-x="278" 
d="M153 103l-88 157l89 148h66l-83 -146l82 -159h-66z" />
    <glyph glyph-name="guilsinglright" unicode="&#x203a;" horiz-adv-x="278" 
d="M122 408l88 -155l-89 -150h-66l83 148l-82 157h66z" />
    <glyph glyph-name="Euro" unicode="&#x20ac;" horiz-adv-x="599" 
d="M156 257q13 -105 59 -158t137 -53q70 0 109 32t55 107l58 -15q-8 -51 -30 -85.5t-53 -56t-68.5 -31t-75.5 -9.5q-46 0 -89 12t-78 42.5t-59.5 82.5t-33.5 132h-70l9 52h57q-1 10 -1 19.5v20.5v24t1 23h-51l9 52h47q10 84 36.5 139.5t64 88.5t83 47t93.5 14q90 0 148 -50
t66 -157l-64 -6q-5 41 -15.5 70t-28 48t-44.5 27.5t-65 8.5q-51 0 -87.5 -17t-61 -47.5t-38 -73t-19.5 -92.5h238l-10 -52h-232q-1 -11 -1 -22v-22v-21.5t1 -21.5h227l-10 -52h-213z" />
    <glyph glyph-name="trademark" unicode="&#x2122;" horiz-adv-x="823" 
d="M710 348v280l-114 -280h-40l-112 281v-281h-49v376h63l120 -302l123 302h57v-376h-48zM205 348h-52v329h-133v47h319v-47h-134v-329z" />
    </font>
</defs>
</svg>
