<?xml version="1.0" standalone="no"?>
<!DOCTYPE svg PUBLIC "-//W3C//DTD SVG 1.1//EN" "http://www.w3.org/Graphics/SVG/1.1/DTD/svg11.dtd" >
<svg xmlns="http://www.w3.org/2000/svg" xmlns:xlink="http://www.w3.org/1999/xlink" version="1.1">
<metadata>
Created by FontForge 20170731 at Wed Feb  6 03:45:48 2013
 By Aleksey,,,
Copyright (c) 2012 by TypeTogether. All rights reserved.
</metadata>
<defs>
<font id="AdelleSans-SemiBoldItalic" horiz-adv-x="742" >
  <font-face 
    font-family="Adelle Sans"
    font-weight="600"
    font-style="italic"
    font-stretch="normal"
    units-per-em="1000"
    panose-1="2 0 5 3 0 0 0 2 0 4"
    ascent="750"
    descent="-250"
    x-height="517"
    cap-height="724"
    bbox="-155 -236 1001 915"
    underline-thickness="50"
    underline-position="-150"
    unicode-range="U+000D-2122"
  />
<missing-glyph horiz-adv-x="500" 
d="M50 500h400v-500h-400v500zM400 50v400h-300v-400h300z" />
    <glyph glyph-name=".notdef" horiz-adv-x="500" 
d="M50 500h400v-500h-400v500zM400 50v400h-300v-400h300z" />
    <glyph glyph-name=".null" horiz-adv-x="0" 
 />
    <glyph glyph-name="nonmarkingreturn" unicode="&#xd;" horiz-adv-x="198" 
 />
    <glyph glyph-name="NULL" horiz-adv-x="0" 
 />
    <glyph glyph-name="NULL" horiz-adv-x="0" 
 />
    <glyph glyph-name="space" unicode=" " horiz-adv-x="198" 
 />
    <glyph glyph-name="exclam" unicode="!" horiz-adv-x="275" 
d="M70 191l56 533h127l-92 -533h-91zM174 69q0 -39 -22 -60t-65 -21q-67 0 -67 57q0 82 87 82q67 0 67 -58z" />
    <glyph glyph-name="quotedbl" unicode="&#x22;" horiz-adv-x="399" 
d="M239 465l36 259h108l-36 -259h-108zM59 465l36 259h108l-36 -259h-108z" />
    <glyph glyph-name="numbersign" unicode="#" horiz-adv-x="607" 
d="M258 0l42 142h-108l-42 -142h-84l41 142h-109l29 80h104l40 134h-109l29 81h104l37 133h86l-39 -133h106l38 133h85l-38 -133h110l-28 -81h-106l-38 -134h108l-27 -80h-105l-42 -142h-84zM361 356h-106l-39 -134h107z" />
    <glyph glyph-name="dollar" unicode="$" horiz-adv-x="532" 
d="M404 505q-1 48 -15.5 77t-48.5 38l-33 -218q30 -12 60.5 -26.5t55 -35t40 -50t15.5 -71.5q0 -53 -19 -92.5t-51 -66.5t-73.5 -42t-86.5 -19l-11 -80h-84l12 84q-88 15 -127.5 64.5t-41.5 127.5l103 19q2 -23 6.5 -43.5t13.5 -37t24.5 -28t38.5 -17.5l34 233
q-78 32 -120 73.5t-42 109.5q0 46 16 82t45 62t69.5 41.5t89.5 20.5l12 82h81l-12 -85q71 -12 111.5 -57.5t40.5 -132.5zM366 201q0 35 -21.5 55.5t-53.5 34.5l-30 -207q45 8 75 37t30 80zM169 518q0 -32 17.5 -52.5t45.5 -35.5l28 189q-38 -6 -64.5 -31t-26.5 -70z" />
    <glyph glyph-name="percent" unicode="%" horiz-adv-x="820" 
d="M208 374q-41 0 -69 11.5t-45 31.5t-25 47.5t-8 59.5q0 44 12 83t36 68t60.5 45.5t86.5 16.5q75 0 110 -39.5t35 -111.5q0 -44 -11.5 -82.5t-35.5 -67.5t-60.5 -45.5t-85.5 -16.5zM216 443q33 0 51.5 15.5t27.5 37.5t11 46.5t2 42.5q0 38 -13 60t-46 22q-26 0 -44 -11.5
t-29 -31.5t-16 -46t-5 -55q0 -36 13 -58t48 -22zM90 -15l542 739h104l-542 -739h-104zM583 -12q-41 0 -69 11.5t-45.5 31.5t-25.5 47.5t-8 59.5q0 44 12 83t36 68t60.5 45.5t86.5 16.5q75 0 110.5 -39.5t35.5 -111.5q0 -44 -12 -82.5t-36 -67.5t-60 -45.5t-85 -16.5zM590 57
q33 0 51.5 15.5t27.5 37t11 46t2 42.5q0 39 -13 60.5t-46 21.5q-26 0 -44 -11.5t-29 -31t-16 -45.5t-5 -55q0 -36 13.5 -58t47.5 -22z" />
    <glyph glyph-name="ampersand" unicode="&#x26;" horiz-adv-x="724" 
d="M548 573q0 -37 -12.5 -66.5t-38.5 -54.5t-66.5 -47t-96.5 -44q22 -47 57 -97.5t69 -91.5q27 35 43 79t25 97h102q-9 -62 -32 -124t-70 -113q18 -14 36 -22.5t39 -8.5t45 9l11 -82q-17 -9 -40 -13t-42 -4q-44 0 -77 13.5t-63 37.5q-35 -24 -84.5 -38.5t-113.5 -14.5
q-51 0 -90.5 13.5t-66.5 37t-41 56t-14 70.5q0 81 43 135t128 92q-11 25 -16.5 50.5t-5.5 57.5q0 47 17 84t47 62.5t70.5 39t86.5 13.5q28 0 55 -6.5t48.5 -21.5t34.5 -39t13 -59zM228 316q-33 -20 -59 -50.5t-26 -83.5q0 -48 30.5 -77.5t95.5 -29.5q51 0 101 29
q-49 54 -82.5 106.5t-59.5 105.5zM293 518q0 -43 15 -85q73 30 104.5 58.5t31.5 72.5q0 26 -14 42t-45 16q-38 0 -65 -26t-27 -78z" />
    <glyph glyph-name="quotesingle" unicode="'" horiz-adv-x="219" 
d="M59 465l36 259h108l-36 -259h-108z" />
    <glyph glyph-name="parenleft" unicode="(" horiz-adv-x="335" 
d="M129 -152q-18 33 -34 73t-29 85t-20.5 95t-7.5 103q0 81 18.5 153t48.5 136.5t69.5 121.5t81.5 109h125q-49 -63 -89.5 -123t-70 -122.5t-46 -130.5t-16.5 -146q0 -104 26.5 -191t62.5 -164z" />
    <glyph glyph-name="parenright" unicode=")" horiz-adv-x="335" 
d="M186 723q18 -33 34 -73t29 -85t20.5 -95t7.5 -103q0 -81 -18.5 -153t-48.5 -136.5t-69.5 -121.5t-81.5 -109h-125q49 63 89.5 123t70 122.5t46 130.5t16.5 146q0 104 -26.5 191t-62.5 164z" />
    <glyph glyph-name="asterisk" unicode="*" horiz-adv-x="472" 
d="M319 621l127 32l9 -53l-122 -58l60 -116l-47 -33l-87 95l-115 -97l-42 34l91 118l-108 56l25 53l121 -31l36 134h54z" />
    <glyph glyph-name="plus" unicode="+" horiz-adv-x="569" 
d="M202 125l20 150h-141l13 95h141l21 146h98l-20 -146h141l-13 -95h-141l-21 -150h-98z" />
    <glyph glyph-name="comma" unicode="," horiz-adv-x="249" 
d="M55 114h124l-125 -245l-91 11z" />
    <glyph glyph-name="hyphen" unicode="-" horiz-adv-x="314" 
d="M9 243l14 100h271l-14 -100h-271z" />
    <glyph glyph-name="period" unicode="." horiz-adv-x="245" 
d="M167 75q0 -42 -22 -64.5t-67 -22.5q-69 0 -69 61q0 42 22.5 64.5t67.5 22.5q68 0 68 -61z" />
    <glyph glyph-name="slash" unicode="/" horiz-adv-x="404" 
d="M-52 -92l400 847h107l-399 -847h-108z" />
    <glyph glyph-name="zero" unicode="0" horiz-adv-x="589" 
d="M243 -12q-60 0 -100 17t-63.5 49t-33.5 77t-10 102q0 32 1.5 67.5t6.5 72.5q10 78 31.5 145t57.5 115.5t89 76t125 27.5q58 0 97 -17.5t62.5 -49t33.5 -74.5t10 -95q0 -32 -1.5 -65t-5.5 -67q-9 -84 -29.5 -154.5t-56.5 -120.5t-88.5 -78t-125.5 -28zM251 74
q41 0 70.5 22t50 62t33 95t20.5 121q4 33 6 63.5t2 58.5q1 30 -3 55q-5 48 -26.5 73.5t-66.5 25.5q-40 0 -69 -21t-49.5 -58.5t-34 -89.5t-21.5 -114q-5 -35 -6.5 -66t-2.5 -59q-1 -17 -0.5 -33t2.5 -30q5 -51 26.5 -78t68.5 -27z" />
    <glyph glyph-name="one" unicode="1" horiz-adv-x="423" 
d="M147 0l82 579q-14 -7 -36 -13t-45.5 -10t-45 -6t-33.5 -2v91q70 5 125 25.5t96 59.5h72l-102 -724h-113z" />
    <glyph glyph-name="two" unicode="2" horiz-adv-x="531" 
d="M-6 0l13 93l192 198q53 55 88.5 93.5t57 68.5t30.5 55t9 54q0 86 -91 86q-49 0 -81 -28.5t-51 -90.5l-100 18q11 51 35 87t57 59t73 33.5t84 10.5q89 0 140 -41.5t51 -121.5q0 -45 -13 -81.5t-39.5 -73.5t-67.5 -79.5t-97 -97.5q-16 -17 -35.5 -35.5t-39 -37.5t-37.5 -38
t-32 -35h304l-13 -96h-437z" />
    <glyph glyph-name="three" unicode="3" horiz-adv-x="552" 
d="M325 737q91 0 139 -41t48 -113q0 -43 -15.5 -76t-40 -57t-54 -39.5t-57.5 -22.5v-2q61 -13 96 -49t35 -106q0 -56 -19 -101t-54 -76.5t-84.5 -48.5t-109.5 -17q-45 0 -81.5 9.5t-63 30.5t-42 54t-17.5 79l102 19q1 -19 6 -38t16.5 -34t31.5 -24t52 -9q28 0 54.5 9
t46.5 27.5t32.5 47t12.5 68.5q0 61 -34 84t-91 23h-66l12 87h47q78 0 123.5 40t45.5 105q0 35 -19.5 59.5t-68.5 24.5q-57 0 -86 -26.5t-47 -74.5l-99 20q15 46 39 78t56.5 52t71 29t82.5 9z" />
    <glyph glyph-name="four" unicode="4" horiz-adv-x="578" 
d="M311 0l24 173h-331l12 80l364 471h144l-65 -459h84l-13 -92h-84l-25 -173h-110zM348 265l50 353l-275 -353h225z" />
    <glyph glyph-name="five" unicode="5" horiz-adv-x="549" 
d="M221 629l-54 -219q29 22 64.5 36t81.5 14q34 0 65 -10t55 -32t38 -57t14 -86q0 -65 -20.5 -117.5t-57 -90.5t-88 -58.5t-114.5 -20.5q-43 0 -79.5 10.5t-64 32t-44 54.5t-19.5 78l101 22q1 -18 6.5 -37t18.5 -34.5t34 -25t53 -9.5q28 0 56.5 9.5t51 31.5t37 57t14.5 85
q0 59 -27.5 83.5t-71.5 24.5q-37 0 -70 -17.5t-61 -40.5l-77 34l80 378h363l-13 -95h-272z" />
    <glyph glyph-name="six" unicode="6" horiz-adv-x="570" 
d="M449 547q-5 59 -28 81t-61 22q-44 0 -77 -24t-57 -62.5t-39 -87.5t-22 -100q14 11 33 23t42 21.5t48.5 15.5t52.5 6q81 0 126.5 -46t45.5 -127q0 -67 -20.5 -119.5t-56.5 -88.5t-84.5 -54.5t-103.5 -18.5q-60 0 -99.5 19.5t-63 54t-33.5 82.5t-10 104q0 41 5.5 93.5
t20 107t39 106.5t61.5 92.5t88.5 65t120.5 24.5q34 0 65 -9.5t54 -30t38 -52t18 -74.5zM160 290q-2 -17 -3 -35t-1 -34q0 -29 4.5 -55t15.5 -46.5t31 -32.5t52 -12q28 0 53 11t43.5 33.5t29.5 56.5t11 79q0 99 -89 99q-20 0 -40 -6t-39.5 -15t-37 -20.5t-30.5 -22.5z" />
    <glyph glyph-name="seven" unicode="7" horiz-adv-x="520" 
d="M23 0l377 629h-342l14 95h463l-12 -85l-377 -639h-123z" />
    <glyph glyph-name="eight" unicode="8" horiz-adv-x="551" 
d="M379 381q25 -12 48 -26.5t40 -33.5t27 -44.5t10 -59.5q0 -48 -19 -90t-55 -73t-88 -48.5t-117 -17.5q-56 0 -97 13t-69 35.5t-41.5 53.5t-13.5 67q0 43 13 76.5t36.5 59t56 45.5t70.5 36q-45 24 -72 60.5t-27 90.5q0 52 20.5 91.5t55.5 66.5t82.5 40.5t100.5 13.5
q93 0 146 -39.5t53 -108.5q0 -36 -10.5 -64.5t-31 -53t-50.5 -46.5t-68 -44zM259 326q-65 -27 -103.5 -63t-38.5 -94q0 -41 29 -68.5t89 -27.5q37 0 64.5 11t45.5 29t27 41t9 47q0 27 -10.5 46.5t-27.5 34t-39 25t-45 19.5zM297 424q24 13 47.5 29t42 35.5t30 41.5t11.5 46
q0 38 -25.5 59.5t-75.5 21.5q-59 0 -93.5 -32.5t-34.5 -80.5q0 -44 27.5 -72t70.5 -48z" />
    <glyph glyph-name="nine" unicode="9" horiz-adv-x="569" 
d="M106 177q6 -48 30.5 -76t71.5 -28q44 0 77.5 21t57.5 57.5t39 85.5t22 105q-31 -26 -80.5 -45t-103.5 -19q-80 0 -124.5 50t-44.5 132q0 67 20.5 118.5t56 87t83.5 53.5t102 18q60 0 100 -20t64.5 -56t34.5 -84.5t10 -105.5q0 -102 -18 -190.5t-57 -153.5t-99 -102
t-144 -37q-81 0 -135.5 38.5t-64.5 124.5zM406 431q2 17 3 35.5t1 35.5q0 28 -4.5 55t-16 48t-31 33.5t-50.5 12.5q-29 0 -55 -11t-45 -33.5t-30 -55.5t-11 -76q0 -110 88 -110q19 0 40.5 5t41.5 14t38 21t31 26z" />
    <glyph glyph-name="colon" unicode=":" horiz-adv-x="267" 
d="M178 75q0 -42 -22 -64.5t-67 -22.5q-69 0 -69 61q0 42 22.5 64.5t67.5 22.5q68 0 68 -61zM237 440q0 -42 -22 -64.5t-67 -22.5q-69 0 -69 61q0 42 22.5 64.5t67.5 22.5q68 0 68 -61z" />
    <glyph glyph-name="semicolon" unicode=";" horiz-adv-x="276" 
d="M55 114h124l-125 -245l-91 11zM251 440q0 -42 -22 -64.5t-67 -22.5q-69 0 -69 61q0 42 22.5 64.5t67.5 22.5q68 0 68 -61z" />
    <glyph glyph-name="less" unicode="&#x3c;" horiz-adv-x="570" 
d="M63 234l15 110l404 149l-13 -100l-304 -105l275 -104l-14 -94z" />
    <glyph glyph-name="equal" unicode="=" horiz-adv-x="570" 
d="M65 147l14 97h379l-14 -97h-379zM89 319l14 97h379l-14 -97h-379z" />
    <glyph glyph-name="greater" unicode="&#x3e;" horiz-adv-x="569" 
d="M472 236l-403 -142l13 101l304 103l-275 104l14 91l362 -149z" />
    <glyph glyph-name="question" unicode="?" horiz-adv-x="528" 
d="M315 729q40 0 77 -9.5t65 -30.5t44.5 -54.5t16.5 -81.5q0 -57 -18 -100.5t-50.5 -74t-78.5 -50t-102 -29.5l-15 -109h-112l25 180q43 4 84.5 12t74 27t52.5 50.5t20 81.5q0 51 -27.5 74t-72.5 23q-47 0 -82 -23.5t-53 -87.5l-107 18q10 40 31 74t52.5 58.5t75 38
t100.5 13.5zM254 69q0 -39 -21.5 -60t-64.5 -21q-67 0 -67 57q0 82 87 82q66 0 66 -58z" />
    <glyph glyph-name="at" unicode="@" horiz-adv-x="847" 
d="M600 -115q-45 -32 -111.5 -49.5t-143.5 -17.5q-71 0 -130.5 21t-103 61t-68 99t-24.5 135q0 101 35 183t96.5 139.5t146 88.5t184.5 31q70 0 129 -19t101.5 -54.5t66 -86.5t23.5 -116q0 -77 -18.5 -134.5t-50 -95.5t-73.5 -57t-90 -19q-44 0 -69 16t-33 40
q-26 -27 -60 -42.5t-71 -15.5q-30 0 -52 11.5t-36 32t-20.5 47.5t-6.5 57q0 55 15 102.5t42.5 81.5t65.5 53.5t84 19.5q28 0 49.5 -10t35.5 -25l12 29h70l-45 -257q-2 -9 -3 -17.5t-1 -16.5q0 -17 8.5 -27.5t32.5 -10.5q28 0 51.5 17.5t40 48.5t25.5 72.5t9 88.5
q0 99 -64 155t-184 56q-89 0 -156 -29t-111 -78t-66 -114.5t-22 -137.5q0 -60 18 -106.5t51 -77.5t79 -47t102 -16q61 0 114.5 15.5t94.5 41.5zM497 302q-11 12 -26.5 20t-38.5 8q-26 0 -48.5 -11t-39.5 -33.5t-27 -56.5t-10 -79q0 -40 13 -64.5t46 -24.5q29 0 54 14.5
t45 40.5z" />
    <glyph glyph-name="A" unicode="A" horiz-adv-x="664" 
d="M457 724l147 -724h-123l-39 204h-254l-92 -204h-121l334 724h148zM370 621h-1l-146 -325h206z" />
    <glyph glyph-name="B" unicode="B" horiz-adv-x="619" 
d="M41 0l99 724h260q55 0 91.5 -12t59 -32.5t32 -48.5t9.5 -60q0 -44 -14 -77t-37 -56.5t-53 -38t-62 -21.5v-3q75 -9 110 -48t35 -102t-22 -106t-61.5 -69.5t-93.5 -38t-117 -11.5h-236zM270 87q39 0 72 5t57 20t37 42t13 71q0 33 -13 53t-35 30.5t-51 13.5t-61 3h-89
l-32 -238h102zM295 412q30 0 61.5 5.5t58 20.5t43 42t16.5 71q0 30 -10.5 47t-30 25.5t-48 10.5t-63.5 2h-80l-30 -224h83z" />
    <glyph glyph-name="C" unicode="C" horiz-adv-x="680" 
d="M629 207q-17 -62 -48.5 -103.5t-72.5 -67.5t-89 -37t-99 -11q-73 0 -125.5 21.5t-86.5 60.5t-50.5 93t-16.5 120q0 105 27.5 189t77.5 143t121.5 90.5t159.5 31.5q59 0 105.5 -17t78.5 -49.5t47.5 -80.5t12.5 -110l-107 -11q2 82 -30.5 128t-114.5 46q-57 0 -104.5 -22.5
t-81.5 -67t-52.5 -110.5t-18.5 -152q0 -111 44.5 -160.5t129.5 -49.5q39 0 69 9.5t53 28t39.5 45.5t29.5 62z" />
    <glyph glyph-name="D" unicode="D" horiz-adv-x="712" 
d="M41 0l99 724h230q81 0 139 -20.5t95.5 -58t55.5 -91.5t18 -120q0 -93 -25 -172.5t-77.5 -137.5t-132.5 -91t-189 -33h-213zM263 92q144 0 220 85.5t76 254.5q0 56 -14 94.5t-41 62t-66 34t-89 10.5h-106l-74 -541h94z" />
    <glyph glyph-name="E" unicode="E" horiz-adv-x="565" 
d="M41 0l99 724h428l-13 -94h-313l-29 -221h293l-13 -92h-294l-30 -223h327l-13 -94h-442z" />
    <glyph glyph-name="F" unicode="F" horiz-adv-x="537" 
d="M156 0h-115l99 724h426l-12 -94h-311l-32 -232h286l-12 -92h-287z" />
    <glyph glyph-name="G" unicode="G" horiz-adv-x="715" 
d="M608 0h-84l-1 93q-14 -24 -37 -43t-52.5 -33t-64 -21.5t-69.5 -7.5q-68 0 -117 22t-80.5 61t-46.5 93.5t-15 119.5q0 104 27.5 187.5t78 142.5t122.5 91t161 32q58 0 104.5 -14.5t78 -44.5t47.5 -76t13 -109l-109 -11q3 79 -30.5 120.5t-111.5 41.5q-63 0 -111 -25
t-81 -71.5t-50 -112t-17 -145.5q0 -58 12 -98t34 -65t54 -36.5t72 -11.5q42 0 76.5 13.5t59 36t39.5 51t19 58.5l8 56h-164l12 82h275z" />
    <glyph glyph-name="H" unicode="H" horiz-adv-x="712" 
d="M583 0h-115l43 321h-313l-43 -321h-115l100 724h115l-43 -307h313l43 307h115z" />
    <glyph glyph-name="I" unicode="I" horiz-adv-x="284" 
d="M41 0l99 724h115l-99 -724h-115z" />
    <glyph glyph-name="J" unicode="J" horiz-adv-x="514" 
d="M377 724h115l-73 -539q-7 -54 -26 -92t-47.5 -61t-66.5 -33.5t-84 -10.5q-88 0 -139.5 42.5t-52.5 137.5l110 18q2 -23 6.5 -42.5t13.5 -34t25 -22.5t41 -8q20 0 37.5 4.5t31 16.5t22.5 32.5t13 51.5z" />
    <glyph glyph-name="K" unicode="K" horiz-adv-x="640" 
d="M209 386l337 338h134l-312 -311l218 -413h-131l-178 332l-87 -85l-35 -247h-114l99 724h115z" />
    <glyph glyph-name="L" unicode="L" horiz-adv-x="545" 
d="M41 0l99 724h115l-86 -628h312l-13 -96h-427z" />
    <glyph glyph-name="M" unicode="M" horiz-adv-x="882" 
d="M755 0h-109l84 606h-3l-275 -606h-113l-106 607h-3l-83 -607h-106l99 724h173l101 -588h3l264 588h173z" />
    <glyph glyph-name="N" unicode="N" horiz-adv-x="726" 
d="M463 0l-237 576l-79 -576h-106l99 724h145l229 -573l79 573h105l-100 -724h-135z" />
    <glyph glyph-name="O" unicode="O" 
d="M328 -12q-76 0 -130.5 22.5t-89 63t-51 96t-16.5 120.5q0 94 25 175.5t73.5 142t121.5 95t169 34.5q75 0 128.5 -23t87.5 -63.5t49.5 -94.5t15.5 -117q0 -99 -25.5 -182t-74 -142.5t-120 -93t-163.5 -33.5zM340 83q59 0 105.5 26.5t78.5 73t49 110.5t17 139q0 46 -11 87
q-16 60 -56 91.5t-105 31.5q-61 0 -108.5 -25.5t-80.5 -71.5t-50.5 -109.5t-17.5 -139.5q0 -48 11 -87q16 -62 58 -94t110 -32z" />
    <glyph glyph-name="P" unicode="P" horiz-adv-x="603" 
d="M155 0h-114l99 724h236q60 0 101.5 -15t67.5 -40.5t37.5 -58.5t11.5 -70q0 -141 -79 -213t-231 -72h-94zM286 347q39 0 73.5 8t59.5 28t39.5 54t14.5 87q0 33 -11 54t-30.5 33t-47 16.5t-61.5 4.5h-81l-40 -285h84z" />
    <glyph glyph-name="Q" unicode="Q" 
d="M326 -12q-76 0 -130.5 22.5t-89 63t-50.5 96t-16 120.5q0 94 25 175.5t73.5 142t121.5 95t169 34.5q75 0 128.5 -23t87 -63.5t49 -94.5t15.5 -117q0 -149 -55.5 -258t-161.5 -159q31 -38 75.5 -64.5t107.5 -28.5l-24 -92q-41 -1 -80 12t-73 35t-61.5 50.5t-45.5 58.5
q-16 -2 -32 -3.5t-33 -1.5zM338 83q59 0 105.5 26.5t78.5 73t49 110.5t17 139q0 46 -11 87q-16 60 -56 91.5t-105 31.5q-60 0 -107.5 -25.5t-80.5 -71.5t-50.5 -109.5t-17.5 -139.5q0 -25 2.5 -46.5t7.5 -40.5q17 -62 58.5 -94t109.5 -32z" />
    <glyph glyph-name="R" unicode="R" horiz-adv-x="622" 
d="M565 0h-125l-111 295h-134l-40 -295h-114l99 724h247q61 0 102.5 -14.5t66.5 -39t35.5 -56.5t10.5 -66q0 -89 -41.5 -142t-119.5 -83zM303 384q37 0 69.5 7.5t56.5 25.5t38 47.5t14 73.5q0 54 -35 74.5t-98 20.5h-106l-34 -249h95z" />
    <glyph glyph-name="S" unicode="S" horiz-adv-x="577" 
d="M454 517q0 26 -4.5 50t-17 42t-36 28.5t-60.5 10.5q-75 0 -109.5 -33.5t-34.5 -83.5q0 -26 11 -43t29.5 -29.5t43 -21.5t50.5 -18q33 -11 69 -24t65 -34.5t48 -54t19 -83.5q0 -62 -23.5 -106t-62 -73t-88.5 -42.5t-102 -13.5q-55 0 -101 11.5t-79 37t-51.5 66.5t-19.5 99
l108 16q2 -27 9 -52.5t23 -45t43 -31t70 -11.5q29 0 57 6t49.5 20.5t35 39t13.5 61.5q0 26 -10.5 44t-28.5 31t-42 21.5t-51 16.5q-35 11 -71.5 23.5t-65.5 33.5t-47.5 54.5t-18.5 85.5t21 93t58 69.5t86 44t105 15.5q47 0 88 -10.5t71 -34.5t46.5 -64t14.5 -99z" />
    <glyph glyph-name="T" unicode="T" horiz-adv-x="558" 
d="M178 0l86 628h-212l13 96h537l-13 -96h-210l-86 -628h-115z" />
    <glyph glyph-name="U" unicode="U" horiz-adv-x="696" 
d="M607 249q-19 -137 -95.5 -199t-205.5 -62q-143 0 -199 68t-38 200l65 468h115l-63 -461q-13 -96 16.5 -138.5t111.5 -42.5q40 0 71 9.5t53 30.5t35.5 55t20.5 83l63 464h115z" />
    <glyph glyph-name="V" unicode="V" horiz-adv-x="623" 
d="M191 0l-134 724h124l103 -615h3l261 615h122l-322 -724h-157z" />
    <glyph glyph-name="W" unicode="W" horiz-adv-x="913" 
d="M549 0l-58 564h-2l-213 -564h-149l-54 724h120l30 -598h2l225 598h126l64 -604h2l188 604h115l-249 -724h-147z" />
    <glyph glyph-name="X" unicode="X" horiz-adv-x="620" 
d="M437 0l-140 277l-207 -277h-127l281 370l-169 354h128l126 -273l202 273h121l-270 -357l187 -367h-132z" />
    <glyph glyph-name="Y" unicode="Y" horiz-adv-x="564" 
d="M301 0h-116l39 278l-181 446h120l130 -341h2l215 341h121l-291 -445z" />
    <glyph glyph-name="Z" unicode="Z" horiz-adv-x="568" 
d="M-12 0l11 80l433 550h-348l13 94h485l-12 -82l-428 -548h369l-14 -94h-509z" />
    <glyph glyph-name="bracketleft" unicode="[" horiz-adv-x="290" 
d="M-3 -143l121 867h192l-11 -75h-81l-101 -717h81l-10 -75h-191z" />
    <glyph glyph-name="backslash" unicode="\" horiz-adv-x="405" 
d="M237 -92l-161 847h104l162 -847h-105z" />
    <glyph glyph-name="bracketright" unicode="]" horiz-adv-x="290" 
d="M274 724l-121 -867h-192l11 75h81l101 717h-81l10 75h191z" />
    <glyph glyph-name="asciicircum" unicode="^" horiz-adv-x="616" 
d="M452 299l-148 267l-145 -267h-109l197 365h117l200 -365h-112z" />
    <glyph glyph-name="underscore" unicode="_" horiz-adv-x="500" 
d="M-20 -181v83h500v-83h-500z" />
    <glyph glyph-name="grave" unicode="`" horiz-adv-x="499" 
d="M348 572l-113 174h129l65 -163z" />
    <glyph glyph-name="a" unicode="a" horiz-adv-x="598" 
d="M483 108q-3 -21 1 -31.5t23 -10.5q12 0 33 6l-8 -67q-12 -5 -33 -9t-39 -4q-40 0 -61.5 17t-23.5 56q-31 -35 -76 -56t-95 -21q-38 0 -69 11.5t-53.5 36t-35 62.5t-12.5 91q0 71 17 132.5t49.5 107.5t79.5 72t106 26q45 0 80.5 -16t59.5 -38l8 44h107zM409 393
q-17 17 -46 29.5t-61 12.5q-43 0 -71.5 -23.5t-46 -58.5t-24.5 -76t-7 -76q0 -66 23.5 -94.5t67.5 -28.5q30 0 60.5 13t69.5 49z" />
    <glyph glyph-name="b" unicode="b" horiz-adv-x="588" 
d="M27 0l106 755h113l-42 -301q38 31 81 52t96 21q34 0 63.5 -10.5t50.5 -34t33 -61t12 -91.5q0 -89 -20.5 -153.5t-54 -106.5t-78 -62t-92.5 -20t-86 17t-65 43q-1 0 -1 -0.5t-1 -0.5l-11 -47h-104zM160 126q14 -12 42.5 -28.5t70.5 -16.5q40 0 67.5 19.5t45 52t25.5 75.5
t8 90q0 58 -19.5 87.5t-63.5 29.5q-18 0 -38.5 -6.5t-39.5 -16t-36 -20.5t-28 -21z" />
    <glyph glyph-name="c" unicode="c" horiz-adv-x="539" 
d="M248 -12q-56 0 -96.5 16t-67 45.5t-39.5 69.5t-13 88q0 76 21 135.5t58.5 100.5t90 62.5t115.5 21.5q48 0 84.5 -15t60.5 -42.5t34.5 -65t6.5 -82.5l-103 -8q1 28 -2 51t-13.5 39.5t-29 25.5t-47.5 9q-28 0 -55.5 -11t-49.5 -37t-36 -69.5t-14 -109.5q0 -74 30 -105
t76 -31q48 0 80 27t46 77l97 -18q-11 -46 -33.5 -79t-53 -54t-68 -31t-79.5 -10z" />
    <glyph glyph-name="d" unicode="d" horiz-adv-x="582" 
d="M371 0l5 58h-1q-34 -29 -77 -49.5t-93 -20.5q-38 0 -69.5 11.5t-54 35.5t-34.5 61.5t-12 89.5q0 94 23 159t59 105.5t81.5 58.5t90.5 18q46 0 79.5 -15t57.5 -37l39 280h111l-106 -755h-99zM411 397q-15 13 -41 26.5t-61 13.5q-43 0 -72.5 -21t-48 -55.5t-26.5 -77.5
t-8 -87q0 -53 18 -82t60 -33q25 -3 52 5q26 7 49 19.5t42 29.5z" />
    <glyph glyph-name="e" unicode="e" horiz-adv-x="523" 
d="M241 -12q-58 0 -98 18t-64.5 48.5t-35 71.5t-10.5 87q0 67 20 124.5t57 99.5t89 66t116 24q45 0 77.5 -11t54 -29.5t31.5 -43.5t10 -53q0 -31 -9.5 -55t-26.5 -42.5t-40 -32t-49 -23.5q-28 -10 -57.5 -16t-58 -10t-53.5 -5.5t-43 -2.5q0 -24 4 -47t15.5 -41t33 -29
t56.5 -11q49 0 77.5 26t39.5 63l93 -22q-23 -76 -83.5 -115t-145.5 -39zM307 445q-33 0 -59 -12t-45 -34t-31 -51.5t-16 -63.5q9 0 25 1t36 3t42 6t43 10q37 11 57 29.5t20 50.5q0 30 -19.5 45.5t-52.5 15.5z" />
    <glyph glyph-name="f" unicode="f" horiz-adv-x="337" 
d="M404 665q-14 5 -33.5 9.5t-38.5 4.5q-34 0 -57 -17.5t-31 -71.5l-11 -73h141l-11 -82h-141l-91 -647h-115l91 647h-74l12 82h73l11 78q13 90 62 130t126 40q37 0 64 -6.5t39 -12.5z" />
    <glyph glyph-name="g" unicode="g" horiz-adv-x="573" 
d="M298 435q-42 0 -70 -21.5t-45.5 -54t-24.5 -71.5t-7 -74q0 -61 23 -88.5t65 -27.5q32 0 64.5 12t69.5 47l32 236q-17 18 -46 30t-61 12zM367 74q-30 -30 -75 -48.5t-94 -18.5q-37 0 -67.5 11t-52.5 35t-34.5 61t-12.5 89q0 54 13.5 111.5t43.5 104.5t78 77.5t117 30.5
q44 0 81 -16.5t60 -42.5l9 49h104l-75 -531q-15 -108 -81.5 -158.5t-172.5 -50.5q-94 0 -149.5 40.5t-63.5 126.5l107 17q2 -21 7.5 -38.5t18 -30.5t32.5 -20t50 -7q25 0 48.5 5.5t42.5 19t32.5 36.5t19.5 58z" />
    <glyph glyph-name="h" unicode="h" horiz-adv-x="582" 
d="M142 0h-115l106 755h114l-45 -306q15 13 34.5 26.5t42.5 25t50 19t56 7.5q161 0 137 -176l-49 -351h-115l47 335q8 54 -8.5 76t-54.5 22q-42 0 -79 -21.5t-69 -46.5z" />
    <glyph glyph-name="i" unicode="i" horiz-adv-x="256" 
d="M142 0h-115l73 517h115zM257 692q0 -41 -23 -64t-64 -23q-32 0 -48.5 16.5t-16.5 45.5q0 41 23 63.5t63 22.5q32 0 49 -16t17 -45z" />
    <glyph glyph-name="j" unicode="j" horiz-adv-x="255" 
d="M100 517h115l-82 -577q-12 -87 -58 -125t-121 -38q-31 0 -63.5 7.5t-45.5 16.5l22 81q14 -6 33.5 -10.5t40.5 -4.5q29 0 50 15.5t28 62.5zM256 692q0 -41 -22.5 -64t-63.5 -23q-32 0 -49 16.5t-17 45.5q0 41 23.5 63.5t62.5 22.5q66 0 66 -61z" />
    <glyph glyph-name="k" unicode="k" horiz-adv-x="537" 
d="M359 0l-112 257l-78 -69l-27 -188h-115l106 755h115l-63 -447l228 209h132l-202 -187l143 -330h-127z" />
    <glyph glyph-name="l" unicode="l" horiz-adv-x="256" 
d="M133 755h115l-106 -755h-115z" />
    <glyph glyph-name="m" unicode="m" horiz-adv-x="861" 
d="M376 527q99 0 119 -78q36 31 81 54.5t99 23.5q42 0 68.5 -12t41 -34.5t18 -55t-2.5 -72.5l-49 -353h-115l48 336q2 12 2.5 22t-0.5 19q0 28 -12.5 41.5t-42.5 13.5q-18 0 -36 -6t-35.5 -15.5t-32.5 -20.5t-26 -21l-52 -369h-115l48 336q2 12 3 22t-1 19q1 28 -11 41.5
t-41 13.5q-19 0 -39 -7t-39 -17.5t-34.5 -21.5t-25.5 -20l-52 -366h-115l73 517h106l-10 -72h1q35 31 79.5 56.5t99.5 25.5z" />
    <glyph glyph-name="n" unicode="n" horiz-adv-x="582" 
d="M142 0h-115l73 517h108l-10 -70h1q15 13 34.5 27.5t43.5 26t52 19t59 7.5q75 0 111 -43t23 -133l-49 -351h-115l47 335q8 52 -8 75t-53 23q-22 0 -43.5 -7t-41 -17t-36.5 -21.5t-29 -21.5z" />
    <glyph glyph-name="o" unicode="o" horiz-adv-x="581" 
d="M247 -12q-56 0 -97 15t-67 42.5t-38.5 66.5t-12.5 87q0 17 1 32.5t3 32.5q8 58 30 106.5t58 83.5t86 54t113 19q58 0 98 -16.5t64.5 -45t35.5 -67t11 -81.5q0 -17 -1 -31.5t-3 -33.5q-8 -60 -29 -109t-56 -83.5t-84 -53t-112 -18.5zM257 71q61 0 101.5 44.5t51.5 140.5
q2 17 3 31.5t1 28.5q0 64 -27 94t-78 30q-60 0 -103 -43t-54 -138q-3 -30 -3 -57q0 -131 108 -131z" />
    <glyph glyph-name="p" unicode="p" horiz-adv-x="588" 
d="M198 450l1 -1q37 33 83.5 55.5t98.5 22.5q35 0 64 -10.5t50 -34t33 -61t12 -91.5q0 -90 -21 -155t-56 -106.5t-81 -61t-95 -19.5q-48 0 -83.5 15.5t-58.5 37.5l-36 -253h-111l103 729h107zM419 318q0 63 -19 90t-61 27q-19 0 -39.5 -6t-40 -15.5t-36.5 -20.5t-29 -21
l-34 -246q6 -6 17 -14t25.5 -15t31 -12t34.5 -5q43 0 72.5 20.5t46.5 54t24.5 76t7.5 87.5z" />
    <glyph glyph-name="q" unicode="q" horiz-adv-x="580" 
d="M290 527q45 0 80 -15.5t59 -41.5l8 47h105l-102 -729h-109l38 265q-32 -26 -74.5 -45.5t-90.5 -19.5q-77 0 -123.5 47t-46.5 150q0 94 22.5 159.5t59 106t82.5 58.5t92 18zM153 203q0 -58 20 -90.5t69 -32.5q37 0 72.5 17t59.5 39l37 263q-14 14 -41 26t-61 12
q-42 0 -71.5 -19.5t-48.5 -52t-27.5 -74.5t-8.5 -88z" />
    <glyph glyph-name="r" unicode="r" horiz-adv-x="378" 
d="M142 0h-115l73 517h106l-12 -87h1q18 21 36.5 38.5t39 30.5t43.5 20t51 7h12t13 -1l-16 -111q-51 5 -95.5 -13t-87.5 -53z" />
    <glyph glyph-name="s" unicode="s" horiz-adv-x="492" 
d="M269 527q46 0 80 -11.5t57 -32t35.5 -49t15.5 -62.5l-96 -17q-4 39 -25 66t-71 27q-52 0 -72.5 -20.5t-20.5 -46.5q0 -18 8.5 -30t23.5 -20.5t34 -14t40 -11.5q27 -7 54.5 -16t49.5 -25t36 -41t14 -64q0 -42 -16.5 -73.5t-45.5 -53.5t-70 -33t-89 -11q-98 0 -145 41.5
t-54 112.5l94 21q3 -19 9 -36t19 -30.5t33 -21.5t51 -8q19 0 37.5 4t32.5 12.5t23 22.5t9 34q0 19 -8.5 31.5t-22.5 21.5t-32.5 14.5t-39.5 11.5q-27 7 -54.5 16t-50 24.5t-36.5 40.5t-14 65q0 42 17.5 73t46.5 50.5t66.5 29t76.5 9.5z" />
    <glyph glyph-name="t" unicode="t" horiz-adv-x="393" 
d="M344 22q-22 -13 -59 -23.5t-75 -10.5q-80 0 -115.5 39t-24.5 120l41 288h-79l11 82h79l22 149l117 17l-24 -166h140l-11 -82h-140l-39 -276q-5 -39 4.5 -61.5t50.5 -22.5q25 0 48 7.5t40 16.5z" />
    <glyph glyph-name="u" unicode="u" horiz-adv-x="579" 
d="M422 517h115l-72 -517h-102l8 66l-1 1q-15 -14 -35 -28t-44 -25t-51.5 -18t-55.5 -7q-78 0 -113 45t-23 133l48 350h115l-46 -336q-4 -24 -1 -42q1 -31 17 -44.5t48 -13.5q39 0 76.5 20t65.5 44z" />
    <glyph glyph-name="v" unicode="v" horiz-adv-x="515" 
d="M145 0l-112 517h123l72 -408h2l185 408h119l-256 -517h-133z" />
    <glyph glyph-name="w" unicode="w" horiz-adv-x="778" 
d="M112 0l-79 517h114l51 -402l160 402h118l49 -400l159 400h113l-224 -517h-132l-45 384l-147 -384h-137z" />
    <glyph glyph-name="x" unicode="x" horiz-adv-x="495" 
d="M319 0l-94 185l-138 -185h-117l204 267l-134 250h120l91 -178l135 178h117l-200 -256l137 -261h-121z" />
    <glyph glyph-name="y" unicode="y" horiz-adv-x="497" 
d="M33 517h122l65 -396h2l177 396h119l-271 -551q-26 -53 -48 -89t-46 -58t-52 -32t-66 -10q-29 0 -55.5 6t-41.5 14l20 81q16 -6 34 -10.5t37 -4.5q18 0 32 7t27.5 22t27 40t30.5 61z" />
    <glyph glyph-name="z" unicode="z" horiz-adv-x="459" 
d="M-13 0l11 76l310 357h-258l12 84h387l-12 -77l-305 -352h270l-13 -88h-402z" />
    <glyph glyph-name="braceleft" unicode="{" horiz-adv-x="318" 
d="M24 329q61 0 78 60q5 19 7.5 42.5t4 48.5t3 51t4.5 51q4 42 15.5 71.5t32.5 48t52.5 27t75.5 8.5h51l-11 -80h-32q-32 0 -45.5 -15t-17.5 -47q-3 -35 -5.5 -76.5t-7.5 -77.5q-5 -39 -13 -64.5t-20 -41.5t-27.5 -25.5t-35.5 -16.5v-2q28 -11 45.5 -30t17.5 -61
q0 -27 -6.5 -57t-14.5 -59t-14.5 -56.5t-6.5 -48.5q0 -22 12.5 -33.5t42.5 -11.5h24l-11 -79h-63q-62 0 -92 22.5t-35 64.5q-2 13 0 30q2 27 8.5 55.5t14 57t13 55.5t5.5 52q0 33 -14.5 47.5t-43.5 14.5h-20l11 75h18z" />
    <glyph glyph-name="bar" unicode="|" horiz-adv-x="280" 
d="M24 -143l126 898h104l-126 -898h-104z" />
    <glyph glyph-name="braceright" unicode="}" horiz-adv-x="318" 
d="M270 263q-62 0 -78 -60q-5 -20 -7.5 -43t-4 -48t-3 -51t-4.5 -51q-5 -42 -16 -71.5t-32 -48t-52.5 -27t-75.5 -8.5h-51l11 80h32q32 0 45.5 15t17.5 47q3 35 5.5 76.5t7.5 77.5q5 39 13 64.5t20 41.5t27.5 25t35.5 17v2q-28 11 -45.5 30t-17.5 61q0 27 6.5 57t14.5 59
t14.5 56.5t6.5 48.5q0 22 -12.5 33.5t-42.5 11.5h-24l11 79h63q62 0 92 -22.5t35 -64.5q1 -14 0 -30q-2 -27 -8.5 -55.5t-14 -57t-13 -55.5t-5.5 -52q0 -33 14.5 -47.5t43.5 -14.5h20l-11 -75h-18z" />
    <glyph glyph-name="asciitilde" unicode="~" horiz-adv-x="550" 
d="M170 430q24 0 58 -7t68.5 -15.5t64.5 -15.5t47 -7q18 0 26.5 9.5t8.5 39.5l67 -4q8 -62 -17.5 -96t-73.5 -34q-24 0 -58.5 7t-69.5 15.5t-66 15.5t-47 7q-17 0 -26 -10.5t-7 -41.5l-70 3q-8 64 19.5 99t75.5 35z" />
    <glyph glyph-name="uni00A0" unicode="&#xa0;" horiz-adv-x="198" 
 />
    <glyph glyph-name="exclamdown" unicode="&#xa1;" horiz-adv-x="276" 
d="M189 324l-56 -533h-127l92 533h91zM85 446q0 39 22 60t65 21q67 0 67 -57q0 -82 -87 -82q-67 0 -67 58z" />
    <glyph glyph-name="cent" unicode="&#xa2;" horiz-adv-x="524" 
d="M368 704l-15 -102q34 -6 60.5 -21.5t44.5 -39.5t26.5 -54.5t6.5 -65.5l-102 -7q1 38 -10 65t-39 38l-48 -321q62 15 84 91l94 -17q-18 -72 -69 -112t-120 -49l-15 -109h-88l16 112q-78 14 -115.5 66t-37.5 132q0 65 16.5 117.5t46.5 90t72 60.5t93 29l14 97h85zM157 313
q0 -48 14.5 -75.5t41.5 -38.5l47 318q-44 -14 -73.5 -63t-29.5 -141z" />
    <glyph glyph-name="sterling" unicode="&#xa3;" horiz-adv-x="574" 
d="M43 88q51 40 76 80t25 87q0 31 -11 64h-101l12 85h72q-8 19 -16.5 51t-8.5 69q0 47 18.5 86.5t52 67.5t80 43.5t103.5 15.5q103 0 155.5 -48t50.5 -150l-105 -8q0 27 -4.5 48.5t-16 37.5t-31.5 24.5t-52 8.5q-59 0 -97 -31t-38 -98q0 -32 9 -63t17 -54h214l-12 -85h-187
q4 -13 5.5 -27.5t1.5 -27.5q0 -96 -95 -176h148q30 0 51.5 6t36.5 19t25.5 33t18.5 49l97 -17q-20 -94 -76 -136t-154 -42h-331l12 88h55z" />
    <glyph glyph-name="currency" unicode="&#xa4;" horiz-adv-x="570" 
d="M447 2l-85 88q-26 -17 -57.5 -26t-70.5 -9q-40 0 -72 10t-55 27l-94 -90l-60 66l98 93q-13 23 -18.5 50.5t-5.5 56.5q0 67 36 126l-86 90l74 68l82 -87q27 19 60.5 29.5t73.5 10.5q78 0 129 -37l88 83l59 -66l-91 -87q22 -44 22 -100q0 -38 -10.5 -73t-29.5 -65l87 -91z
M246 143q31 0 54 11.5t39 31t24 46t8 56.5q0 60 -28.5 94t-87.5 34q-62 0 -93.5 -40.5t-31.5 -102.5q0 -27 6.5 -51t21 -41.5t36.5 -27.5t52 -10z" />
    <glyph glyph-name="yen" unicode="&#xa5;" horiz-adv-x="548" 
d="M305 178l-25 -178h-117l24 178h-125l10 83h127l11 79l-1 1h-126l13 83h80l-121 300h124l103 -289h2l169 289h122l-194 -300h92l-13 -83h-132l-12 -80h134l-11 -83h-134z" />
    <glyph glyph-name="brokenbar" unicode="&#xa6;" horiz-adv-x="280" 
d="M24 -143l55 388h104l-55 -388h-104zM102 414l48 341h104l-48 -341h-104z" />
    <glyph glyph-name="section" unicode="&#xa7;" horiz-adv-x="562" 
d="M341 628q-58 0 -89.5 -29t-31.5 -72q0 -34 21.5 -54t54 -33t70.5 -24t70.5 -28t54 -44.5t21.5 -72.5q0 -54 -31 -94t-87 -78q19 -17 33.5 -44t14.5 -62q0 -50 -17.5 -88.5t-48.5 -65t-73.5 -40t-91.5 -13.5q-95 0 -151 44.5t-57 137.5l104 12q0 -23 5.5 -43.5t17.5 -35.5
t32 -23.5t51 -8.5q51 0 82.5 27.5t31.5 71.5q0 35 -22 54.5t-54.5 32t-70.5 23.5t-70.5 28.5t-54.5 46t-22 76.5q0 51 29 88.5t89 77.5q-20 19 -33.5 47t-13.5 64q0 50 19.5 88t53 63.5t77.5 38.5t93 13q46 0 83 -11t62.5 -33.5t38.5 -57t10 -80.5l-105 -12q3 56 -18.5 84.5
t-76.5 28.5zM143 255q0 -27 17 -43t44 -27t59.5 -20t63.5 -22q33 20 54 44t21 57q0 25 -17.5 40.5t-45 26t-60.5 19.5t-64 22q-30 -19 -51 -43t-21 -54z" />
    <glyph glyph-name="dieresis" unicode="&#xa8;" horiz-adv-x="499" 
d="M181 669q0 35 23.5 56.5t60.5 21.5q30 0 47 -16t17 -43q0 -35 -23.5 -56.5t-59.5 -21.5q-30 0 -47.5 16t-17.5 43zM400 669q0 35 24 56.5t61 21.5q30 0 47 -16t17 -43q0 -35 -23.5 -56.5t-59.5 -21.5q-30 0 -48 16t-18 43z" />
    <glyph glyph-name="copyright" unicode="&#xa9;" horiz-adv-x="784" 
d="M737 331q0 -77 -25 -140.5t-70.5 -108.5t-108.5 -69.5t-139 -24.5q-85 0 -149 25t-107 69t-64.5 104t-21.5 130q0 80 27 143.5t73.5 107.5t109 67.5t134.5 23.5q79 0 142 -23.5t107.5 -66t68 -103t23.5 -134.5zM396 50q63 0 113.5 19t86 54.5t54 86.5t18.5 115
q0 66 -20.5 116.5t-56.5 85t-86 52t-109 17.5t-108.5 -18.5t-86.5 -54.5t-57.5 -88t-20.5 -118q0 -62 18.5 -111.5t54 -84t86 -53t114.5 -18.5zM555 259q-5 -39 -22 -64t-39.5 -39.5t-47.5 -20t-47 -5.5q-48 0 -82.5 14.5t-56 41t-31.5 62t-10 77.5t12 78t35 61.5t57 40
t78 14.5q29 0 55 -7t46.5 -23t33 -40.5t14.5 -59.5l-65 -8q-4 42 -24.5 61.5t-61.5 19.5q-22 0 -41.5 -7.5t-34 -24t-23 -43t-8.5 -64.5q0 -28 5.5 -52.5t18.5 -43t32.5 -29.5t48.5 -11q46 0 67 21.5t29 60.5z" />
    <glyph glyph-name="ordfeminine" unicode="&#xaa;" horiz-adv-x="420" 
d="M362 359q-2 -14 1 -20.5t15 -6.5q10 0 23 4l-6 -50q-9 -4 -26 -7t-31 -3q-57 0 -63 45q-20 -21 -49 -34t-63 -13q-52 0 -84.5 31t-32.5 100q0 51 13 91.5t35.5 69t54 44t68.5 15.5q31 0 54 -10.5t39 -24.5l5 29h86zM297 533q-11 9 -28 16t-35 7q-27 0 -44.5 -14t-28 -35
t-15 -46t-4.5 -46q0 -38 14.5 -55t42.5 -17q17 0 36 7.5t38 26.5z" />
    <glyph glyph-name="guillemotleft" unicode="&#xab;" horiz-adv-x="449" 
d="M106 103l-64 155l110 150h98l-107 -147l61 -158h-98zM276 103l-64 155l110 150h98l-107 -147l61 -158h-98z" />
    <glyph glyph-name="logicalnot" unicode="&#xac;" horiz-adv-x="570" 
d="M368 183l5 95h-288l8 95h381l-13 -190h-93z" />
    <glyph glyph-name="uni00AD" unicode="&#xad;" horiz-adv-x="311" 
d="M7 243l14 100h271l-14 -100h-271z" />
    <glyph glyph-name="registered" unicode="&#xae;" horiz-adv-x="456" 
d="M433 477q0 -42 -14 -76.5t-38.5 -59.5t-59.5 -38.5t-77 -13.5q-47 0 -82 14t-58.5 38t-35.5 57t-12 71q0 44 15 79.5t40.5 60t60 37.5t73.5 13q88 0 138 -49.5t50 -132.5zM388 474q0 70 -40.5 106.5t-102.5 36.5q-30 0 -56 -10t-45.5 -28.5t-30.5 -46t-11 -61.5
q0 -66 38.5 -103t104.5 -37t104.5 38.5t38.5 104.5zM336 383h-46l-44 73h-22v-73h-42v190h69q41 0 54.5 -16.5t13.5 -37.5t-9.5 -32.5t-24.5 -17.5zM238 488q17 0 27.5 5.5t10.5 22.5q0 16 -9.5 20.5t-23.5 4.5h-19v-53h14z" />
    <glyph glyph-name="macron" unicode="&#xaf;" horiz-adv-x="500" 
d="M221 699h299l-11 -82h-299z" />
    <glyph glyph-name="degree" unicode="&#xb0;" horiz-adv-x="312" 
d="M184 579q24 0 38.5 15.5t15.5 41.5q2 26 -12 40.5t-37 14.5t-39 -16t-16 -45q0 -23 13 -37t37 -14zM301 642q0 -55 -33.5 -88t-87.5 -33q-51 0 -80 28.5t-29 76.5q0 29 10 51.5t26.5 38.5t39 24t47.5 8q46 0 76.5 -27.5t30.5 -78.5z" />
    <glyph glyph-name="plusminus" unicode="&#xb1;" horiz-adv-x="569" 
d="M31 0l13 95h381l-13 -95h-381zM190 139l20 136h-141l14 95h141l20 146h99l-21 -146h142l-14 -95h-142l-20 -136h-98z" />
    <glyph glyph-name="twosuperior" unicode="&#xb2;" horiz-adv-x="369" 
d="M31 349l12 82l118 113q34 32 55.5 53.5t34 37.5t17 28.5t4.5 26.5q0 40 -45 40q-26 0 -42.5 -16t-27.5 -49l-88 15q6 33 23 57t40.5 39t52 22t58.5 7q66 0 99.5 -28.5t33.5 -76.5q0 -26 -6.5 -47t-22.5 -42.5t-41.5 -46t-62.5 -55.5l-79 -75v-1h180l-12 -84h-301z" />
    <glyph glyph-name="threesuperior" unicode="&#xb3;" horiz-adv-x="385" 
d="M252 805q62 0 97.5 -25t35.5 -73q0 -24 -9 -43t-23.5 -33.5t-33 -24.5t-38.5 -16v-3q37 -8 59.5 -31t22.5 -65q0 -69 -46.5 -109t-130.5 -40q-29 0 -55 6t-46 19.5t-32.5 35.5t-14.5 54l90 16q2 -24 14.5 -41t45.5 -17q29 0 50.5 18t21.5 56q0 30 -18 43t-48 13h-46
l10 69h31q45 0 69.5 21t24.5 56q0 17 -10.5 29t-35.5 12q-29 0 -44.5 -14t-24.5 -41l-88 16q20 63 65 87.5t107 24.5z" />
    <glyph glyph-name="acute" unicode="&#xb4;" horiz-adv-x="500" 
d="M385 746h133l-162 -174l-79 11z" />
    <glyph glyph-name="mu" unicode="&#xb5;" horiz-adv-x="628" 
d="M440 517h115l-72 -517h-99l5 64q-13 -10 -33 -22.5t-43.5 -23.5t-49 -18.5t-49.5 -7.5q-37 0 -62 21l-5 -3l-8 -186h-118l98 693h115l-47 -333q0 -2 -2 -16.5t-2 -29.5q0 -31 14.5 -44t43.5 -13q45 0 82.5 22.5t65.5 47.5z" />
    <glyph glyph-name="paragraph" unicode="&#xb6;" horiz-adv-x="584" 
d="M439 -133h-89l110 781h-76l-109 -781h-89l53 380q-91 7 -137 57.5t-46 135.5q0 78 25.5 132t69 87.5t101 49t121.5 15.5h185z" />
    <glyph glyph-name="periodcentered" unicode="&#xb7;" horiz-adv-x="211" 
d="M180 318q0 -39 -21.5 -60t-63.5 -21q-65 0 -65 57q0 39 21.5 60t63.5 21q65 0 65 -57z" />
    <glyph glyph-name="cedilla" unicode="&#xb8;" horiz-adv-x="499" 
d="M126 -160q8 -4 22.5 -9t31.5 -5q26 0 40 13t14 33q0 23 -16 31.5t-48 9.5l33 117l61 -8l-19 -67q27 -5 49 -23t22 -55q0 -56 -37.5 -84.5t-91.5 -28.5q-27 0 -48 6t-32 12z" />
    <glyph glyph-name="onesuperior" unicode="&#xb9;" horiz-adv-x="318" 
d="M134 348l50 332q-9 -4 -23 -7.5t-29 -5.5t-29 -3.5t-22 -1.5v80q44 4 83.5 17t66.5 37h70l-65 -448h-102z" />
    <glyph glyph-name="ordmasculine" unicode="&#xba;" horiz-adv-x="404" 
d="M195 274q-78 0 -114 38.5t-36 107.5q0 42 13.5 79.5t39 65.5t63 44t85.5 16q40 0 68 -11t45 -30t25 -46t8 -58q0 -41 -12 -78t-36.5 -65.5t-61.5 -45.5t-87 -17zM203 339q35 0 60 24.5t32 84.5q3 22 3 39q0 39 -16.5 56.5t-46.5 17.5q-35 0 -61 -25t-34 -85
q-1 -10 -1.5 -19.5t-0.5 -17.5q0 -40 16.5 -57.5t48.5 -17.5z" />
    <glyph glyph-name="guillemotright" unicode="&#xbb;" horiz-adv-x="448" 
d="M12 103l109 154l-65 151h97l66 -154l-108 -151h-99zM182 103l109 154l-65 151h97l66 -154l-108 -151h-99z" />
    <glyph glyph-name="onequarter" unicode="&#xbc;" horiz-adv-x="945" 
d="M121 280l50 332q-9 -4 -23 -7.5t-29 -5.5t-29 -3.5t-22 -1.5v80q44 4 83.5 17t66.5 37h70l-65 -448h-102zM155 -12l460 736h105l-458 -736h-107zM692 0l16 99h-209l9 68l223 281h126l-40 -271h52l-11 -78h-52l-15 -99h-99zM719 177l29 188l-151 -188h122z" />
    <glyph glyph-name="onehalf" unicode="&#xbd;" horiz-adv-x="945" 
d="M129 280l50 332q-9 -4 -23 -7.5t-29 -5.5t-29 -3.5t-22 -1.5v80q44 4 83.5 17t66.5 37h70l-65 -448h-102zM145 -12l460 736h105l-458 -736h-107zM519 0l12 82l118 113q34 32 55.5 53.5t34 37.5t17 28.5t4.5 26.5q0 40 -45 40q-26 0 -42.5 -16t-27.5 -49l-88 15
q6 33 23 57t40.5 39t52 22t58.5 7q66 0 99.5 -28.5t33.5 -76.5q0 -26 -6.5 -47t-22.5 -42.5t-41.5 -46t-62.5 -55.5l-79 -75v-1h180l-12 -84h-301z" />
    <glyph glyph-name="threequarters" unicode="&#xbe;" horiz-adv-x="945" 
d="M209 -12l460 736h105l-458 -736h-107zM725 0l16 99h-209l9 68l223 281h126l-40 -271h52l-11 -78h-52l-15 -99h-99zM752 177l29 188l-151 -188h122zM251 737q62 0 97.5 -25t35.5 -73q0 -24 -9 -43t-23.5 -33.5t-33 -24.5t-38.5 -16v-3q37 -8 59.5 -31t22.5 -65
q0 -69 -46.5 -109t-130.5 -40q-29 0 -55 6t-46 19.5t-32.5 35.5t-14.5 54l90 16q2 -24 14.5 -41t45.5 -17q29 0 50.5 18t21.5 56q0 30 -18 43t-48 13h-46l10 69h31q45 0 69.5 21t24.5 56q0 17 -10.5 29t-35.5 12q-29 0 -44.5 -14t-24.5 -41l-88 16q20 63 65 87.5t107 24.5z
" />
    <glyph glyph-name="questiondown" unicode="&#xbf;" horiz-adv-x="507" 
d="M193 -214q-40 0 -77 9.5t-65 30.5t-44.5 54.5t-16.5 81.5q0 57 18 100t50.5 74t78.5 50.5t102 29.5l15 109h112l-25 -180q-43 -4 -84.5 -12t-74 -27t-52.5 -50.5t-20 -81.5q0 -51 27.5 -74t72.5 -23q47 0 82 23.5t53 87.5l107 -18q-11 -41 -31.5 -74.5t-52 -58t-75 -38
t-100.5 -13.5zM254 446q0 39 21.5 60t64.5 21q67 0 67 -57q0 -82 -87 -82q-66 0 -66 58z" />
    <glyph glyph-name="Agrave" unicode="&#xc0;" horiz-adv-x="664" 
d="M457 724l147 -724h-123l-39 204h-254l-92 -204h-121l334 724h148zM370 621h-1l-146 -325h206zM394 914l76 -136l-83 -11l-122 147h129z" />
    <glyph glyph-name="Aacute" unicode="&#xc1;" horiz-adv-x="664" 
d="M457 724l147 -724h-123l-39 204h-254l-92 -204h-121l334 724h148zM370 621h-1l-146 -325h206zM416 914h134l-163 -147l-82 11z" />
    <glyph glyph-name="Acircumflex" unicode="&#xc2;" horiz-adv-x="664" 
d="M457 724l147 -724h-123l-39 204h-254l-92 -204h-121l334 724h148zM370 621h-1l-146 -325h206zM469 769l-69 76l-91 -78l-83 9l131 133h103l91 -133z" />
    <glyph glyph-name="Atilde" unicode="&#xc3;" horiz-adv-x="664" 
d="M457 724l147 -724h-123l-39 204h-254l-92 -204h-121l334 724h148zM370 621h-1l-146 -325h206zM336 911q24 0 42 -7t33.5 -15.5t30 -15.5t31.5 -7q18 0 27.5 11t14.5 38l63 -3q-2 -63 -31.5 -95t-73.5 -32q-24 0 -43 7t-35 16t-31 16t-32 7t-27 -11.5t-12 -40.5l-66 3
q3 63 34.5 96t74.5 33z" />
    <glyph glyph-name="Adieresis" unicode="&#xc4;" horiz-adv-x="664" 
d="M457 724l147 -724h-123l-39 204h-254l-92 -204h-121l334 724h148zM370 621h-1l-146 -325h206zM214 837q0 35 23.5 56.5t60.5 21.5q30 0 47 -16t17 -43q0 -36 -23.5 -57t-59.5 -21q-30 0 -47.5 15.5t-17.5 43.5zM433 837q0 35 24 56.5t61 21.5q30 0 47 -16t17 -43
q0 -36 -23.5 -57t-59.5 -21q-30 0 -48 15.5t-18 43.5z" />
    <glyph glyph-name="Aring" unicode="&#xc5;" horiz-adv-x="664" 
d="M504 819q0 -33 -12.5 -57.5t-34.5 -40.5l147 -721h-123l-39 204h-254l-92 -204h-121l331 719q-29 24 -29 67q0 30 11 52.5t29 38t41 23.5t48 8q42 0 70 -22t28 -67zM370 621h-1l-146 -325h206zM383 754q26 0 41.5 15t15.5 43q0 39 -43 39q-24 0 -40 -14.5t-16 -43.5
q0 -39 42 -39z" />
    <glyph glyph-name="AE" unicode="&#xc6;" horiz-adv-x="980" 
d="M454 0l42 307h-199l-201 -307h-122l479 724h530l-13 -94h-312l-32 -228h292l-13 -93h-292l-30 -215h326l-13 -94h-442zM542 630h-41l-154 -231h162z" />
    <glyph glyph-name="Ccedilla" unicode="&#xc7;" horiz-adv-x="680" 
d="M220 -160q8 -4 22.5 -9t31.5 -5q26 0 40 13t14 33q0 23 -16 31.5t-48 9.5l21 77q-63 5 -109 28t-76 61.5t-44.5 90t-14.5 113.5q0 105 27.5 189t77.5 143t121.5 90.5t159.5 31.5q59 0 105.5 -17t78.5 -49.5t47.5 -80.5t12.5 -110l-107 -11q2 82 -30.5 128t-114.5 46
q-57 0 -104.5 -22.5t-81.5 -67t-52.5 -110.5t-18.5 -152q0 -111 44.5 -160.5t129.5 -49.5q39 0 69 9.5t53 28t39.5 45.5t29.5 62l102 -19q-16 -57 -44 -97t-65 -66t-81 -39t-90 -16l-9 -34q26 -5 48 -23t22 -55q0 -56 -37 -84.5t-92 -28.5q-27 0 -47.5 6t-32.5 12z" />
    <glyph glyph-name="Egrave" unicode="&#xc8;" horiz-adv-x="565" 
d="M41 0l99 724h428l-13 -94h-313l-29 -221h293l-13 -92h-294l-30 -223h327l-13 -94h-442zM365 914l76 -136l-83 -11l-122 147h129z" />
    <glyph glyph-name="Eacute" unicode="&#xc9;" horiz-adv-x="565" 
d="M41 0l99 724h428l-13 -94h-313l-29 -221h293l-13 -92h-294l-30 -223h327l-13 -94h-442zM387 914h134l-163 -147l-82 11z" />
    <glyph glyph-name="Ecircumflex" unicode="&#xca;" horiz-adv-x="565" 
d="M41 0l99 724h428l-13 -94h-313l-29 -221h293l-13 -92h-294l-30 -223h327l-13 -94h-442zM440 769l-69 76l-91 -78l-83 9l131 133h103l91 -133z" />
    <glyph glyph-name="Edieresis" unicode="&#xcb;" horiz-adv-x="565" 
d="M41 0l99 724h428l-13 -94h-313l-29 -221h293l-13 -92h-294l-30 -223h327l-13 -94h-442zM185 837q0 35 23.5 56.5t60.5 21.5q30 0 47 -16t17 -43q0 -36 -23.5 -57t-59.5 -21q-30 0 -47.5 15.5t-17.5 43.5zM404 837q0 35 24 56.5t61 21.5q30 0 47 -16t17 -43
q0 -36 -23.5 -57t-59.5 -21q-30 0 -48 15.5t-18 43.5z" />
    <glyph glyph-name="Igrave" unicode="&#xcc;" horiz-adv-x="284" 
d="M41 0l99 724h115l-99 -724h-115zM207 914l76 -136l-83 -11l-122 147h129z" />
    <glyph glyph-name="Iacute" unicode="&#xcd;" horiz-adv-x="284" 
d="M41 0l99 724h115l-99 -724h-115zM229 914h134l-163 -147l-82 11z" />
    <glyph glyph-name="Icircumflex" unicode="&#xce;" horiz-adv-x="284" 
d="M41 0l99 724h115l-99 -724h-115zM282 769l-69 76l-91 -78l-83 9l131 133h103l91 -133z" />
    <glyph glyph-name="Idieresis" unicode="&#xcf;" horiz-adv-x="284" 
d="M41 0l99 724h115l-99 -724h-115zM27 837q0 35 23.5 56.5t60.5 21.5q30 0 47 -16t17 -43q0 -36 -23.5 -57t-59.5 -21q-30 0 -47.5 15.5t-17.5 43.5zM246 837q0 35 24 56.5t61 21.5q30 0 47 -16t17 -43q0 -36 -23.5 -57t-59.5 -21q-30 0 -48 15.5t-18 43.5z" />
    <glyph glyph-name="Eth" unicode="&#xd0;" horiz-adv-x="721" 
d="M50 0l44 326h-74l12 90h75l42 308h230q81 0 139 -20.5t95.5 -58t55.5 -91.5t18 -120q0 -93 -25 -172.5t-77.5 -137.5t-132.5 -91t-189 -33h-213zM272 92q144 0 220 85.5t76 254.5q0 56 -14 94.5t-41 62t-66 34t-89 10.5h-106l-30 -217h195l-12 -90h-195l-32 -234h94z" />
    <glyph glyph-name="Ntilde" unicode="&#xd1;" horiz-adv-x="726" 
d="M463 0l-237 576l-79 -576h-106l99 724h145l229 -573l79 573h105l-100 -724h-135zM376 911q24 0 42 -7t33.5 -15.5t30 -15.5t31.5 -7q18 0 27.5 11t14.5 38l63 -3q-2 -63 -31.5 -95t-73.5 -32q-24 0 -43 7t-35 16t-31 16t-32 7t-27 -11.5t-12 -40.5l-66 3q3 63 34.5 96
t74.5 33z" />
    <glyph glyph-name="Ograve" unicode="&#xd2;" 
d="M328 -12q-76 0 -130.5 22.5t-89 63t-51 96t-16.5 120.5q0 94 25 175.5t73.5 142t121.5 95t169 34.5q75 0 128.5 -23t87.5 -63.5t49.5 -94.5t15.5 -117q0 -99 -25.5 -182t-74 -142.5t-120 -93t-163.5 -33.5zM340 83q59 0 105.5 26.5t78.5 73t49 110.5t17 139q0 46 -11 87
q-16 60 -56 91.5t-105 31.5q-61 0 -108.5 -25.5t-80.5 -71.5t-50.5 -109.5t-17.5 -139.5q0 -48 11 -87q16 -62 58 -94t110 -32zM440 914l76 -136l-83 -11l-122 147h129z" />
    <glyph glyph-name="Oacute" unicode="&#xd3;" 
d="M328 -12q-76 0 -130.5 22.5t-89 63t-51 96t-16.5 120.5q0 94 25 175.5t73.5 142t121.5 95t169 34.5q75 0 128.5 -23t87.5 -63.5t49.5 -94.5t15.5 -117q0 -99 -25.5 -182t-74 -142.5t-120 -93t-163.5 -33.5zM340 83q59 0 105.5 26.5t78.5 73t49 110.5t17 139q0 46 -11 87
q-16 60 -56 91.5t-105 31.5q-61 0 -108.5 -25.5t-80.5 -71.5t-50.5 -109.5t-17.5 -139.5q0 -48 11 -87q16 -62 58 -94t110 -32zM462 914h134l-163 -147l-82 11z" />
    <glyph glyph-name="Ocircumflex" unicode="&#xd4;" 
d="M328 -12q-76 0 -130.5 22.5t-89 63t-51 96t-16.5 120.5q0 94 25 175.5t73.5 142t121.5 95t169 34.5q75 0 128.5 -23t87.5 -63.5t49.5 -94.5t15.5 -117q0 -99 -25.5 -182t-74 -142.5t-120 -93t-163.5 -33.5zM340 83q59 0 105.5 26.5t78.5 73t49 110.5t17 139q0 46 -11 87
q-16 60 -56 91.5t-105 31.5q-61 0 -108.5 -25.5t-80.5 -71.5t-50.5 -109.5t-17.5 -139.5q0 -48 11 -87q16 -62 58 -94t110 -32zM515 769l-69 76l-91 -78l-83 9l131 133h103l91 -133z" />
    <glyph glyph-name="Otilde" unicode="&#xd5;" 
d="M328 -12q-76 0 -130.5 22.5t-89 63t-51 96t-16.5 120.5q0 94 25 175.5t73.5 142t121.5 95t169 34.5q75 0 128.5 -23t87.5 -63.5t49.5 -94.5t15.5 -117q0 -99 -25.5 -182t-74 -142.5t-120 -93t-163.5 -33.5zM340 83q59 0 105.5 26.5t78.5 73t49 110.5t17 139q0 46 -11 87
q-16 60 -56 91.5t-105 31.5q-61 0 -108.5 -25.5t-80.5 -71.5t-50.5 -109.5t-17.5 -139.5q0 -48 11 -87q16 -62 58 -94t110 -32zM382 911q24 0 42 -7t33.5 -15.5t30 -15.5t31.5 -7q18 0 27.5 11t14.5 38l63 -3q-2 -63 -31.5 -95t-73.5 -32q-24 0 -43 7t-35 16t-31 16t-32 7
t-27 -11.5t-12 -40.5l-66 3q3 63 34.5 96t74.5 33z" />
    <glyph glyph-name="Odieresis" unicode="&#xd6;" 
d="M328 -12q-76 0 -130.5 22.5t-89 63t-51 96t-16.5 120.5q0 94 25 175.5t73.5 142t121.5 95t169 34.5q75 0 128.5 -23t87.5 -63.5t49.5 -94.5t15.5 -117q0 -99 -25.5 -182t-74 -142.5t-120 -93t-163.5 -33.5zM340 83q59 0 105.5 26.5t78.5 73t49 110.5t17 139q0 46 -11 87
q-16 60 -56 91.5t-105 31.5q-61 0 -108.5 -25.5t-80.5 -71.5t-50.5 -109.5t-17.5 -139.5q0 -48 11 -87q16 -62 58 -94t110 -32zM260 837q0 35 23.5 56.5t60.5 21.5q30 0 47 -16t17 -43q0 -36 -23.5 -57t-59.5 -21q-30 0 -47.5 15.5t-17.5 43.5zM479 837q0 35 24 56.5
t61 21.5q30 0 47 -16t17 -43q0 -36 -23.5 -57t-59.5 -21q-30 0 -48 15.5t-18 43.5z" />
    <glyph glyph-name="multiply" unicode="&#xd7;" horiz-adv-x="570" 
d="M263 252l-117 -103l-59 68l117 104l-88 104l79 69l87 -104l118 104l59 -69l-118 -104l89 -104l-79 -68z" />
    <glyph glyph-name="Oslash" unicode="&#xd8;" 
d="M328 -12q-17 0 -31.5 1.5t-28.5 3.5l-30 -71h-104l42 98q-71 37 -103 107.5t-32 162.5q0 94 25 175.5t73.5 142t121.5 95t169 34.5q27 0 51 -3l24 55h104l-35 -82q72 -36 104.5 -107t32.5 -161q0 -99 -25.5 -182t-74 -142.5t-120 -93t-163.5 -33.5zM340 83
q59 0 105.5 26.5t78.5 73t49 110.5t17 139q0 46 -11 87q-16 56 -49 85l-223 -519q8 -2 16 -2h17zM172 209q14 -55 48 -86l221 518q-5 1 -11 1h-12q-61 0 -108.5 -25.5t-80.5 -71.5t-50.5 -109.5t-17.5 -139.5q0 -48 11 -87z" />
    <glyph glyph-name="Ugrave" unicode="&#xd9;" horiz-adv-x="696" 
d="M607 249q-19 -137 -95.5 -199t-205.5 -62q-143 0 -199 68t-38 200l65 468h115l-63 -461q-13 -96 16.5 -138.5t111.5 -42.5q40 0 71 9.5t53 30.5t35.5 55t20.5 83l63 464h115zM413 914l76 -136l-83 -11l-122 147h129z" />
    <glyph glyph-name="Uacute" unicode="&#xda;" horiz-adv-x="696" 
d="M607 249q-19 -137 -95.5 -199t-205.5 -62q-143 0 -199 68t-38 200l65 468h115l-63 -461q-13 -96 16.5 -138.5t111.5 -42.5q40 0 71 9.5t53 30.5t35.5 55t20.5 83l63 464h115zM435 914h134l-163 -147l-82 11z" />
    <glyph glyph-name="Ucircumflex" unicode="&#xdb;" horiz-adv-x="696" 
d="M607 249q-19 -137 -95.5 -199t-205.5 -62q-143 0 -199 68t-38 200l65 468h115l-63 -461q-13 -96 16.5 -138.5t111.5 -42.5q40 0 71 9.5t53 30.5t35.5 55t20.5 83l63 464h115zM488 769l-69 76l-91 -78l-83 9l131 133h103l91 -133z" />
    <glyph glyph-name="Udieresis" unicode="&#xdc;" horiz-adv-x="696" 
d="M607 249q-19 -137 -95.5 -199t-205.5 -62q-143 0 -199 68t-38 200l65 468h115l-63 -461q-13 -96 16.5 -138.5t111.5 -42.5q40 0 71 9.5t53 30.5t35.5 55t20.5 83l63 464h115zM233 837q0 35 23.5 56.5t60.5 21.5q30 0 47 -16t17 -43q0 -36 -23.5 -57t-59.5 -21
q-30 0 -47.5 15.5t-17.5 43.5zM452 837q0 35 24 56.5t61 21.5q30 0 47 -16t17 -43q0 -36 -23.5 -57t-59.5 -21q-30 0 -48 15.5t-18 43.5z" />
    <glyph glyph-name="Yacute" unicode="&#xdd;" horiz-adv-x="564" 
d="M301 0h-116l39 278l-181 446h120l130 -341h2l215 341h121l-291 -445zM371 914h134l-163 -147l-82 11z" />
    <glyph glyph-name="Thorn" unicode="&#xde;" horiz-adv-x="649" 
d="M209 0h-116l102 724h115l-16 -119h112q65 0 110 -15t73 -41.5t40.5 -62t12.5 -76.5q0 -132 -78 -197.5t-228 -65.5h-106zM328 239q40 0 75 6.5t61 24t40.5 49.5t14.5 83q0 62 -39 86.5t-106 24.5h-92l-39 -274h85z" />
    <glyph glyph-name="germandbls" unicode="&#xdf;" horiz-adv-x="671" 
d="M2 -212l102 740q9 66 33 112t60 74t83.5 40.5t103.5 12.5q103 0 157.5 -45t54.5 -120q0 -42 -12.5 -74t-32.5 -54.5t-44.5 -38t-49.5 -24.5v-3q27 -5 54 -16t48 -32t34 -53t13 -79q0 -114 -57.5 -176.5t-164.5 -62.5q-81 0 -127.5 38t-55.5 113l97 23q2 -16 7.5 -31.5
t16 -27.5t27 -19.5t39.5 -7.5q52 0 77 36t25 105q0 40 -12 67t-32 42.5t-47 22t-58 6.5h-38l12 83h16q39 0 67 12.5t46 33t26 47t8 54.5q0 49 -27.5 71.5t-76.5 22.5q-30 0 -55.5 -6.5t-45.5 -23t-33.5 -46t-19.5 -74.5l-104 -742h-114z" />
    <glyph glyph-name="agrave" unicode="&#xe0;" horiz-adv-x="598" 
d="M483 108q-3 -21 1 -31.5t23 -10.5q12 0 33 6l-8 -67q-12 -5 -33 -9t-39 -4q-40 0 -61.5 17t-23.5 56q-31 -35 -76 -56t-95 -21q-38 0 -69 11.5t-53.5 36t-35 62.5t-12.5 91q0 71 17 132.5t49.5 107.5t79.5 72t106 26q45 0 80.5 -16t59.5 -38l8 44h107zM409 393
q-17 17 -46 29.5t-61 12.5q-43 0 -71.5 -23.5t-46 -58.5t-24.5 -76t-7 -76q0 -66 23.5 -94.5t67.5 -28.5q30 0 60.5 13t69.5 49zM328 572l-113 174h129l65 -163z" />
    <glyph glyph-name="aacute" unicode="&#xe1;" horiz-adv-x="598" 
d="M483 108q-3 -21 1 -31.5t23 -10.5q12 0 33 6l-8 -67q-12 -5 -33 -9t-39 -4q-40 0 -61.5 17t-23.5 56q-31 -35 -76 -56t-95 -21q-38 0 -69 11.5t-53.5 36t-35 62.5t-12.5 91q0 71 17 132.5t49.5 107.5t79.5 72t106 26q45 0 80.5 -16t59.5 -38l8 44h107zM409 393
q-17 17 -46 29.5t-61 12.5q-43 0 -71.5 -23.5t-46 -58.5t-24.5 -76t-7 -76q0 -66 23.5 -94.5t67.5 -28.5q30 0 60.5 13t69.5 49zM365 746h133l-162 -174l-79 11z" />
    <glyph glyph-name="acircumflex" unicode="&#xe2;" horiz-adv-x="598" 
d="M483 108q-3 -21 1 -31.5t23 -10.5q12 0 33 6l-8 -67q-12 -5 -33 -9t-39 -4q-40 0 -61.5 17t-23.5 56q-31 -35 -76 -56t-95 -21q-38 0 -69 11.5t-53.5 36t-35 62.5t-12.5 91q0 71 17 132.5t49.5 107.5t79.5 72t106 26q45 0 80.5 -16t59.5 -38l8 44h107zM409 393
q-17 17 -46 29.5t-61 12.5q-43 0 -71.5 -23.5t-46 -58.5t-24.5 -76t-7 -76q0 -66 23.5 -94.5t67.5 -28.5q30 0 60.5 13t69.5 49zM415 577l-68 107l-95 -109l-86 7l134 165h111l85 -165z" />
    <glyph glyph-name="atilde" unicode="&#xe3;" horiz-adv-x="598" 
d="M483 108q-3 -21 1 -31.5t23 -10.5q12 0 33 6l-8 -67q-12 -5 -33 -9t-39 -4q-40 0 -61.5 17t-23.5 56q-31 -35 -76 -56t-95 -21q-38 0 -69 11.5t-53.5 36t-35 62.5t-12.5 91q0 71 17 132.5t49.5 107.5t79.5 72t106 26q45 0 80.5 -16t59.5 -38l8 44h107zM409 393
q-17 17 -46 29.5t-61 12.5q-43 0 -71.5 -23.5t-46 -58.5t-24.5 -76t-7 -76q0 -66 23.5 -94.5t67.5 -28.5q30 0 60.5 13t69.5 49zM274 721q24 0 42 -7t33.5 -15.5t30 -15.5t31.5 -7q19 0 28 11.5t14 37.5l63 -3q-5 -62 -32 -94.5t-73 -32.5q-24 0 -43 7t-35 16t-31 16t-32 7
t-27 -11.5t-13 -40.5l-66 3q5 64 35.5 96.5t74.5 32.5z" />
    <glyph glyph-name="adieresis" unicode="&#xe4;" horiz-adv-x="598" 
d="M483 108q-3 -21 1 -31.5t23 -10.5q12 0 33 6l-8 -67q-12 -5 -33 -9t-39 -4q-40 0 -61.5 17t-23.5 56q-31 -35 -76 -56t-95 -21q-38 0 -69 11.5t-53.5 36t-35 62.5t-12.5 91q0 71 17 132.5t49.5 107.5t79.5 72t106 26q45 0 80.5 -16t59.5 -38l8 44h107zM409 393
q-17 17 -46 29.5t-61 12.5q-43 0 -71.5 -23.5t-46 -58.5t-24.5 -76t-7 -76q0 -66 23.5 -94.5t67.5 -28.5q30 0 60.5 13t69.5 49zM161 669q0 35 23.5 56.5t60.5 21.5q30 0 47 -16t17 -43q0 -35 -23.5 -56.5t-59.5 -21.5q-30 0 -47.5 16t-17.5 43zM380 669q0 35 24 56.5
t61 21.5q30 0 47 -16t17 -43q0 -35 -23.5 -56.5t-59.5 -21.5q-30 0 -48 16t-18 43z" />
    <glyph glyph-name="aring" unicode="&#xe5;" horiz-adv-x="598" 
d="M483 108q-3 -21 1 -31.5t23 -10.5q12 0 33 6l-8 -67q-12 -5 -33 -9t-39 -4q-40 0 -61.5 17t-23.5 56q-31 -35 -76 -56t-95 -21q-38 0 -69 11.5t-53.5 36t-35 62.5t-12.5 91q0 71 17 132.5t49.5 107.5t79.5 72t106 26q45 0 80.5 -16t59.5 -38l8 44h107zM409 393
q-17 17 -46 29.5t-61 12.5q-43 0 -71.5 -23.5t-46 -58.5t-24.5 -76t-7 -76q0 -66 23.5 -94.5t67.5 -28.5q30 0 60.5 13t69.5 49zM455 689q0 -55 -35 -86t-90 -31q-44 0 -70 22t-26 63q0 29 10.5 51t28 37t40 22.5t46.5 7.5q41 0 68.5 -21t27.5 -65zM337 626q26 0 40.5 15
t14.5 41q0 38 -41 38q-23 0 -39 -14t-16 -42q0 -38 41 -38z" />
    <glyph glyph-name="ae" unicode="&#xe6;" horiz-adv-x="855" 
d="M574 -12q-65 0 -106.5 21.5t-65.5 58.5q-50 -44 -100 -62t-97 -18q-37 0 -68.5 11.5t-54 36t-35.5 62.5t-13 91q0 71 17 132.5t49.5 107.5t79.5 72t106 26q45 0 80.5 -16t59.5 -38l8 44h87l-6 -34q24 19 63.5 31.5t81.5 12.5q39 0 69 -11t50.5 -29.5t30.5 -43.5t10 -53
q0 -43 -18.5 -73t-48 -50.5t-66.5 -32.5t-74.5 -18.5t-71.5 -9t-58 -3.5q-1 -67 26.5 -97.5t82.5 -30.5q44 0 74.5 23.5t42.5 65.5l93 -22q-23 -76 -83.5 -115t-144.5 -39zM373 139q-8 37 -8 74q0 50 11 96t34 84q-21 20 -49 31t-59 11q-43 0 -71.5 -23.5t-46 -58.5
t-24.5 -76t-7 -76q0 -66 23.5 -94.5t67.5 -28.5q31 0 61 13t68 48zM639 445q-33 0 -59 -13t-45 -35t-31 -51.5t-16 -62.5q9 0 25 1t36 3t42 6t43 10q37 11 57 30t20 51q0 30 -19.5 45.5t-52.5 15.5z" />
    <glyph glyph-name="ccedilla" unicode="&#xe7;" horiz-adv-x="539" 
d="M140 -160q8 -4 22.5 -9t31.5 -5q26 0 40 13t14 33q0 23 -16 31.5t-48 9.5l22 78q-45 6 -78 24t-54 46t-31.5 65t-10.5 81q0 76 21 135.5t58.5 100.5t90 62.5t115.5 21.5q48 0 84.5 -15t60.5 -42.5t34.5 -65t6.5 -82.5l-103 -8q1 28 -2 51t-13.5 39.5t-29 25.5t-47.5 9
q-28 0 -55.5 -11t-49.5 -37t-36 -69.5t-14 -109.5q0 -74 30 -105t76 -31q48 0 80 27t46 77l97 -18q-11 -43 -31 -74.5t-48 -52.5t-62.5 -32.5t-72.5 -13.5l-9 -34q27 -5 49 -23t22 -55q0 -56 -37.5 -84.5t-91.5 -28.5q-27 0 -48 6t-32 12z" />
    <glyph glyph-name="egrave" unicode="&#xe8;" horiz-adv-x="523" 
d="M241 -12q-58 0 -98 18t-64.5 48.5t-35 71.5t-10.5 87q0 67 20 124.5t57 99.5t89 66t116 24q45 0 77.5 -11t54 -29.5t31.5 -43.5t10 -53q0 -31 -9.5 -55t-26.5 -42.5t-40 -32t-49 -23.5q-28 -10 -57.5 -16t-58 -10t-53.5 -5.5t-43 -2.5q0 -24 4 -47t15.5 -41t33 -29
t56.5 -11q49 0 77.5 26t39.5 63l93 -22q-23 -76 -83.5 -115t-145.5 -39zM307 445q-33 0 -59 -12t-45 -34t-31 -51.5t-16 -63.5q9 0 25 1t36 3t42 6t43 10q37 11 57 29.5t20 50.5q0 30 -19.5 45.5t-52.5 15.5zM320 572l-113 174h129l65 -163z" />
    <glyph glyph-name="eacute" unicode="&#xe9;" horiz-adv-x="523" 
d="M241 -12q-58 0 -98 18t-64.5 48.5t-35 71.5t-10.5 87q0 67 20 124.5t57 99.5t89 66t116 24q45 0 77.5 -11t54 -29.5t31.5 -43.5t10 -53q0 -31 -9.5 -55t-26.5 -42.5t-40 -32t-49 -23.5q-28 -10 -57.5 -16t-58 -10t-53.5 -5.5t-43 -2.5q0 -24 4 -47t15.5 -41t33 -29
t56.5 -11q49 0 77.5 26t39.5 63l93 -22q-23 -76 -83.5 -115t-145.5 -39zM307 445q-33 0 -59 -12t-45 -34t-31 -51.5t-16 -63.5q9 0 25 1t36 3t42 6t43 10q37 11 57 29.5t20 50.5q0 30 -19.5 45.5t-52.5 15.5zM357 746h133l-162 -174l-79 11z" />
    <glyph glyph-name="ecircumflex" unicode="&#xea;" horiz-adv-x="523" 
d="M241 -12q-58 0 -98 18t-64.5 48.5t-35 71.5t-10.5 87q0 67 20 124.5t57 99.5t89 66t116 24q45 0 77.5 -11t54 -29.5t31.5 -43.5t10 -53q0 -31 -9.5 -55t-26.5 -42.5t-40 -32t-49 -23.5q-28 -10 -57.5 -16t-58 -10t-53.5 -5.5t-43 -2.5q0 -24 4 -47t15.5 -41t33 -29
t56.5 -11q49 0 77.5 26t39.5 63l93 -22q-23 -76 -83.5 -115t-145.5 -39zM307 445q-33 0 -59 -12t-45 -34t-31 -51.5t-16 -63.5q9 0 25 1t36 3t42 6t43 10q37 11 57 29.5t20 50.5q0 30 -19.5 45.5t-52.5 15.5zM407 577l-68 107l-95 -109l-86 7l134 165h111l85 -165z" />
    <glyph glyph-name="edieresis" unicode="&#xeb;" horiz-adv-x="523" 
d="M241 -12q-58 0 -98 18t-64.5 48.5t-35 71.5t-10.5 87q0 67 20 124.5t57 99.5t89 66t116 24q45 0 77.5 -11t54 -29.5t31.5 -43.5t10 -53q0 -31 -9.5 -55t-26.5 -42.5t-40 -32t-49 -23.5q-28 -10 -57.5 -16t-58 -10t-53.5 -5.5t-43 -2.5q0 -24 4 -47t15.5 -41t33 -29
t56.5 -11q49 0 77.5 26t39.5 63l93 -22q-23 -76 -83.5 -115t-145.5 -39zM307 445q-33 0 -59 -12t-45 -34t-31 -51.5t-16 -63.5q9 0 25 1t36 3t42 6t43 10q37 11 57 29.5t20 50.5q0 30 -19.5 45.5t-52.5 15.5zM153 669q0 35 23.5 56.5t60.5 21.5q30 0 47 -16t17 -43
q0 -35 -23.5 -56.5t-59.5 -21.5q-30 0 -47.5 16t-17.5 43zM372 669q0 35 24 56.5t61 21.5q30 0 47 -16t17 -43q0 -35 -23.5 -56.5t-59.5 -21.5q-30 0 -48 16t-18 43z" />
    <glyph glyph-name="igrave" unicode="&#xec;" horiz-adv-x="256" 
d="M142 0h-115l73 517h115zM159 572l-113 174h129l65 -163z" />
    <glyph glyph-name="iacute" unicode="&#xed;" horiz-adv-x="256" 
d="M142 0h-115l73 517h115zM196 746h133l-162 -174l-79 11z" />
    <glyph glyph-name="icircumflex" unicode="&#xee;" horiz-adv-x="256" 
d="M142 0h-115l73 517h115zM246 577l-68 107l-95 -109l-86 7l134 165h111l85 -165z" />
    <glyph glyph-name="idieresis" unicode="&#xef;" horiz-adv-x="256" 
d="M142 0h-115l73 517h115zM-8 669q0 35 23.5 56.5t60.5 21.5q30 0 47 -16t17 -43q0 -35 -23.5 -56.5t-59.5 -21.5q-30 0 -47.5 16t-17.5 43zM211 669q0 35 24 56.5t61 21.5q30 0 47 -16t17 -43q0 -35 -23.5 -56.5t-59.5 -21.5q-30 0 -48 16t-18 43z" />
    <glyph glyph-name="eth" unicode="&#xf0;" horiz-adv-x="592" 
d="M291 655q-56 32 -123 50l75 67q80 -25 138 -65l101 59l44 -67l-81 -47q54 -58 76 -128t22 -143q0 -71 -12.5 -141.5t-44.5 -126.5t-87.5 -90.5t-142.5 -34.5q-58 0 -99 16t-67 45t-38 70.5t-12 91.5q0 57 16.5 110t49 93.5t80.5 65t111 24.5q38 0 73 -11.5t61 -32.5
q1 -1 1.5 0.5t2.5 2.5q-24 84 -77 138l-94 -54l-43 67zM308 418q-40 0 -69 -18t-47.5 -48t-27.5 -68.5t-9 -79.5q0 -57 25 -94t82 -37q52 0 84.5 27t51 70t25.5 96.5t7 105.5q-19 18 -51 32t-71 14z" />
    <glyph glyph-name="ntilde" unicode="&#xf1;" horiz-adv-x="582" 
d="M142 0h-115l73 517h108l-10 -70h1q15 13 34.5 27.5t43.5 26t52 19t59 7.5q75 0 111 -43t23 -133l-49 -351h-115l47 335q8 52 -8 75t-53 23q-22 0 -43.5 -7t-41 -17t-36.5 -21.5t-29 -21.5zM271 721q24 0 42 -7t33.5 -15.5t30 -15.5t31.5 -7q19 0 28 11.5t14 37.5l63 -3
q-5 -62 -32 -94.5t-73 -32.5q-24 0 -43 7t-35 16t-31 16t-32 7t-27 -11.5t-13 -40.5l-66 3q5 64 35.5 96.5t74.5 32.5z" />
    <glyph glyph-name="ograve" unicode="&#xf2;" horiz-adv-x="581" 
d="M247 -12q-56 0 -97 15t-67 42.5t-38.5 66.5t-12.5 87q0 17 1 32.5t3 32.5q8 58 30 106.5t58 83.5t86 54t113 19q58 0 98 -16.5t64.5 -45t35.5 -67t11 -81.5q0 -17 -1 -31.5t-3 -33.5q-8 -60 -29 -109t-56 -83.5t-84 -53t-112 -18.5zM257 71q61 0 101.5 44.5t51.5 140.5
q2 17 3 31.5t1 28.5q0 64 -27 94t-78 30q-60 0 -103 -43t-54 -138q-3 -30 -3 -57q0 -131 108 -131zM322 572l-113 174h129l65 -163z" />
    <glyph glyph-name="oacute" unicode="&#xf3;" horiz-adv-x="581" 
d="M247 -12q-56 0 -97 15t-67 42.5t-38.5 66.5t-12.5 87q0 17 1 32.5t3 32.5q8 58 30 106.5t58 83.5t86 54t113 19q58 0 98 -16.5t64.5 -45t35.5 -67t11 -81.5q0 -17 -1 -31.5t-3 -33.5q-8 -60 -29 -109t-56 -83.5t-84 -53t-112 -18.5zM257 71q61 0 101.5 44.5t51.5 140.5
q2 17 3 31.5t1 28.5q0 64 -27 94t-78 30q-60 0 -103 -43t-54 -138q-3 -30 -3 -57q0 -131 108 -131zM359 746h133l-162 -174l-79 11z" />
    <glyph glyph-name="ocircumflex" unicode="&#xf4;" horiz-adv-x="581" 
d="M247 -12q-56 0 -97 15t-67 42.5t-38.5 66.5t-12.5 87q0 17 1 32.5t3 32.5q8 58 30 106.5t58 83.5t86 54t113 19q58 0 98 -16.5t64.5 -45t35.5 -67t11 -81.5q0 -17 -1 -31.5t-3 -33.5q-8 -60 -29 -109t-56 -83.5t-84 -53t-112 -18.5zM257 71q61 0 101.5 44.5t51.5 140.5
q2 17 3 31.5t1 28.5q0 64 -27 94t-78 30q-60 0 -103 -43t-54 -138q-3 -30 -3 -57q0 -131 108 -131zM409 577l-68 107l-95 -109l-86 7l134 165h111l85 -165z" />
    <glyph glyph-name="otilde" unicode="&#xf5;" horiz-adv-x="581" 
d="M247 -12q-56 0 -97 15t-67 42.5t-38.5 66.5t-12.5 87q0 17 1 32.5t3 32.5q8 58 30 106.5t58 83.5t86 54t113 19q58 0 98 -16.5t64.5 -45t35.5 -67t11 -81.5q0 -17 -1 -31.5t-3 -33.5q-8 -60 -29 -109t-56 -83.5t-84 -53t-112 -18.5zM257 71q61 0 101.5 44.5t51.5 140.5
q2 17 3 31.5t1 28.5q0 64 -27 94t-78 30q-60 0 -103 -43t-54 -138q-3 -30 -3 -57q0 -131 108 -131zM268 721q24 0 42 -7t33.5 -15.5t30 -15.5t31.5 -7q19 0 28 11.5t14 37.5l63 -3q-5 -62 -32 -94.5t-73 -32.5q-24 0 -43 7t-35 16t-31 16t-32 7t-27 -11.5t-13 -40.5l-66 3
q5 64 35.5 96.5t74.5 32.5z" />
    <glyph glyph-name="odieresis" unicode="&#xf6;" horiz-adv-x="581" 
d="M247 -12q-56 0 -97 15t-67 42.5t-38.5 66.5t-12.5 87q0 17 1 32.5t3 32.5q8 58 30 106.5t58 83.5t86 54t113 19q58 0 98 -16.5t64.5 -45t35.5 -67t11 -81.5q0 -17 -1 -31.5t-3 -33.5q-8 -60 -29 -109t-56 -83.5t-84 -53t-112 -18.5zM257 71q61 0 101.5 44.5t51.5 140.5
q2 17 3 31.5t1 28.5q0 64 -27 94t-78 30q-60 0 -103 -43t-54 -138q-3 -30 -3 -57q0 -131 108 -131zM155 669q0 35 23.5 56.5t60.5 21.5q30 0 47 -16t17 -43q0 -35 -23.5 -56.5t-59.5 -21.5q-30 0 -47.5 16t-17.5 43zM374 669q0 35 24 56.5t61 21.5q30 0 47 -16t17 -43
q0 -35 -23.5 -56.5t-59.5 -21.5q-30 0 -48 16t-18 43z" />
    <glyph glyph-name="divide" unicode="&#xf7;" horiz-adv-x="569" 
d="M326 173q0 -36 -20.5 -56.5t-59.5 -20.5q-62 0 -62 55q0 35 20.5 56t60.5 21q30 0 45.5 -14.5t15.5 -40.5zM84 274l13 94h381l-13 -94h-381zM371 491q0 -36 -20.5 -56t-59.5 -20q-62 0 -62 54q0 35 20.5 56.5t59.5 21.5q31 0 46.5 -15t15.5 -41z" />
    <glyph glyph-name="oslash" unicode="&#xf8;" horiz-adv-x="581" 
d="M247 -12q-10 0 -19 0.5t-18 1.5l-28 -64h-93l38 87q-49 25 -72 72.5t-23 113.5q0 17 1 32.5t3 32.5q8 58 30 106.5t58 83.5t86 54t113 19q8 0 15.5 -0.5t15.5 -1.5l28 64h93l-38 -86q51 -26 73 -75.5t22 -110.5q0 -17 -1 -31.5t-3 -33.5q-8 -60 -29 -109t-56 -83.5
t-84 -53t-112 -18.5zM257 71q61 0 101.5 44.5t51.5 140.5q2 17 3 31.5t1 28.5q0 55 -22 86l-146 -331h11zM149 202q0 -60 22 -91l145 329h-7q-60 0 -103 -43t-54 -138q-3 -30 -3 -57z" />
    <glyph glyph-name="ugrave" unicode="&#xf9;" horiz-adv-x="579" 
d="M422 517h115l-72 -517h-102l8 66l-1 1q-15 -14 -35 -28t-44 -25t-51.5 -18t-55.5 -7q-78 0 -113 45t-23 133l48 350h115l-46 -336q-4 -24 -1 -42q1 -31 17 -44.5t48 -13.5q39 0 76.5 20t65.5 44zM318 572l-113 174h129l65 -163z" />
    <glyph glyph-name="uacute" unicode="&#xfa;" horiz-adv-x="579" 
d="M422 517h115l-72 -517h-102l8 66l-1 1q-15 -14 -35 -28t-44 -25t-51.5 -18t-55.5 -7q-78 0 -113 45t-23 133l48 350h115l-46 -336q-4 -24 -1 -42q1 -31 17 -44.5t48 -13.5q39 0 76.5 20t65.5 44zM363 746h133l-162 -174l-79 11z" />
    <glyph glyph-name="ucircumflex" unicode="&#xfb;" horiz-adv-x="579" 
d="M422 517h115l-72 -517h-102l8 66l-1 1q-15 -14 -35 -28t-44 -25t-51.5 -18t-55.5 -7q-78 0 -113 45t-23 133l48 350h115l-46 -336q-4 -24 -1 -42q1 -31 17 -44.5t48 -13.5q39 0 76.5 20t65.5 44zM405 577l-68 107l-95 -109l-86 7l134 165h111l85 -165z" />
    <glyph glyph-name="udieresis" unicode="&#xfc;" horiz-adv-x="579" 
d="M422 517h115l-72 -517h-102l8 66l-1 1q-15 -14 -35 -28t-44 -25t-51.5 -18t-55.5 -7q-78 0 -113 45t-23 133l48 350h115l-46 -336q-4 -24 -1 -42q1 -31 17 -44.5t48 -13.5q39 0 76.5 20t65.5 44zM151 669q0 35 23.5 56.5t60.5 21.5q30 0 47 -16t17 -43q0 -35 -23.5 -56.5
t-59.5 -21.5q-30 0 -47.5 16t-17.5 43zM370 669q0 35 24 56.5t61 21.5q30 0 47 -16t17 -43q0 -35 -23.5 -56.5t-59.5 -21.5q-30 0 -48 16t-18 43z" />
    <glyph glyph-name="yacute" unicode="&#xfd;" horiz-adv-x="497" 
d="M33 517h122l65 -396h2l177 396h119l-271 -551q-26 -53 -48 -89t-46 -58t-52 -32t-66 -10q-29 0 -55.5 6t-41.5 14l20 81q16 -6 34 -10.5t37 -4.5q18 0 32 7t27.5 22t27 40t30.5 61zM316 746h133l-162 -174l-79 11z" />
    <glyph glyph-name="thorn" unicode="&#xfe;" horiz-adv-x="588" 
d="M160 126q14 -12 42.5 -28.5t69.5 -16.5q40 0 68.5 19.5t45.5 52t25 75.5t8 90q0 61 -19.5 89t-62.5 28q-19 0 -39 -6.5t-39.5 -16t-36 -20.5t-28.5 -21zM133 755h113l-42 -301q38 31 81 51.5t96 20.5q35 0 64 -10.5t50 -34t33 -61t12 -91.5q0 -90 -21 -155t-56 -106.5
t-81 -61t-95 -19.5q-48 0 -83.5 16t-58.5 38l-36 -254h-111z" />
    <glyph glyph-name="ydieresis" unicode="&#xff;" horiz-adv-x="497" 
d="M33 517h122l65 -396h2l177 396h119l-271 -551q-26 -53 -48 -89t-46 -58t-52 -32t-66 -10q-29 0 -55.5 6t-41.5 14l20 81q16 -6 34 -10.5t37 -4.5q18 0 32 7t27.5 22t27 40t30.5 61zM112 669q0 35 23.5 56.5t60.5 21.5q30 0 47 -16t17 -43q0 -35 -23.5 -56.5t-59.5 -21.5
q-30 0 -47.5 16t-17.5 43zM331 669q0 35 24 56.5t61 21.5q30 0 47 -16t17 -43q0 -35 -23.5 -56.5t-59.5 -21.5q-30 0 -48 16t-18 43z" />
    <glyph glyph-name="apostrophe" unicode="&#x2bc;" horiz-adv-x="499" 
d="M308 702h114l-100 -185l-80 12z" />
    <glyph glyph-name="tilde" unicode="&#x2dc;" horiz-adv-x="499" 
d="M294 721q24 0 42 -7t33.5 -15.5t30 -15.5t31.5 -7q19 0 28 11.5t14 37.5l63 -3q-5 -62 -32 -94.5t-73 -32.5q-24 0 -43 7t-35 16t-31 16t-32 7t-27 -11.5t-13 -40.5l-66 3q5 64 35.5 96.5t74.5 32.5z" />
    <glyph glyph-name="endash" unicode="&#x2013;" horiz-adv-x="500" 
d="M-10 239l12 84h499l-12 -84h-499z" />
    <glyph glyph-name="emdash" unicode="&#x2014;" horiz-adv-x="1000" 
d="M-10 239l12 84h999l-12 -84h-999z" />
    <glyph glyph-name="quoteleft" unicode="&#x2018;" horiz-adv-x="219" 
d="M180 551h-117l117 232l84 -10z" />
    <glyph glyph-name="quoteright" unicode="&#x2019;" horiz-adv-x="219" 
d="M149 769h117l-117 -232l-84 10z" />
    <glyph glyph-name="quotedblleft" unicode="&#x201c;" horiz-adv-x="385" 
d="M346 551h-117l117 232l84 -10zM180 551h-117l117 232l84 -10z" />
    <glyph glyph-name="quotedblright" unicode="&#x201d;" horiz-adv-x="384" 
d="M315 769h117l-117 -232l-84 10zM149 769h117l-117 -232l-84 10z" />
    <glyph glyph-name="quotedblbase" unicode="&#x201e;" horiz-adv-x="385" 
d="M45 90h117l-117 -232l-84 10zM211 90h117l-117 -232l-84 10z" />
    <glyph glyph-name="bullet" unicode="&#x2022;" horiz-adv-x="419" 
d="M350 304q0 -80 -43 -121.5t-122 -41.5q-61 0 -93 28.5t-32 85.5q0 80 43 121.5t121 41.5q62 0 94 -28.5t32 -85.5z" />
    <glyph glyph-name="ellipsis" unicode="&#x2026;" horiz-adv-x="677" 
d="M599 75q0 -42 -22 -64.5t-67 -22.5q-69 0 -69 61q0 42 22.5 64.5t67.5 22.5q68 0 68 -61zM167 75q0 -42 -22 -64.5t-67 -22.5q-69 0 -69 61q0 42 22.5 64.5t67.5 22.5q68 0 68 -61zM380 75q0 -42 -22 -64.5t-67 -22.5q-69 0 -69 61q0 42 22.5 64.5t67.5 22.5q68 0 68 -61
z" />
    <glyph glyph-name="guilsinglleft" unicode="&#x2039;" horiz-adv-x="279" 
d="M106 103l-64 155l110 150h98l-107 -147l61 -158h-98z" />
    <glyph glyph-name="guilsinglright" unicode="&#x203a;" horiz-adv-x="278" 
d="M12 103l109 154l-65 151h97l66 -154l-108 -151h-99z" />
    <glyph glyph-name="Euro" unicode="&#x20ac;" horiz-adv-x="646" 
d="M123 472q17 55 44.5 103.5t67.5 84.5t92.5 57t118.5 21q39 0 75.5 -10.5t63.5 -36t41.5 -69t9.5 -109.5l-101 -10q1 40 -3.5 67t-17.5 44t-34 24.5t-53 7.5q-30 0 -57.5 -12.5t-51 -35.5t-43 -55t-33.5 -71h196l-22 -80h-196q-4 -20 -6.5 -39.5t-4.5 -39.5h197l-22 -81
h-175q5 -76 37.5 -114t96.5 -38q35 0 60.5 11t43 29t29 41t19.5 47l94 -19q-14 -56 -40 -94.5t-60.5 -62t-75 -34t-82.5 -10.5q-60 0 -102.5 17t-71 49t-43 77t-18.5 101h-88l22 81h66q1 20 3 39.5t5 39.5h-63l21 80h61z" />
    <glyph glyph-name="trademark" unicode="&#x2122;" horiz-adv-x="841" 
d="M746 348v258l-100 -258h-53l-97 259v-259h-63v376h80l109 -292l112 292h74v-376h-62zM257 348h-69v318h-124v58h318v-58h-125v-318z" />
    </font>
</defs>
</svg>
