<?xml version="1.0" standalone="no"?>
<!DOCTYPE svg PUBLIC "-//W3C//DTD SVG 1.1//EN" "http://www.w3.org/Graphics/SVG/1.1/DTD/svg11.dtd" >
<svg xmlns="http://www.w3.org/2000/svg" xmlns:xlink="http://www.w3.org/1999/xlink" version="1.1">
<metadata>
Created by FontForge 20170731 at Wed Feb  6 03:45:39 2013
 By Aleksey,,,
Copyright (c) 2012 by TypeTogether. All rights reserved.
</metadata>
<defs>
<font id="AdelleSans-Thin" horiz-adv-x="570" >
  <font-face 
    font-family="Adelle Sans"
    font-weight="250"
    font-stretch="normal"
    units-per-em="1000"
    panose-1="2 0 5 3 0 0 0 2 0 4"
    ascent="750"
    descent="-250"
    x-height="508"
    cap-height="724"
    bbox="-52 -226 999 911"
    underline-thickness="50"
    underline-position="-150"
    unicode-range="U+000D-2122"
  />
<missing-glyph horiz-adv-x="500" 
d="M50 500h400v-500h-400v500zM400 50v400h-300v-400h300z" />
    <glyph glyph-name=".notdef" horiz-adv-x="500" 
d="M50 500h400v-500h-400v500zM400 50v400h-300v-400h300z" />
    <glyph glyph-name=".null" horiz-adv-x="0" 
 />
    <glyph glyph-name="nonmarkingreturn" unicode="&#xd;" horiz-adv-x="242" 
 />
    <glyph glyph-name="NULL" horiz-adv-x="0" 
 />
    <glyph glyph-name="NULL" horiz-adv-x="0" 
 />
    <glyph glyph-name="space" unicode=" " horiz-adv-x="242" 
 />
    <glyph glyph-name="exclam" unicode="!" horiz-adv-x="249" 
d="M109 179l-15 545h59l-12 -545h-32zM177 39q0 -51 -52 -51q-24 0 -37.5 12.5t-13.5 38.5t13.5 38t37.5 12q52 0 52 -50z" />
    <glyph glyph-name="quotedbl" unicode="&#x22;" horiz-adv-x="371" 
d="M242 465v259h59v-259h-59zM70 465v259h59v-259h-59z" />
    <glyph glyph-name="numbersign" unicode="#" horiz-adv-x="607" 
d="M337 0l22 148h-145l-23 -148h-44l21 148h-131l12 38h127l30 190h-130l10 39h127l21 128h43l-20 -128h143l19 128h44l-18 -128h130l-9 -39h-128l-28 -190h128l-9 -38h-126l-22 -148h-44zM394 376h-143l-31 -190h145z" />
    <glyph glyph-name="dollar" unicode="$" horiz-adv-x="515" 
d="M407 530q-5 26 -13.5 49t-22 41t-34 30t-50.5 15v-293q32 -10 63.5 -22.5t56 -32t39.5 -49.5t15 -76q0 -76 -45 -124.5t-128 -56.5v-90h-40v88q-41 1 -75.5 11.5t-61.5 32t-44.5 56t-24.5 84.5l48 12q7 -37 18 -64.5t29.5 -46.5t44.5 -29.5t63 -12.5v284q-33 10 -65 22
t-57 32.5t-40.5 53t-15.5 83.5q0 44 15 77t40 55.5t57 35t67 15.5v82h41v-82q73 -8 114.5 -48.5t54.5 -121.5zM118 528q0 -33 10 -56.5t27.5 -40t40.5 -27t49 -19.5v280q-37 -3 -61.5 -15.5t-39 -32t-20.5 -42.5t-6 -47zM408 184q0 33 -9.5 55.5t-26 38.5t-38.5 26.5
t-47 18.5v-270q53 7 87 39t34 92z" />
    <glyph glyph-name="percent" unicode="%" horiz-adv-x="780" 
d="M205 374q-43 0 -72.5 15t-47.5 39.5t-26 56t-8 65.5q0 40 10.5 74.5t31.5 59.5t51 39t69 14q40 0 69 -12.5t47.5 -35.5t27 -55t8.5 -71q0 -41 -10.5 -76t-30.5 -60t-50 -39t-69 -14zM207 417q31 0 51 11.5t31.5 31t16 45t4.5 54.5q0 25 -4 49.5t-15 43t-30.5 30
t-49.5 11.5q-32 0 -52.5 -13.5t-32.5 -34t-16.5 -45t-4.5 -46.5q0 -26 4.5 -51t16 -44t31 -30.5t50.5 -11.5zM567 -12q-43 0 -72.5 15t-47.5 39.5t-26 56t-8 65.5q0 40 10.5 74.5t31.5 59.5t51 39t69 14q40 0 69 -12.5t47.5 -35.5t27 -55t8.5 -71q0 -41 -10.5 -76t-30.5 -60
t-50 -39t-69 -14zM569 31q31 0 51 11.5t31.5 31t16 45t4.5 54.5q0 25 -4 49.5t-15 43t-30.5 30t-49.5 11.5q-32 0 -52.5 -13.5t-32.5 -34t-16.5 -45t-4.5 -46.5q0 -26 4.5 -51t16 -44t31 -30.5t50.5 -11.5zM138 -18l439 742h51l-439 -742h-51z" />
    <glyph glyph-name="ampersand" unicode="&#x26;" horiz-adv-x="668" 
d="M449 564q0 -23 -7 -46.5t-24 -46t-44.5 -43t-67.5 -37.5l-53 -24q79 -139 196 -267q33 42 48 100.5t18 129.5h44q-2 -73 -19.5 -139.5t-58.5 -116.5q24 -23 49 -37t52 -14q23 0 51 14l15 -31q-13 -11 -31.5 -15t-33.5 -4q-41 0 -70.5 15.5t-59.5 41.5q-34 -26 -77 -41
t-99 -15q-44 0 -83 13.5t-68 38.5t-45.5 60.5t-16.5 78.5q0 74 34 121.5t97 82.5q-18 35 -29.5 68t-11.5 77q0 33 11 63.5t31.5 53.5t50.5 37t68 14q20 0 43.5 -4.5t43.5 -18.5t33.5 -40t13.5 -69zM280 28q46 0 81 11.5t63 31.5q-59 59 -110.5 129t-98.5 148
q-23 -13 -42 -28t-33 -34.5t-22 -43.5t-8 -55q0 -30 11 -58.5t32 -51t53 -36t74 -13.5zM311 656q-49 0 -79.5 -34t-30.5 -92q0 -38 9.5 -67t24.5 -63l47 21q61 28 90 62.5t29 79.5t-22.5 69t-67.5 24z" />
    <glyph glyph-name="quotesingle" unicode="'" horiz-adv-x="199" 
d="M70 465v259h59v-259h-59z" />
    <glyph glyph-name="parenleft" unicode="(" horiz-adv-x="285" 
d="M204 -152q-27 42 -52 89.5t-45 101t-32 113.5t-12 128q0 67 13.5 130t34.5 119.5t47.5 106t53.5 88.5h50q-74 -121 -112.5 -229.5t-38.5 -214.5q0 -65 10.5 -122t29 -109t44 -101.5t56.5 -100.5z" />
    <glyph glyph-name="parenright" unicode=")" horiz-adv-x="285" 
d="M58 -153q31 51 56.5 100.5t44 101.5t29 109t10.5 122q0 106 -38.5 214.5t-112.5 229.5h50q27 -39 53.5 -88.5t47.5 -106t34.5 -119.5t13.5 -130q0 -68 -12 -128t-32 -113.5t-45 -101t-52 -89.5z" />
    <glyph glyph-name="asterisk" unicode="*" horiz-adv-x="467" 
d="M264 604l137 36l7 -19l-127 -64l84 -131l-18 -12l-113 107l-111 -109l-17 13l83 131l-130 64l9 19l138 -35l20 151h21z" />
    <glyph glyph-name="plus" unicode="+" 
d="M261 134v165h-161v47h161v158h48v-158h161v-47h-161v-165h-48z" />
    <glyph glyph-name="comma" unicode="," horiz-adv-x="200" 
d="M79 82h62l-75 -204l-38 7z" />
    <glyph glyph-name="hyphen" unicode="-" horiz-adv-x="318" 
d="M20 271v51h271v-51h-271z" />
    <glyph glyph-name="period" unicode="." horiz-adv-x="209" 
d="M155 37q0 -25 -13.5 -37t-37.5 -12q-23 0 -36.5 12t-13.5 37q0 24 13.5 36t36.5 12q24 0 37.5 -12t13.5 -36z" />
    <glyph glyph-name="slash" unicode="/" horiz-adv-x="334" 
d="M5 -92l281 847h44l-280 -847h-45z" />
    <glyph glyph-name="zero" unicode="0" horiz-adv-x="546" 
d="M271 -12q-74 0 -118 31t-67 82t-30.5 118t-7.5 139t9 140.5t34 121.5t70.5 85t119.5 32q73 0 116 -32t65.5 -83.5t29 -116.5t6.5 -132q0 -77 -8 -146.5t-32.5 -122.5t-69 -84.5t-117.5 -31.5zM274 32q57 0 91.5 27t53 72.5t24.5 106t6 128.5q0 66 -5 125.5t-23 104
t-51.5 71t-90.5 26.5q-58 0 -93.5 -26.5t-55 -72.5t-26.5 -108t-7 -132q0 -62 6 -120t24.5 -103t53.5 -72t93 -27z" />
    <glyph glyph-name="one" unicode="1" horiz-adv-x="392" 
d="M209 0v639q-13 -8 -34.5 -15t-44.5 -12t-44 -7.5t-33 -2.5l-7 38q72 6 116.5 25t77.5 59h16v-724h-47z" />
    <glyph glyph-name="two" unicode="2" horiz-adv-x="509" 
d="M260 737q39 0 72.5 -9.5t58.5 -30.5t39.5 -54t14.5 -80q0 -44 -11 -82.5t-31.5 -76t-49.5 -76.5t-65 -82l-168 -206v1h334v-41h-391v35l180 224q40 51 68.5 89t46.5 71.5t26.5 66.5t8.5 73q0 37 -10 63t-28.5 42t-44 23t-55.5 7q-43 0 -70.5 -11.5t-44 -31t-25 -44.5
t-13.5 -51l-46 9q15 92 68 132t136 40z" />
    <glyph glyph-name="three" unicode="3" horiz-adv-x="531" 
d="M97 156q4 -22 12 -44t24.5 -39.5t43.5 -28.5t69 -11q30 0 59.5 9t52 29t36.5 51.5t14 77.5q0 47 -13.5 79t-37 51t-56 27t-70.5 8h-60v42h46q42 0 75.5 11.5t57 32.5t36 50t12.5 63q0 27 -7 50.5t-22.5 41t-41.5 28t-65 10.5q-38 0 -63.5 -9t-43 -25.5t-27.5 -38.5
t-17 -48l-44 11q17 81 71 117t131 36q45 0 78.5 -12.5t56 -35t33.5 -53t11 -66.5q0 -45 -14 -77t-35 -53t-46.5 -32.5t-48.5 -15.5v-2q70 -10 113 -54.5t43 -133.5q0 -47 -14 -86t-41.5 -67.5t-68 -44.5t-92.5 -16q-85 0 -135 40.5t-60 117.5z" />
    <glyph glyph-name="four" unicode="4" horiz-adv-x="522" 
d="M360 0v189h-341v37l324 498h65v-492h88v-43h-89v-189h-47zM361 232v445l-284 -445h284z" />
    <glyph glyph-name="five" unicode="5" horiz-adv-x="528" 
d="M104 724h322v-43h-279l-25 -279q26 23 63 40t89 17q33 0 67.5 -9.5t63 -34.5t47 -68t18.5 -110q0 -53 -14.5 -98t-43.5 -79t-71.5 -53t-99.5 -19q-82 0 -136 39.5t-68 119.5l48 12q5 -23 14.5 -45.5t27.5 -40.5t45.5 -29t69.5 -11q31 0 62 10.5t56 34.5t41 63.5t16 96.5
q0 48 -11.5 81.5t-31.5 54.5t-47 31t-58 10q-50 0 -87.5 -17.5t-69.5 -47.5l-36 17z" />
    <glyph glyph-name="six" unicode="6" horiz-adv-x="556" 
d="M446 583q-9 34 -21.5 56t-29 34.5t-36 17t-41.5 4.5q-41 0 -71.5 -17.5t-52.5 -46.5t-36.5 -66.5t-22.5 -77.5t-12 -79.5t-4 -71.5q13 17 33 35t45.5 33t55 25t60.5 10q51 0 86.5 -17t58.5 -45.5t33.5 -66t10.5 -79.5q0 -55 -14.5 -100t-41.5 -76.5t-66.5 -49
t-89.5 -17.5q-68 0 -110.5 29t-66.5 77t-33 110.5t-9 129.5q0 39 4 84t15 90t29 86t46.5 73t67.5 51t92 19q61 0 106 -33.5t59 -109.5zM122 286q3 -43 10 -88.5t25.5 -82.5t50.5 -61t84 -24q32 0 61.5 11t51.5 34.5t35 60.5t13 90q0 168 -141 168q-57 0 -105.5 -30.5
t-84.5 -77.5z" />
    <glyph glyph-name="seven" unicode="7" horiz-adv-x="499" 
d="M120 0l307 681h-389v43h443v-37l-308 -687h-53z" />
    <glyph glyph-name="eight" unicode="8" horiz-adv-x="519" 
d="M310 372q29 -12 59 -27t54.5 -37.5t40 -55t15.5 -78.5q0 -42 -15.5 -76t-44.5 -58.5t-69.5 -38t-90.5 -13.5q-56 0 -97 14t-67 38.5t-38.5 58t-12.5 72.5q0 42 14.5 73.5t38 55t53 40t60.5 28.5q-28 11 -53.5 28t-45 40t-31.5 52.5t-12 65.5q0 46 16.5 80.5t44.5 57
t65.5 34t80.5 11.5q88 0 141 -42.5t53 -121.5q0 -34 -12 -64t-33.5 -55t-50.5 -45.5t-63 -36.5zM255 348q-34 -14 -63 -29t-50.5 -35.5t-33.5 -48t-12 -64.5q0 -60 39.5 -100.5t126.5 -40.5q46 0 78 13.5t52 34.5t29 47t9 52q0 42 -17.5 70t-43.5 47.5t-56.5 31.5t-57.5 22z
M264 388q72 34 114 79t42 107q0 58 -38 90t-113 32q-72 0 -112 -36t-40 -100q0 -38 12 -64.5t32 -46t46.5 -34t56.5 -27.5z" />
    <glyph glyph-name="nine" unicode="9" horiz-adv-x="556" 
d="M104 146q14 -62 53 -88.5t91 -26.5q57 0 94 27.5t58.5 74.5t30.5 109.5t10 133.5q-13 -17 -33 -35t-45.5 -32.5t-54.5 -24t-60 -9.5q-51 0 -87 17.5t-59.5 47.5t-34 69.5t-10.5 83.5q0 55 14.5 100.5t42 77t67 49t89.5 17.5q68 0 111 -29t67 -77t32.5 -110.5t8.5 -129.5
q0 -77 -9.5 -149.5t-36 -129t-74.5 -90.5t-124 -34q-71 0 -121.5 35.5t-65.5 111.5zM438 429q-2 43 -8.5 90t-24.5 86.5t-50.5 65t-86.5 25.5q-33 0 -62 -11t-51 -35t-35 -62t-13 -91q0 -88 37 -132.5t106 -44.5q28 0 55 9t51 24t45 34.5t37 41.5z" />
    <glyph glyph-name="colon" unicode=":" horiz-adv-x="209" 
d="M155 37q0 -25 -13.5 -37t-37.5 -12q-23 0 -36.5 12t-13.5 37q0 24 13.5 36t36.5 12q24 0 37.5 -12t13.5 -36zM155 442q0 -25 -13.5 -37t-37.5 -12q-23 0 -36.5 12t-13.5 37q0 24 13.5 36t36.5 12q24 0 37.5 -12t13.5 -36z" />
    <glyph glyph-name="semicolon" unicode=";" horiz-adv-x="200" 
d="M66 82h62l-75 -204l-38 7zM164 442q0 -25 -13.5 -37t-37.5 -12q-23 0 -36.5 12t-13.5 37q0 24 13.5 36t36.5 12q24 0 37.5 -12t13.5 -36z" />
    <glyph glyph-name="less" unicode="&#x3c;" 
d="M89 255v57l371 164v-50l-320 -141l320 -132v-49z" />
    <glyph glyph-name="equal" unicode="=" 
d="M103 193v45h365v-45h-365zM103 335v45h365v-45h-365z" />
    <glyph glyph-name="greater" unicode="&#x3e;" 
d="M89 104v49l320 132l-320 141v50l371 -164v-57z" />
    <glyph glyph-name="question" unicode="?" horiz-adv-x="481" 
d="M143 178v175q43 4 83 14t70 30t48 52.5t18 82.5q0 46 -11.5 75t-32 45.5t-47 22.5t-56.5 6q-27 0 -52 -5t-45.5 -18.5t-36 -38t-25.5 -62.5l-43 9q6 24 18 51.5t35.5 50.5t60 38t90.5 15q39 0 74.5 -9t61.5 -30t41.5 -55.5t15.5 -86.5q0 -56 -18.5 -95t-49 -64.5t-71 -40
t-84.5 -21.5v-141h-44zM215 39q0 -26 -13.5 -38.5t-37.5 -12.5t-38 12.5t-14 38.5t14 38t38 12t37.5 -12t13.5 -38z" />
    <glyph glyph-name="at" unicode="@" horiz-adv-x="833" 
d="M675 -73q-43 -45 -109.5 -66.5t-141.5 -21.5q-79 0 -147 22.5t-118 66.5t-78.5 110.5t-28.5 154.5q0 85 27.5 153.5t78 117t120.5 74.5t155 26q73 0 136.5 -19t110.5 -58t74 -99t27 -143q0 -63 -11.5 -109.5t-33 -76.5t-51.5 -44.5t-67 -14.5q-40 0 -62 15.5t-34 40.5
q-18 -25 -55 -44.5t-81 -19.5t-72.5 16t-45.5 42t-23.5 59.5t-6.5 68.5q0 47 12.5 87t35 69.5t54.5 46t72 16.5q29 0 57.5 -9.5t48.5 -26.5l3 30h39v-257q0 -22 1 -40.5t6.5 -32.5t17.5 -22t35 -8q19 0 40.5 9t38.5 31.5t28.5 62t11.5 99.5q0 82 -23 138.5t-64.5 91t-99 50
t-125.5 15.5q-78 0 -139.5 -24t-104 -68t-65.5 -105.5t-23 -136.5q0 -86 27 -146t73.5 -98.5t107 -56t128.5 -17.5q70 0 126.5 21t89.5 57zM516 322q-18 16 -44 27t-58 11q-56 0 -91.5 -45.5t-35.5 -137.5q0 -30 5 -57t16.5 -47t31 -32t49.5 -12q39 0 75 23t52 59v211z" />
    <glyph glyph-name="A" unicode="A" horiz-adv-x="637" 
d="M353 724l249 -724h-54l-84 248h-295l-84 -248h-50l248 724h70zM316 693v0l-133 -403h267z" />
    <glyph glyph-name="B" unicode="B" horiz-adv-x="638" 
d="M112 0v724h227q64 0 106 -13.5t66.5 -37.5t34.5 -56.5t10 -69.5q0 -40 -12.5 -69.5t-33.5 -50t-49 -32.5t-59 -18v-2q91 -13 133.5 -59.5t42.5 -121.5q0 -56 -19 -93t-54 -59.5t-83.5 -32t-107.5 -9.5h-202zM314 44q45 0 84 5t68 20.5t45.5 45t16.5 78.5q0 41 -14.5 70.5
t-40 48.5t-60.5 28t-75 9h-179v-305h155zM297 393q31 0 67.5 6.5t67 23.5t51 47.5t20.5 78.5q0 73 -40.5 102.5t-131.5 29.5h-172v-288h138z" />
    <glyph glyph-name="C" unicode="C" horiz-adv-x="716" 
d="M379 -12q-83 0 -141.5 26.5t-96 74.5t-54.5 114t-17 145q0 96 24 169t67.5 121.5t104 73.5t132.5 25q109 0 178 -56t80 -174l-46 -4q-7 46 -21.5 82t-40 60.5t-63 37.5t-88.5 13q-63 0 -114 -22t-87 -65t-56 -106.5t-20 -146.5q0 -87 18.5 -149t52.5 -101.5t82.5 -58
t108.5 -18.5q94 0 148 39t77 131l42 -10q-11 -56 -36 -94.5t-60.5 -62t-80 -34t-93.5 -10.5z" />
    <glyph glyph-name="D" unicode="D" horiz-adv-x="741" 
d="M112 0v724h200q94 0 162 -24.5t111.5 -70t64.5 -110.5t21 -146q0 -83 -22.5 -152t-68.5 -118t-117 -76t-168 -27h-183zM303 41q153 0 235 83t82 244q0 91 -22 151.5t-62.5 97t-98 51.5t-129.5 15h-148v-642h143z" />
    <glyph glyph-name="E" unicode="E" 
d="M160 42h358v-42h-406v724h398v-42h-350v-292h327v-43h-327v-305z" />
    <glyph glyph-name="F" unicode="F" horiz-adv-x="543" 
d="M160 0h-48v724h399v-42h-351v-305h325v-44h-325v-333z" />
    <glyph glyph-name="G" unicode="G" horiz-adv-x="756" 
d="M607 115q-10 -25 -30 -48t-48.5 -40.5t-66 -28t-82.5 -10.5q-82 0 -140.5 27t-96 75.5t-55.5 116t-18 148.5q0 96 24 167.5t67.5 119.5t104 71.5t134.5 23.5q55 0 100 -13.5t78 -41.5t53 -72t25 -105l-46 -5q-6 56 -23 93.5t-44 60.5t-64 32.5t-82 9.5
q-64 0 -115.5 -22.5t-87.5 -65t-55.5 -105.5t-19.5 -144q0 -101 22.5 -165.5t60 -101t85.5 -50t99 -13.5q55 0 97 19.5t70.5 50t42.5 68.5t14 75v87h-235v45h277v-374h-37z" />
    <glyph glyph-name="H" unicode="H" horiz-adv-x="725" 
d="M613 0h-48v350h-405v-350h-48v724h48v-330h405v330h48v-724z" />
    <glyph glyph-name="I" unicode="I" horiz-adv-x="272" 
d="M160 0h-48v724h48v-724z" />
    <glyph glyph-name="J" unicode="J" horiz-adv-x="487" 
d="M338 724h48v-551q0 -54 -13 -89.5t-36.5 -57t-56 -30t-71.5 -8.5q-45 0 -76 12t-51 33t-30 49.5t-12 61.5l47 8q3 -25 10 -47t20.5 -38.5t37 -26t59.5 -9.5q24 0 46.5 5.5t40 21t27.5 44t10 74.5v548z" />
    <glyph glyph-name="K" unicode="K" horiz-adv-x="623" 
d="M160 342l357 382h60l-299 -319l326 -405h-58l-301 373l-85 -90v-283h-48v724h48v-382z" />
    <glyph glyph-name="L" unicode="L" horiz-adv-x="552" 
d="M160 41h337v-41h-385v724h48v-683z" />
    <glyph glyph-name="M" unicode="M" horiz-adv-x="885" 
d="M773 0h-47v675h-2l-250 -675h-66l-248 676h-2v-676h-46v724h81l249 -687h1l252 687h78v-724z" />
    <glyph glyph-name="N" unicode="N" horiz-adv-x="745" 
d="M568 0l-409 683v-683h-47v724h77l398 -671v671h46v-724h-65z" />
    <glyph glyph-name="O" unicode="O" horiz-adv-x="781" 
d="M386 -12q-80 0 -139.5 28t-98.5 78.5t-58.5 119.5t-19.5 150t22 149.5t64 118t103.5 77.5t140.5 28q78 0 136.5 -27.5t97 -76t58 -114t19.5 -140.5q0 -89 -21 -161t-62.5 -123t-102 -79t-139.5 -28zM390 29q59 0 108.5 21.5t85.5 64.5t56.5 106.5t20.5 147.5
q0 78 -19 139t-54 102.5t-83.5 63.5t-106.5 22q-59 0 -109.5 -22t-88 -64.5t-58.5 -104.5t-21 -142t20 -142t55.5 -104.5t85 -65t108.5 -22.5z" />
    <glyph glyph-name="P" unicode="P" horiz-adv-x="612" 
d="M159 0h-47v724h209q69 0 115.5 -16.5t74.5 -45t39.5 -67t11.5 -81.5q0 -64 -19.5 -107.5t-55 -70.5t-85.5 -38.5t-112 -11.5h-131v-286zM291 329q46 0 86 6.5t70 26t47 56.5t17 97q0 85 -47 126.5t-157 41.5h-148v-354h132z" />
    <glyph glyph-name="Q" unicode="Q" horiz-adv-x="781" 
d="M386 -12q-81 0 -140.5 28t-98.5 78.5t-58 119.5t-19 150t22 149.5t64 118t103.5 77.5t140.5 28q78 0 136.5 -27.5t97 -76t58 -114t19.5 -140.5q0 -100 -26.5 -179t-77.5 -130l94 -103l-32 -27l-95 101q-39 -26 -85 -39.5t-103 -13.5zM390 31q86 0 149 45l-140 157l35 29
l143 -158q38 41 60.5 107t22.5 158q0 78 -19 139t-53.5 102.5t-83 63.5t-106.5 22q-59 0 -109.5 -22t-88 -64.5t-58.5 -104.5t-21 -142t19.5 -141.5t55 -104t85 -64.5t109.5 -22z" />
    <glyph glyph-name="R" unicode="R" horiz-adv-x="637" 
d="M602 0h-53l-180 321h-210v-321h-47v724h223q67 0 112 -15t71 -41t37 -60.5t11 -73.5q0 -83 -41 -133t-110 -69zM329 363q42 0 76.5 8.5t58.5 28t37.5 52.5t13.5 83q0 46 -14.5 75t-41.5 45.5t-64 22t-82 5.5h-154v-320h170z" />
    <glyph glyph-name="S" unicode="S" horiz-adv-x="578" 
d="M298 694q-51 0 -85.5 -11.5t-55.5 -31t-30 -45.5t-9 -55q0 -37 12.5 -62t34 -42t52 -29t66.5 -22q42 -12 84.5 -25t77 -35.5t56.5 -58t22 -91.5q0 -54 -19.5 -91.5t-52.5 -61t-76.5 -34.5t-91.5 -11q-63 0 -107 15t-73.5 41t-46.5 62t-24 78l49 10q6 -30 18.5 -59
t35.5 -51.5t58.5 -36.5t88.5 -14q33 0 66 6t60 22.5t44 45.5t17 74q0 44 -17 72.5t-45.5 46.5t-64.5 29.5t-73 21.5q-39 10 -75.5 23.5t-65 35.5t-45.5 55.5t-17 83.5q0 43 16.5 77.5t46.5 59t72 38t94 13.5q94 0 152.5 -46.5t72.5 -152.5l-46 -5q-6 27 -15 55.5t-28 52
t-50.5 38.5t-82.5 15z" />
    <glyph glyph-name="T" unicode="T" horiz-adv-x="532" 
d="M242 0v682h-222v42h492v-42h-222v-682h-48z" />
    <glyph glyph-name="U" unicode="U" horiz-adv-x="718" 
d="M360 32q47 0 84.5 9.5t63.5 32.5t40 61t14 95v494h48v-496q0 -120 -65 -180t-191 -60q-132 0 -189 63t-57 177v496h48v-492q0 -57 14.5 -95t41.5 -61.5t64.5 -33.5t83.5 -10z" />
    <glyph glyph-name="V" unicode="V" horiz-adv-x="614" 
d="M279 0l-249 724h53l230 -683h1l220 683h50l-236 -724h-69z" />
    <glyph glyph-name="W" unicode="W" horiz-adv-x="870" 
d="M615 0l-174 673h-3l-184 -673h-57l-157 724h51l137 -661h2l178 661h63l175 -673h2l135 673h47l-150 -724h-65z" />
    <glyph glyph-name="X" unicode="X" horiz-adv-x="607" 
d="M328 373l254 -373h-53l-231 338l-219 -338h-54l241 369l-229 355h54l205 -321l207 321h53z" />
    <glyph glyph-name="Y" unicode="Y" horiz-adv-x="538" 
d="M297 0h-48v287l-245 437h54l216 -384h1l210 384h49l-237 -433v-291z" />
    <glyph glyph-name="Z" unicode="Z" horiz-adv-x="585" 
d="M100 42h436v-42h-497v34l417 648h-404v42h467v-35z" />
    <glyph glyph-name="bracketleft" unicode="[" horiz-adv-x="239" 
d="M71 -143v867h127v-38h-83v-791h83v-38h-127z" />
    <glyph glyph-name="backslash" unicode="\" horiz-adv-x="333" 
d="M283 -92l-280 847h44l281 -847h-45z" />
    <glyph glyph-name="bracketright" unicode="]" horiz-adv-x="239" 
d="M41 -143v38h83v791h-83v38h127v-867h-127z" />
    <glyph glyph-name="asciicircum" unicode="^" horiz-adv-x="492" 
d="M418 299l-175 321l-173 -321h-48l197 365h51l200 -365h-52z" />
    <glyph glyph-name="underscore" unicode="_" horiz-adv-x="500" 
d="M0 -181v36h500v-36h-500z" />
    <glyph glyph-name="grave" unicode="`" horiz-adv-x="500" 
d="M144 751h72l113 -165l-41 -14z" />
    <glyph glyph-name="a" unicode="a" horiz-adv-x="536" 
d="M440 72q0 -21 5.5 -31.5t25.5 -10.5q11 0 31 6l4 -32q-15 -8 -26.5 -10t-27.5 -2q-33 0 -46.5 20.5t-11.5 43.5q-29 -29 -73.5 -48.5t-98.5 -19.5q-49 0 -78.5 15t-45.5 36t-21 45t-5 42q0 54 22.5 87.5t58 52t80 24.5t88.5 6q18 0 35 -0.5t34 -1.5v45q0 37 -5.5 63.5
t-19 43t-37 24t-59.5 7.5q-64 0 -92.5 -23.5t-36.5 -71.5l-47 8q12 71 57.5 99.5t122.5 28.5q45 0 76.5 -9t51.5 -29t29.5 -52.5t9.5 -79.5v-276zM391 252q-17 2 -36 2.5t-42 0.5q-38 0 -72.5 -5t-60.5 -18.5t-41 -37.5t-15 -63q0 -21 4.5 -39t16.5 -32t32 -22t52 -8
q48 0 92 20t70 52v150z" />
    <glyph glyph-name="b" unicode="b" horiz-adv-x="580" 
d="M95 0v755h48v-311q35 29 79.5 51.5t106.5 22.5q42 0 76.5 -13t58.5 -42.5t37.5 -77.5t13.5 -118q0 -74 -17 -127t-46.5 -87t-69.5 -49.5t-85 -15.5t-85.5 16.5t-68.5 38.5l-4 -43h-44zM144 93q10 -8 25 -18t35.5 -19.5t44.5 -16t52 -6.5q44 0 75 17.5t50.5 49.5
t28.5 75.5t9 96.5q0 58 -9.5 97t-28 62.5t-45 33.5t-60.5 10q-27 0 -53.5 -8t-50 -20t-42.5 -26t-31 -26v-302z" />
    <glyph glyph-name="c" unicode="c" horiz-adv-x="530" 
d="M285 -12q-63 0 -106 19.5t-69.5 54.5t-38 83.5t-11.5 106.5q0 135 62 200.5t174 65.5q36 0 68 -10.5t56 -31t39 -51.5t17 -72l-53 -6q-7 66 -39 97t-94 31q-32 0 -64 -10t-57.5 -35t-41.5 -66.5t-16 -104.5q0 -68 15 -111.5t39.5 -69t55.5 -35t63 -9.5q59 0 97 28t49 88
l50 -10q-7 -41 -26 -70t-45.5 -47t-58.5 -26.5t-65 -8.5z" />
    <glyph glyph-name="d" unicode="d" horiz-adv-x="581" 
d="M486 0h-42l-5 58q-37 -29 -79.5 -49.5t-101.5 -20.5q-42 0 -77.5 14.5t-61 46t-40 81t-14.5 119.5q0 73 17.5 124.5t47.5 83.5t69.5 46.5t83.5 14.5q45 0 84.5 -15t68.5 -35v287h50v-755zM437 419q-10 7 -26 17t-36 18t-44 14t-49 6q-46 0 -77.5 -16t-51 -46t-28 -71.5
t-8.5 -92.5q0 -109 36.5 -163t114.5 -54q52 0 96 23t73 54v311z" />
    <glyph glyph-name="e" unicode="e" horiz-adv-x="543" 
d="M284 -12q-66 0 -109 21.5t-68.5 58.5t-36 85t-10.5 101q0 70 19 120t51.5 82t74.5 47t88 15q51 0 87 -16t59 -44.5t33.5 -66.5t10.5 -81q0 -17 -1 -33t-4 -33h-366q1 -63 15.5 -103.5t38 -64t55 -32.5t67.5 -9q60 0 93 26.5t47 78.5l47 -9q-9 -39 -28 -66t-44 -44
t-55.5 -25t-63.5 -8zM432 287q2 91 -32 138.5t-113 47.5q-32 0 -62 -10t-54 -32.5t-40 -57.5t-19 -86h320z" />
    <glyph glyph-name="f" unicode="f" horiz-adv-x="299" 
d="M305 708q-15 5 -35 9t-38 4q-35 0 -57.5 -20.5t-22.5 -74.5v-118h146v-43h-146v-465h-49v465h-80v43h80v102q0 75 30.5 114t95.5 39q26 0 46 -4.5t33 -10.5z" />
    <glyph glyph-name="g" unicode="g" horiz-adv-x="547" 
d="M266 518q50 0 91.5 -14t67.5 -46q8 20 24 38t42 18q11 0 18.5 -1.5t17.5 -4.5v-50q-24 1 -49.5 -3.5t-43.5 -10.5q16 -18 24 -47t8 -60q0 -44 -15.5 -77.5t-42 -57t-62 -35.5t-75.5 -12q-29 0 -57 4t-45 11q-17 -13 -29.5 -27t-12.5 -34q0 -19 18.5 -30.5t68.5 -14.5
l140 -8q38 -2 68 -9t50.5 -21t31 -36.5t10.5 -56.5q0 -50 -24 -81t-61 -48t-81.5 -23.5t-84.5 -6.5q-74 0 -118 13t-67 33t-30 42.5t-7 42.5q0 25 7 44t19 34.5t27.5 27.5t31.5 24q-20 5 -35 22t-15 40q0 29 17.5 51.5t40.5 40.5q-35 17 -55.5 55t-20.5 85q0 44 15 79
t42.5 59.5t66 37.5t84.5 13zM414 336q0 72 -38.5 106t-107.5 34q-32 0 -60.5 -8t-49.5 -24.5t-33.5 -42.5t-12.5 -63q0 -30 8.5 -55t27 -43.5t47.5 -29t70 -10.5q68 0 108.5 36.5t40.5 99.5zM462 -65q0 15 -4.5 28t-16.5 23t-32 16.5t-50 8.5l-191 10q-32 -23 -53 -49
t-21 -61q0 -17 6.5 -33t25 -28.5t53 -20t90.5 -7.5q100 0 146.5 28t46.5 85z" />
    <glyph glyph-name="h" unicode="h" horiz-adv-x="578" 
d="M490 0h-49v340q0 63 -24.5 97.5t-89.5 34.5q-27 0 -55 -8t-52.5 -19.5t-45 -25t-32.5 -25.5v-394h-49v755h49v-312q45 32 93 53.5t101 21.5q81 0 117.5 -45t36.5 -131v-342z" />
    <glyph glyph-name="i" unicode="i" horiz-adv-x="236" 
d="M145 0h-49v508h49v-508zM169 677q0 -42 -46 -42t-46 42q0 43 46 43t46 -43z" />
    <glyph glyph-name="j" unicode="j" horiz-adv-x="233" 
d="M26 -223q-6 0 -17 1t-22 3t-22 5t-17 6l9 43q17 -6 36 -9t35 -3q33 0 50.5 19.5t17.5 64.5v601h49v-597q0 -69 -28.5 -101.5t-90.5 -32.5zM170 689q0 -42 -46 -42t-46 42q0 43 46 43t46 -43z" />
    <glyph glyph-name="k" unicode="k" horiz-adv-x="504" 
d="M142 245l254 263h59l-180 -187l193 -321h-53l-175 286l-98 -99v-187h-49v755h49v-510z" />
    <glyph glyph-name="l" unicode="l" horiz-adv-x="236" 
d="M145 0h-49v755h49v-755z" />
    <glyph glyph-name="m" unicode="m" horiz-adv-x="870" 
d="M142 0h-49v508h44l4 -67q44 32 88.5 54.5t98.5 22.5t83.5 -20t42.5 -57q44 32 89.5 54.5t99.5 22.5q42 0 68.5 -11.5t42.5 -34t22 -55.5t6 -76v-341h-49v339q0 32 -3.5 57t-13.5 42.5t-28.5 26.5t-49.5 9q-24 0 -49 -7.5t-48.5 -18.5t-43.5 -24t-34 -25q2 -14 3 -28.5
t1 -29.5v-341h-49v339q0 32 -3.5 57t-14 42.5t-29 26.5t-49.5 9q-25 0 -51.5 -8.5t-51 -20.5t-45 -26t-32.5 -26v-393z" />
    <glyph glyph-name="n" unicode="n" horiz-adv-x="578" 
d="M490 0h-49v340q0 63 -24.5 98t-88.5 35q-27 0 -55 -8t-53 -20t-45.5 -25.5t-32.5 -25.5v-394h-49v508h43l3 -66q45 32 94.5 54t103.5 22q81 0 117 -45t36 -131v-342z" />
    <glyph glyph-name="o" unicode="o" horiz-adv-x="572" 
d="M284 -12q-63 0 -106 20.5t-69.5 56t-37.5 83.5t-11 104q0 124 61.5 195t175.5 71q57 0 97.5 -18t66.5 -51.5t38.5 -80t12.5 -103.5q0 -63 -12.5 -114t-40 -87t-71 -56t-104.5 -20zM288 33q39 0 71 12.5t54.5 39.5t34.5 70t12 104q0 60 -11.5 101t-33 66t-52.5 36t-70 11
q-41 0 -74.5 -13t-58 -39.5t-38 -67.5t-13.5 -97q0 -223 179 -223z" />
    <glyph glyph-name="p" unicode="p" horiz-adv-x="580" 
d="M95 508h43l4 -65q15 13 35 26.5t43.5 24t51 17.5t58.5 7q40 0 73.5 -13t58.5 -42.5t39 -77.5t14 -118q0 -74 -17 -127t-46.5 -86.5t-68.5 -49.5t-82 -16q-48 0 -89 18t-70 38v-256h-47v720zM144 93q10 -8 25.5 -18.5t35 -20t44 -16t52.5 -6.5q44 0 75 17.5t50.5 49
t28.5 76t9 97.5q0 112 -34.5 158.5t-108.5 46.5q-27 0 -53 -7.5t-49 -19.5t-42.5 -26.5t-32.5 -28.5v-302z" />
    <glyph glyph-name="q" unicode="q" horiz-adv-x="580" 
d="M485 -212h-47v271q-35 -30 -78 -50.5t-102 -20.5q-43 0 -78.5 14.5t-61 46t-39.5 80.5t-14 119q0 74 17.5 125.5t47 83.5t69 46.5t83.5 14.5q45 0 83.5 -16.5t67.5 -35.5l3 42h49v-720zM436 411q-10 7 -25 18.5t-35 21.5t-45 17.5t-53 7.5q-87 0 -124.5 -62.5
t-37.5 -170.5q0 -112 38 -162.5t116 -50.5q52 0 94.5 24t71.5 54v303z" />
    <glyph glyph-name="r" unicode="r" horiz-adv-x="339" 
d="M327 469q-23 3 -49 -0.5t-51 -11.5t-47 -21t-38 -29v-407h-49v508h39l5 -68q36 39 81.5 60.5t108.5 17.5v-49z" />
    <glyph glyph-name="s" unicode="s" horiz-adv-x="477" 
d="M241 518q46 0 77 -11t50 -31t28.5 -48t12.5 -62l-47 -6q-3 27 -10 48.5t-21 36.5t-36.5 23t-56.5 8q-35 0 -58.5 -8t-37 -21t-19 -30t-5.5 -34q0 -27 10.5 -44.5t29 -29t43 -18t53.5 -12.5q30 -6 60.5 -14.5t54.5 -23.5t39 -40.5t15 -65.5q0 -64 -44 -105.5t-136 -41.5
q-80 0 -129.5 35t-61.5 121l47 9q5 -24 13 -45.5t24 -38.5t42 -27t67 -10q27 0 50 5.5t40 17.5t27 31t10 47q0 26 -9.5 43t-26.5 28.5t-40 18t-50 11.5q-32 6 -63.5 14t-57 23t-41.5 40.5t-16 67.5q0 35 14 61t38 43.5t55.5 26t65.5 8.5z" />
    <glyph glyph-name="t" unicode="t" horiz-adv-x="364" 
d="M344 18q-18 -13 -50 -21.5t-59 -8.5q-71 0 -100 30.5t-29 97.5v349h-81v43h81v145l49 8v-153h144v-43h-144v-339q0 -23 3.5 -41t12.5 -30.5t25 -19t42 -6.5q23 0 49 8t43 19z" />
    <glyph glyph-name="u" unicode="u" horiz-adv-x="581" 
d="M90 508h49v-340q0 -63 23.5 -98t87.5 -35q27 0 55 8t52.5 20t45 25.5t32.5 25.5v394h49v-508h-43l-3 65q-45 -32 -91 -53.5t-106 -21.5q-83 0 -117 45t-34 132v341z" />
    <glyph glyph-name="v" unicode="v" horiz-adv-x="483" 
d="M215 0l-202 508h54l177 -452h2l175 452h49l-198 -508h-57z" />
    <glyph glyph-name="w" unicode="w" horiz-adv-x="721" 
d="M179 0l-166 508h51l144 -459h2l123 459h62l122 -457h2l143 457h46l-163 -508h-61l-119 458h-2l-125 -458h-59z" />
    <glyph glyph-name="x" unicode="x" horiz-adv-x="464" 
d="M255 269l186 -269h-55l-158 229l-151 -229h-55l174 265l-171 243h55l145 -207l147 207h53z" />
    <glyph glyph-name="y" unicode="y" horiz-adv-x="457" 
d="M17 508h52l159 -441h1l163 441h52l-232 -603q-15 -37 -31 -61.5t-34.5 -39.5t-40 -21t-45.5 -6q-27 0 -50 6.5t-37 11.5l10 41q11 -5 34 -10.5t46 -5.5q16 0 30.5 4.5t28 16t25.5 31.5t24 51l29 77z" />
    <glyph glyph-name="z" unicode="z" horiz-adv-x="454" 
d="M92 40h334v-40h-393v33l323 433h-317v42h377v-34z" />
    <glyph glyph-name="braceleft" unicode="{" horiz-adv-x="284" 
d="M254 -145h-38q-38 0 -63 8t-40 22t-21 32.5t-6 40.5q0 25 2 53t4.5 55.5t4.5 53.5t2 47q0 29 -6.5 48t-17.5 30t-26 15t-32 4h-16v46h13q39 0 62 22t23 75q0 21 -2 51.5t-4.5 62.5t-4.5 62t-2 51q0 51 33.5 77t95.5 26h39v-43h-50q-37 -1 -52 -15.5t-15 -44.5
q0 -22 1.5 -50.5t4 -59t4 -61t1.5 -56.5q0 -32 -6 -53t-16 -34t-21.5 -20.5t-23.5 -11.5q12 -5 23.5 -12t21.5 -19.5t16 -33t6 -52.5q0 -53 -5 -107t-5 -94q0 -34 16.5 -54.5t64.5 -20.5h35v-40z" />
    <glyph glyph-name="bar" unicode="|" horiz-adv-x="280" 
d="M118 -143v898h44v-898h-44z" />
    <glyph glyph-name="braceright" unicode="}" horiz-adv-x="284" 
d="M30 737h38q37 0 62 -8t40 -22t21.5 -32.5t6.5 -40.5q0 -26 -2 -53.5t-4.5 -55t-4.5 -53.5t-2 -47q0 -29 6.5 -48t17.5 -30t26 -15t32 -4h16v-46h-13q-39 0 -62 -22t-23 -75q0 -21 2 -51.5t4.5 -62.5t4.5 -62t2 -51q0 -51 -33.5 -77t-95.5 -26h-39v43h50q37 1 52 15.5
t15 44.5q0 22 -1.5 50.5t-4 59t-4 61t-1.5 56.5q0 32 6 53t16 34t21.5 20t23.5 12q-12 5 -23.5 12t-21.5 19.5t-16 33t-6 52.5q0 53 5 107t5 94q0 34 -16.5 54.5t-64.5 20.5h-35v40z" />
    <glyph glyph-name="asciitilde" unicode="~" horiz-adv-x="459" 
d="M110 394q23 0 55.5 -7.5t65.5 -16.5t62.5 -16.5t46.5 -7.5q20 0 31.5 9.5t11.5 48.5l40 -1q4 -31 -2 -51t-18 -31.5t-28 -16t-31 -4.5q-22 0 -54 7.5t-65.5 16.5t-64 16.5t-48.5 7.5q-8 0 -15.5 -2.5t-13 -9t-8.5 -18.5t-2 -30l-37 2q-4 30 2 50t17.5 32t26 17t28.5 5z
" />
    <glyph glyph-name="uni00A0" unicode="&#xa0;" horiz-adv-x="242" 
 />
    <glyph glyph-name="exclamdown" unicode="&#xa1;" horiz-adv-x="249" 
d="M151 328l15 -545h-59l12 545h32zM83 468q0 51 52 51q24 0 37.5 -12.5t13.5 -38.5t-13.5 -38t-37.5 -12q-52 0 -52 50z" />
    <glyph glyph-name="cent" unicode="&#xa2;" horiz-adv-x="501" 
d="M297 691v-99q33 -2 60.5 -12.5t48.5 -29.5t33 -46.5t14 -64.5l-46 -6q-7 58 -32.5 84t-76.5 29v-402q51 5 77.5 32t38.5 79l44 -10q-12 -71 -56.5 -105t-103.5 -41v-99h-39v99q-49 3 -84.5 23t-59 52.5t-34.5 76t-11 95.5q0 57 13.5 100.5t38.5 74t59 48t76 22.5v100h40z
M121 352q0 -38 6.5 -74t22.5 -64.5t42.5 -47t66.5 -22.5v401q-27 -3 -51.5 -14t-44 -33.5t-31 -58t-11.5 -87.5z" />
    <glyph glyph-name="sterling" unicode="&#xa3;" horiz-adv-x="538" 
d="M80 42q46 44 68.5 90.5t22.5 92.5q0 52 -28 106h-109v41h85q-7 13 -15 30t-15.5 37.5t-12.5 44t-5 49.5q0 45 16 82.5t44.5 64.5t67.5 42t84 15q90 0 138.5 -42t58.5 -138l-46 -5q-8 69 -40.5 105t-108.5 36q-35 0 -65 -9.5t-52.5 -28t-35.5 -47t-13 -67.5q0 -26 5 -50
t12.5 -45.5t16 -40t15.5 -33.5h247v-41h-224q24 -57 24 -110q0 -49 -20.5 -95t-58.5 -84h215q55 0 79 28.5t35 91.5l49 -11q-12 -82 -54 -116.5t-113 -34.5h-320v42h53z" />
    <glyph glyph-name="currency" unicode="&#xa4;" 
d="M521 13l-94 92q-27 -21 -61.5 -32.5t-78.5 -11.5q-47 0 -82.5 12t-61.5 34q1 1 -5.5 -5.5t-17.5 -17t-23.5 -23.5t-23 -24t-17.5 -18t-6 -6l-39 37l96 96q-18 29 -26.5 64t-8.5 73q0 68 37 128l-95 94l43 39l91 -91q28 23 64.5 36.5t81.5 13.5t82 -12t63 -35l87 87
l39 -37l-90 -92q34 -53 34 -127q0 -39 -10 -74.5t-31 -66.5l96 -95zM292 107q39 0 69 13.5t50.5 37t31.5 55.5t11 70q0 82 -42.5 127.5t-122.5 45.5q-78 0 -120.5 -47.5t-42.5 -125.5q0 -38 10.5 -70t31 -55.5t51.5 -37t73 -13.5z" />
    <glyph glyph-name="yen" unicode="&#xa5;" horiz-adv-x="499" 
d="M280 248v-248h-49v248h-137v42h137v99h-137v42h106l-170 293h57l169 -299h1l162 299h52l-164 -293h109v-42h-136v-99h136v-42h-136z" />
    <glyph glyph-name="brokenbar" unicode="&#xa6;" horiz-adv-x="280" 
d="M118 -143v388h44v-388h-44zM118 408v347h44v-347h-44z" />
    <glyph glyph-name="section" unicode="&#xa7;" horiz-adv-x="534" 
d="M52 259q0 41 25.5 76.5t76.5 71.5q-32 23 -49.5 53t-17.5 78q0 44 15.5 76t42.5 53t63.5 31.5t77.5 10.5q93 0 143 -48.5t53 -129.5l-50 -8q-8 66 -42.5 103t-108.5 37q-72 0 -106.5 -35t-34.5 -83q0 -50 26 -76.5t65.5 -42t85 -26t85 -28.5t65.5 -49t26 -87
q0 -42 -27.5 -81t-72.5 -67q28 -19 46.5 -49.5t18.5 -78.5q0 -44 -15.5 -76.5t-42.5 -54.5t-63.5 -32.5t-77.5 -10.5q-93 0 -143 48.5t-53 129.5l53 8q6 -67 39.5 -103t106.5 -36q72 0 107.5 35.5t35.5 91.5q0 48 -26 73t-65.5 39.5t-85 24t-85 27t-65.5 48t-26 87.5z
M104 256q0 -41 23.5 -63t59.5 -35.5t79.5 -23t82.5 -25.5q42 27 67 58.5t25 70.5q0 41 -23.5 63.5t-59.5 36.5t-79 23.5t-82 25.5q-43 -29 -68 -60.5t-25 -70.5z" />
    <glyph glyph-name="dieresis" unicode="&#xa8;" horiz-adv-x="500" 
d="M198 665q0 -20 -12 -31t-32 -11q-21 0 -33 11t-12 31t12 31t33 11q20 0 32 -11t12 -31zM389 665q0 -20 -12 -31t-32 -11t-32.5 11t-12.5 31t12.5 31t32.5 11t32 -11t12 -31z" />
    <glyph glyph-name="copyright" unicode="&#xa9;" horiz-adv-x="750" 
d="M701 313q0 -73 -24 -133t-67 -102.5t-103 -66t-133 -23.5q-81 0 -142 24t-101.5 66t-61 98.5t-20.5 122.5q0 76 25.5 136.5t70 102.5t104 64t127.5 22q76 0 136 -22t102 -62.5t64.5 -98t22.5 -128.5zM376 21q66 0 118 20t89 57t56.5 90t19.5 119q0 69 -21 122t-58.5 89
t-89.5 54t-114 18q-61 0 -113 -19.5t-90 -56.5t-59.5 -91t-21.5 -123q0 -65 19.5 -116.5t56.5 -87.5t89.5 -55.5t118.5 -19.5zM525 241q-5 -39 -20.5 -63.5t-36 -38.5t-44 -19t-45.5 -5q-48 0 -82.5 14.5t-56.5 41t-32 62t-10 77.5t12 78t35 61.5t57 40t78 14.5
q28 0 52.5 -6.5t43.5 -21.5t30.5 -39t13.5 -59l-45 -6q-4 46 -26 69.5t-70 23.5q-27 0 -51 -8.5t-42 -27.5t-28.5 -48.5t-10.5 -72.5q0 -32 7.5 -60t23 -48.5t40 -32.5t58.5 -12q27 0 45.5 6t30.5 17.5t19.5 29t12.5 40.5z" />
    <glyph glyph-name="ordfeminine" unicode="&#xaa;" horiz-adv-x="364" 
d="M298 336q0 -14 4.5 -19.5t16.5 -5.5q8 0 20 3l3 -28q-10 -6 -19.5 -8t-20.5 -2q-24 0 -35 12.5t-11 29.5q-19 -19 -47 -31.5t-63 -12.5q-32 0 -51 9.5t-30 23t-14.5 28.5t-3.5 27q0 34 14.5 55.5t37.5 33.5t52.5 16.5t58.5 4.5q14 0 23.5 -0.5t19.5 -0.5v38
q0 31 -14.5 50t-58.5 19q-38 0 -55 -14t-22 -43l-41 7q7 47 37.5 66.5t84.5 19.5q60 0 87 -24.5t27 -85.5v-168zM254 435q-8 1 -17.5 1.5t-23.5 0.5q-17 0 -37.5 -1.5t-38.5 -8t-30 -20t-12 -37.5t12 -41.5t51 -17.5q29 0 54.5 13t41.5 30v81z" />
    <glyph glyph-name="guillemotleft" unicode="&#xab;" horiz-adv-x="415" 
d="M159 103l-88 158l89 147h54l-84 -146l84 -159h-55zM301 103l-88 158l89 147h54l-84 -146l84 -159h-55z" />
    <glyph glyph-name="logicalnot" unicode="&#xac;" 
d="M411 207v94h-310v51h370v-145h-60z" />
    <glyph glyph-name="uni00AD" unicode="&#xad;" horiz-adv-x="311" 
d="M20 271v51h271v-51h-271z" />
    <glyph glyph-name="registered" unicode="&#xae;" horiz-adv-x="443" 
d="M403 482q0 -41 -13.5 -74t-37.5 -57t-57.5 -37t-73.5 -13q-45 0 -79 13.5t-56.5 36.5t-34 55t-11.5 69q0 42 14 75.5t39 57t58 36t71 12.5q85 0 133 -47.5t48 -126.5zM367 479q0 71 -41 107.5t-104 36.5q-30 0 -56.5 -10t-46 -28.5t-30.5 -46t-11 -62.5
q0 -67 38.5 -104.5t105.5 -37.5q68 0 106.5 38.5t38.5 106.5zM308 385h-35l-46 77h-30v-77h-34v191h65q38 0 50 -16.5t12 -37.5q0 -19 -8.5 -30.5t-24.5 -19.5zM210 488q20 0 33 6t13 28q0 17 -10 22.5t-29 5.5h-20v-62h13z" />
    <glyph glyph-name="macron" unicode="&#xaf;" horiz-adv-x="500" 
d="M111 645v45h277v-45h-277z" />
    <glyph glyph-name="degree" unicode="&#xb0;" horiz-adv-x="299" 
d="M152 576q29 0 43.5 17.5t14.5 48.5q0 64 -58 64q-28 0 -44 -16.5t-16 -51.5q0 -62 60 -62zM259 642q0 -51 -28 -79.5t-79 -28.5t-80 27.5t-29 76.5q0 55 31.5 82.5t77.5 27.5q48 0 77.5 -26t29.5 -80z" />
    <glyph glyph-name="plusminus" unicode="&#xb1;" 
d="M261 134v165h-161v47h161v158h48v-158h161v-47h-161v-165h-48zM100 0v43h370v-43h-370z" />
    <glyph glyph-name="twosuperior" unicode="&#xb2;" horiz-adv-x="372" 
d="M191 797q53 0 86 -26t33 -83q0 -26 -7 -48.5t-20 -44.5t-31 -45t-40 -51l-97 -106h202v-44h-257v40l107 126q23 28 40.5 50t29.5 41.5t18 38.5t6 42q0 37 -20.5 52.5t-56.5 15.5q-23 0 -38 -6t-24 -16.5t-13.5 -24.5t-7.5 -30l-44 9q9 58 44.5 84t89.5 26z" />
    <glyph glyph-name="threesuperior" unicode="&#xb3;" horiz-adv-x="390" 
d="M95 456q3 -15 8 -28t14 -22.5t23.5 -15.5t37.5 -6q37 0 64 20t27 69t-28 67.5t-72 18.5h-39v41h29q49 0 76.5 24.5t27.5 62.5q0 29 -15.5 48t-59.5 19q-43 0 -59.5 -17t-24.5 -47l-44 9q11 54 47 76t86 22q59 0 88.5 -29t29.5 -75q0 -25 -8.5 -43.5t-21 -31t-28 -20.5
t-30.5 -12v-1q44 -8 70 -34.5t26 -79.5q0 -58 -38 -93.5t-103 -35.5q-54 0 -88.5 26.5t-40.5 78.5z" />
    <glyph glyph-name="acute" unicode="&#xb4;" horiz-adv-x="500" 
d="M218 572l-42 14l113 165h72z" />
    <glyph glyph-name="mu" unicode="&#xb5;" horiz-adv-x="629" 
d="M114 508h49v-337q0 -74 21 -108.5t80 -34.5q33 0 63 10.5t55 26.5t45 34.5t34 34.5v374h49v-508h-51v78q-17 -17 -38.5 -33.5t-46 -30t-51.5 -21.5t-56 -8q-42 0 -69 13.5t-40 33.5l-3 -3l7 -205h-48v684z" />
    <glyph glyph-name="paragraph" unicode="&#xb6;" horiz-adv-x="535" 
d="M432 -133h-49v811h-104v-811h-49v386q-99 10 -156.5 69t-57.5 158q0 67 22.5 113.5t60 75.5t87 42t104.5 13h142v-857z" />
    <glyph glyph-name="periodcentered" unicode="&#xb7;" horiz-adv-x="163" 
d="M133 300q0 -51 -52 -51q-24 0 -38 12.5t-14 38.5t14 38.5t38 12.5q52 0 52 -51z" />
    <glyph glyph-name="cedilla" unicode="&#xb8;" horiz-adv-x="500" 
d="M153 -159q8 -6 23.5 -12.5t33.5 -6.5q27 0 39.5 15t12.5 35q0 26 -17.5 40t-63.5 15l14 103l38 -7l-9 -66q16 -2 31 -7.5t27 -15t19 -24.5t7 -36q0 -40 -27 -65.5t-68 -25.5q-29 0 -48 8t-27 16z" />
    <glyph glyph-name="onesuperior" unicode="&#xb9;" horiz-adv-x="283" 
d="M145 347v372q-8 -5 -21.5 -8.5t-27.5 -6t-27.5 -4t-21.5 -1.5l-3 37q44 3 73 15t50 36h26v-440h-48z" />
    <glyph glyph-name="ordmasculine" unicode="&#xba;" horiz-adv-x="387" 
d="M192 274q-43 0 -72 13t-46.5 36t-25 54t-7.5 67q0 79 41 124.5t119 45.5q76 0 110.5 -45t34.5 -117q0 -40 -8.5 -73t-27 -56t-48 -36t-70.5 -13zM196 314q48 0 75 30.5t27 103.5q0 71 -26.5 99t-73.5 28q-49 0 -79.5 -30.5t-30.5 -99.5q0 -68 27 -99.5t81 -31.5z" />
    <glyph glyph-name="guillemotright" unicode="&#xbb;" horiz-adv-x="415" 
d="M115 408l88 -156l-89 -149h-55l88 148l-86 157h54zM257 408l88 -156l-89 -149h-55l88 148l-86 157h54z" />
    <glyph glyph-name="onequarter" unicode="&#xbc;" horiz-adv-x="829" 
d="M185 -12l356 736h47l-355 -736h-48zM163 279v372q-8 -5 -21.5 -8.5t-27.5 -6t-27.5 -4t-21.5 -1.5l-3 37q44 3 73 15t50 36h26v-440h-48zM648 0v108h-210v38l197 294h61v-289h53v-43h-53v-108h-48zM649 151v239l-159 -239h159z" />
    <glyph glyph-name="onehalf" unicode="&#xbd;" horiz-adv-x="829" 
d="M156 -12l356 736h47l-355 -736h-48zM165 279v372q-8 -5 -21.5 -8.5t-27.5 -6t-27.5 -4t-21.5 -1.5l-3 37q44 3 73 15t50 36h26v-440h-48zM622 448q53 0 86 -26t33 -83q0 -26 -7 -48.5t-20 -44.5t-31 -45t-40 -51l-97 -106h202v-44h-257v40l107 126q23 28 40.5 50
t29.5 41.5t18 38.5t6 42q0 37 -20.5 52.5t-56.5 15.5q-23 0 -38 -6t-24 -16.5t-13.5 -24.5t-7.5 -30l-44 9q9 58 44.5 84t89.5 26z" />
    <glyph glyph-name="threequarters" unicode="&#xbe;" horiz-adv-x="829" 
d="M217 -12l356 736h47l-355 -736h-48zM670 0v108h-210v38l197 294h61v-289h53v-43h-53v-108h-48zM671 151v239l-159 -239h159zM90 388q3 -15 8 -28t14 -22.5t23.5 -15.5t37.5 -6q37 0 64 20t27 69t-28 67.5t-72 18.5h-39v41h29q49 0 76.5 24.5t27.5 62.5q0 29 -15.5 48
t-59.5 19q-43 0 -59.5 -17t-24.5 -47l-44 9q11 54 47 76t86 22q59 0 88.5 -29t29.5 -75q0 -25 -8.5 -43.5t-21 -31t-28 -20.5t-30.5 -12v-1q44 -8 70 -34.5t26 -79.5q0 -58 -38 -93.5t-103 -35.5q-54 0 -88.5 26.5t-40.5 78.5z" />
    <glyph glyph-name="questiondown" unicode="&#xbf;" horiz-adv-x="440" 
d="M312 329v-175q-44 -4 -83.5 -14t-69.5 -30t-48 -52.5t-18 -82.5q0 -46 11.5 -75t32 -45.5t47 -22.5t56.5 -6q27 0 52 5t45.5 18.5t36 38t25.5 62.5l43 -9q-6 -24 -18 -51.5t-35.5 -50.5t-60 -38t-90.5 -15q-39 0 -74.5 9t-61.5 30t-41.5 55.5t-15.5 86.5q0 56 18 95
t49 64.5t71.5 40t84.5 21.5v141h44zM240 468q0 26 13.5 38.5t37.5 12.5t38 -12.5t14 -38.5t-14 -38t-38 -12t-37.5 12t-13.5 38z" />
    <glyph glyph-name="Agrave" unicode="&#xc0;" horiz-adv-x="637" 
d="M353 724l249 -724h-54l-84 248h-295l-84 -248h-50l248 724h70zM316 693v0l-133 -403h267zM214 911h73l105 -130l-43 -14z" />
    <glyph glyph-name="Aacute" unicode="&#xc1;" horiz-adv-x="637" 
d="M353 724l249 -724h-54l-84 248h-295l-84 -248h-50l248 724h70zM316 693v0l-133 -403h267zM291 767l-42 14l104 130h73z" />
    <glyph glyph-name="Acircumflex" unicode="&#xc2;" horiz-adv-x="637" 
d="M353 724l249 -724h-54l-84 248h-295l-84 -248h-50l248 724h70zM316 693v0l-133 -403h267zM317 852l-90 -85l-48 11l123 116h36l123 -116l-50 -9z" />
    <glyph glyph-name="Atilde" unicode="&#xc3;" horiz-adv-x="637" 
d="M353 724l249 -724h-54l-84 248h-295l-84 -248h-50l248 724h70zM316 693l-133 -403h267zM240 877q23 0 43.5 -7t39 -15.5t36 -15.5t34.5 -7q20 0 31.5 9.5t11.5 48.5l38 -2q4 -31 -2 -50.5t-17 -31t-26.5 -16t-31.5 -4.5q-22 0 -42 7t-39.5 16t-38 16t-36.5 7
q-16 0 -28 -11.5t-11 -48.5l-36 2q-4 30 1.5 50t17 31.5t26 16.5t29.5 5z" />
    <glyph glyph-name="Adieresis" unicode="&#xc4;" horiz-adv-x="637" 
d="M353 724l249 -724h-54l-84 248h-295l-84 -248h-50l248 724h70zM316 693l-133 -403h267zM267 826q0 -20 -12 -31t-32 -11q-21 0 -33 11t-12 31t12 31t33 11q20 0 32 -11t12 -31zM458 826q0 -20 -12 -31t-32 -11t-32.5 11t-12.5 31t12.5 31t32.5 11t32 -11t12 -31z" />
    <glyph glyph-name="Aring" unicode="&#xc5;" horiz-adv-x="637" 
d="M420 810q0 -36 -17 -60t-48 -33l247 -717h-54l-84 248h-295l-84 -248h-50l245 717q-29 8 -46 30.5t-17 56.5q0 50 30 74.5t71 24.5q42 0 72 -21.5t30 -71.5zM316 693l-133 -403h267zM318 750q29 0 42 17t13 43q0 55 -55 55q-25 0 -41 -15t-16 -44q0 -26 14 -41t43 -15z
" />
    <glyph glyph-name="AE" unicode="&#xc6;" horiz-adv-x="998" 
d="M577 42h358v-42h-407v339h-236l-197 -339h-53l422 724h463v-42h-350v-300h327v-43h-327v-297zM528 682h-40l-170 -301h210v301z" />
    <glyph glyph-name="Ccedilla" unicode="&#xc7;" horiz-adv-x="716" 
d="M311 -165q8 -6 23.5 -12.5t33.5 -6.5q27 0 39.5 15t12.5 35q0 26 -17.5 40t-63.5 15l9 68q-74 5 -127 33.5t-86.5 76t-49 111t-15.5 138.5q0 96 24 169t67.5 121.5t104 73.5t132.5 25q109 0 178 -56t80 -174l-46 -4q-7 46 -21.5 82t-40 60.5t-63 37.5t-88.5 13
q-63 0 -114 -22t-87 -65t-56 -106.5t-20 -146.5q0 -87 18.5 -149t52.5 -101.5t82.5 -58t108.5 -18.5q94 0 148 39t77 131l42 -10q-11 -55 -35.5 -93t-59 -61.5t-77 -34.5t-90.5 -12l-5 -37q16 -2 31 -7.5t27 -15t19 -24.5t7 -36q0 -40 -27 -65.5t-68 -25.5q-29 0 -48 8
t-27 16z" />
    <glyph glyph-name="Egrave" unicode="&#xc8;" 
d="M160 42h358v-42h-406v724h398v-42h-350v-292h327v-43h-327v-305zM209 911h73l105 -130l-43 -14z" />
    <glyph glyph-name="Eacute" unicode="&#xc9;" 
d="M160 42h358v-42h-406v724h398v-42h-350v-292h327v-43h-327v-305zM286 767l-42 14l104 130h73z" />
    <glyph glyph-name="Ecircumflex" unicode="&#xca;" 
d="M160 42h358v-42h-406v724h398v-42h-350v-292h327v-43h-327v-305zM312 852l-90 -85l-48 11l123 116h36l123 -116l-50 -9z" />
    <glyph glyph-name="Edieresis" unicode="&#xcb;" 
d="M160 42h358v-42h-406v724h398v-42h-350v-292h327v-43h-327v-305zM262 826q0 -20 -12 -31t-32 -11q-21 0 -33 11t-12 31t12 31t33 11q20 0 32 -11t12 -31zM453 826q0 -20 -12 -31t-32 -11t-32.5 11t-12.5 31t12.5 31t32.5 11t32 -11t12 -31z" />
    <glyph glyph-name="Igrave" unicode="&#xcc;" horiz-adv-x="272" 
d="M160 0h-48v724h48v-724zM32 911h73l105 -130l-43 -14z" />
    <glyph glyph-name="Iacute" unicode="&#xcd;" horiz-adv-x="272" 
d="M160 0h-48v724h48v-724zM109 767l-42 14l104 130h73z" />
    <glyph glyph-name="Icircumflex" unicode="&#xce;" horiz-adv-x="272" 
d="M160 0h-48v724h48v-724zM135 852l-90 -85l-48 11l123 116h36l123 -116l-50 -9z" />
    <glyph glyph-name="Idieresis" unicode="&#xcf;" horiz-adv-x="272" 
d="M160 0h-48v724h48v-724zM85 826q0 -20 -12 -31t-32 -11q-21 0 -33 11t-12 31t12 31t33 11q20 0 32 -11t12 -31zM276 826q0 -20 -12 -31t-32 -11t-32.5 11t-12.5 31t12.5 31t32.5 11t32 -11t12 -31z" />
    <glyph glyph-name="Eth" unicode="&#xd0;" horiz-adv-x="741" 
d="M17 391h95v333h200q94 0 162 -24.5t111.5 -70t64.5 -110.5t21 -146q0 -83 -22.5 -152t-68.5 -118t-117 -76t-168 -27h-183v349h-95v42zM303 41q153 0 235 83t82 244q0 91 -22 151.5t-62.5 97t-98 51.5t-129.5 15h-148v-292h261v-42h-261v-308h143z" />
    <glyph glyph-name="Ntilde" unicode="&#xd1;" horiz-adv-x="745" 
d="M568 0l-409 683v-683h-47v724h77l398 -671v671h46v-724h-65zM301 877q23 0 43.5 -7t39 -15.5t36 -15.5t34.5 -7q20 0 31.5 9.5t11.5 48.5l38 -2q4 -31 -2 -50.5t-17 -31t-26.5 -16t-31.5 -4.5q-22 0 -42 7t-39.5 16t-38 16t-36.5 7q-16 0 -28 -11.5t-11 -48.5l-36 2
q-4 30 1.5 50t17 31.5t26 16.5t29.5 5z" />
    <glyph glyph-name="Ograve" unicode="&#xd2;" horiz-adv-x="781" 
d="M386 -12q-80 0 -139.5 28t-98.5 78.5t-58.5 119.5t-19.5 150t22 149.5t64 118t103.5 77.5t140.5 28q78 0 136.5 -27.5t97 -76t58 -114t19.5 -140.5q0 -89 -21 -161t-62.5 -123t-102 -79t-139.5 -28zM390 29q59 0 108.5 21.5t85.5 64.5t56.5 106.5t20.5 147.5
q0 78 -19 139t-54 102.5t-83.5 63.5t-106.5 22q-59 0 -109.5 -22t-88 -64.5t-58.5 -104.5t-21 -142t20 -142t55.5 -104.5t85 -65t108.5 -22.5zM292 911h73l105 -130l-43 -14z" />
    <glyph glyph-name="Oacute" unicode="&#xd3;" horiz-adv-x="781" 
d="M386 -12q-80 0 -139.5 28t-98.5 78.5t-58.5 119.5t-19.5 150t22 149.5t64 118t103.5 77.5t140.5 28q78 0 136.5 -27.5t97 -76t58 -114t19.5 -140.5q0 -89 -21 -161t-62.5 -123t-102 -79t-139.5 -28zM390 29q59 0 108.5 21.5t85.5 64.5t56.5 106.5t20.5 147.5
q0 78 -19 139t-54 102.5t-83.5 63.5t-106.5 22q-59 0 -109.5 -22t-88 -64.5t-58.5 -104.5t-21 -142t20 -142t55.5 -104.5t85 -65t108.5 -22.5zM369 767l-42 14l104 130h73z" />
    <glyph glyph-name="Ocircumflex" unicode="&#xd4;" horiz-adv-x="781" 
d="M386 -12q-80 0 -139.5 28t-98.5 78.5t-58.5 119.5t-19.5 150t22 149.5t64 118t103.5 77.5t140.5 28q78 0 136.5 -27.5t97 -76t58 -114t19.5 -140.5q0 -89 -21 -161t-62.5 -123t-102 -79t-139.5 -28zM390 29q59 0 108.5 21.5t85.5 64.5t56.5 106.5t20.5 147.5
q0 78 -19 139t-54 102.5t-83.5 63.5t-106.5 22q-59 0 -109.5 -22t-88 -64.5t-58.5 -104.5t-21 -142t20 -142t55.5 -104.5t85 -65t108.5 -22.5zM395 852l-90 -85l-48 11l123 116h36l123 -116l-50 -9z" />
    <glyph glyph-name="Otilde" unicode="&#xd5;" horiz-adv-x="781" 
d="M386 -12q-80 0 -139.5 28t-98.5 78.5t-58.5 119.5t-19.5 150t22 149.5t64 118t103.5 77.5t140.5 28q78 0 136.5 -27.5t97 -76t58 -114t19.5 -140.5q0 -89 -21 -161t-62.5 -123t-102 -79t-139.5 -28zM390 29q59 0 108.5 21.5t85.5 64.5t56.5 106.5t20.5 147.5
q0 78 -19 139t-54 102.5t-83.5 63.5t-106.5 22q-59 0 -109.5 -22t-88 -64.5t-58.5 -104.5t-21 -142t20 -142t55.5 -104.5t85 -65t108.5 -22.5zM318 877q23 0 43.5 -7t39 -15.5t36 -15.5t34.5 -7q20 0 31.5 9.5t11.5 48.5l38 -2q4 -31 -2 -50.5t-17 -31t-26.5 -16t-31.5 -4.5
q-22 0 -42 7t-39.5 16t-38 16t-36.5 7q-16 0 -28 -11.5t-11 -48.5l-36 2q-4 30 1.5 50t17 31.5t26 16.5t29.5 5z" />
    <glyph glyph-name="Odieresis" unicode="&#xd6;" horiz-adv-x="781" 
d="M386 -12q-80 0 -139.5 28t-98.5 78.5t-58.5 119.5t-19.5 150t22 149.5t64 118t103.5 77.5t140.5 28q78 0 136.5 -27.5t97 -76t58 -114t19.5 -140.5q0 -89 -21 -161t-62.5 -123t-102 -79t-139.5 -28zM390 29q59 0 108.5 21.5t85.5 64.5t56.5 106.5t20.5 147.5
q0 78 -19 139t-54 102.5t-83.5 63.5t-106.5 22q-59 0 -109.5 -22t-88 -64.5t-58.5 -104.5t-21 -142t20 -142t55.5 -104.5t85 -65t108.5 -22.5zM345 826q0 -20 -12 -31t-32 -11q-21 0 -33 11t-12 31t12 31t33 11q20 0 32 -11t12 -31zM536 826q0 -20 -12 -31t-32 -11t-32.5 11
t-12.5 31t12.5 31t32.5 11t32 -11t12 -31z" />
    <glyph glyph-name="multiply" unicode="&#xd7;" 
d="M399 171l-117 117l-114 -114l-33 33l114 114l-112 112l34 34l112 -112l114 114l33 -33l-114 -114l117 -117z" />
    <glyph glyph-name="Oslash" unicode="&#xd8;" horiz-adv-x="781" 
d="M386 -12q-33 0 -62.5 5t-55.5 14l-32 -77h-53l41 98q-78 45 -116 133t-38 203q0 81 22 149.5t64 118t103.5 77.5t140.5 28q61 0 113 -19l32 76h51l-40 -95q78 -45 116.5 -129t38.5 -191q0 -89 -21 -161t-62.5 -123t-102 -79t-139.5 -28zM390 29q59 0 108.5 21.5
t85.5 64.5t56.5 106.5t20.5 147.5q0 103 -33 175.5t-90 110.5l-252 -606q48 -20 104 -20zM121 363q0 -103 32.5 -176.5t89.5 -113.5l253 605q-45 18 -98 18q-59 0 -109.5 -22t-88 -64.5t-58.5 -104.5t-21 -142z" />
    <glyph glyph-name="Ugrave" unicode="&#xd9;" horiz-adv-x="718" 
d="M360 32q47 0 84.5 9.5t63.5 32.5t40 61t14 95v494h48v-496q0 -120 -65 -180t-191 -60q-132 0 -189 63t-57 177v496h48v-492q0 -57 14.5 -95t41.5 -61.5t64.5 -33.5t83.5 -10zM255 911h73l105 -130l-43 -14z" />
    <glyph glyph-name="Uacute" unicode="&#xda;" horiz-adv-x="718" 
d="M360 32q47 0 84.5 9.5t63.5 32.5t40 61t14 95v494h48v-496q0 -120 -65 -180t-191 -60q-132 0 -189 63t-57 177v496h48v-492q0 -57 14.5 -95t41.5 -61.5t64.5 -33.5t83.5 -10zM332 767l-42 14l104 130h73z" />
    <glyph glyph-name="Ucircumflex" unicode="&#xdb;" horiz-adv-x="718" 
d="M360 32q47 0 84.5 9.5t63.5 32.5t40 61t14 95v494h48v-496q0 -120 -65 -180t-191 -60q-132 0 -189 63t-57 177v496h48v-492q0 -57 14.5 -95t41.5 -61.5t64.5 -33.5t83.5 -10zM358 852l-90 -85l-48 11l123 116h36l123 -116l-50 -9z" />
    <glyph glyph-name="Udieresis" unicode="&#xdc;" horiz-adv-x="718" 
d="M360 32q47 0 84.5 9.5t63.5 32.5t40 61t14 95v494h48v-496q0 -120 -65 -180t-191 -60q-132 0 -189 63t-57 177v496h48v-492q0 -57 14.5 -95t41.5 -61.5t64.5 -33.5t83.5 -10zM308 826q0 -20 -12 -31t-32 -11q-21 0 -33 11t-12 31t12 31t33 11q20 0 32 -11t12 -31z
M499 826q0 -20 -12 -31t-32 -11t-32.5 11t-12.5 31t12.5 31t32.5 11t32 -11t12 -31z" />
    <glyph glyph-name="Yacute" unicode="&#xdd;" horiz-adv-x="538" 
d="M297 0h-48v287l-245 437h54l216 -384h1l210 384h49l-237 -433v-291zM246 767l-42 14l104 130h73z" />
    <glyph glyph-name="Thorn" unicode="&#xde;" horiz-adv-x="612" 
d="M159 0h-47v724h46v-131h163q69 0 115.5 -17t74.5 -45.5t39.5 -65.5t11.5 -77q0 -62 -19.5 -104.5t-55 -69t-85.5 -38t-112 -11.5h-131v-165zM291 208q46 0 86 6.5t70 25.5t47 54.5t17 94.5q0 38 -11.5 68.5t-36 51.5t-63 32t-93.5 11h-148v-344h132z" />
    <glyph glyph-name="germandbls" unicode="&#xdf;" horiz-adv-x="660" 
d="M93 0v537q0 63 16 107t45.5 71.5t70 39.5t89.5 12q107 0 158 -45.5t51 -128.5q0 -67 -34 -109t-85 -60v-3q44 -7 80 -22t62 -40t40 -61.5t14 -87.5q0 -105 -51.5 -163t-141.5 -58q-83 0 -128 36.5t-59 118.5l49 10q4 -25 13.5 -47t25.5 -38t39.5 -25.5t57.5 -9.5
q69 0 106 43.5t37 121.5q0 55 -17.5 91.5t-47 58.5t-69.5 31t-85 9h-43v46h14q48 0 81 13.5t53.5 35t29 48t8.5 52.5q0 73 -42 105t-116 32q-39 0 -71 -8.5t-54.5 -30.5t-34.5 -60t-12 -98v-524h-49z" />
    <glyph glyph-name="agrave" unicode="&#xe0;" horiz-adv-x="536" 
d="M440 72q0 -21 5.5 -31.5t25.5 -10.5q11 0 31 6l4 -32q-15 -8 -26.5 -10t-27.5 -2q-33 0 -46.5 20.5t-11.5 43.5q-29 -29 -73.5 -48.5t-98.5 -19.5q-49 0 -78.5 15t-45.5 36t-21 45t-5 42q0 54 22.5 87.5t58 52t80 24.5t88.5 6q18 0 35 -0.5t34 -1.5v45q0 37 -5.5 63.5
t-19 43t-37 24t-59.5 7.5q-64 0 -92.5 -23.5t-36.5 -71.5l-47 8q12 71 57.5 99.5t122.5 28.5q45 0 76.5 -9t51.5 -29t29.5 -52.5t9.5 -79.5v-276zM391 252q-17 2 -36 2.5t-42 0.5q-38 0 -72.5 -5t-60.5 -18.5t-41 -37.5t-15 -63q0 -21 4.5 -39t16.5 -32t32 -22t52 -8
q48 0 92 20t70 52v150zM166 751h72l113 -165l-41 -14z" />
    <glyph glyph-name="aacute" unicode="&#xe1;" horiz-adv-x="536" 
d="M440 72q0 -21 5.5 -31.5t25.5 -10.5q11 0 31 6l4 -32q-15 -8 -26.5 -10t-27.5 -2q-33 0 -46.5 20.5t-11.5 43.5q-29 -29 -73.5 -48.5t-98.5 -19.5q-49 0 -78.5 15t-45.5 36t-21 45t-5 42q0 54 22.5 87.5t58 52t80 24.5t88.5 6q18 0 35 -0.5t34 -1.5v45q0 37 -5.5 63.5
t-19 43t-37 24t-59.5 7.5q-64 0 -92.5 -23.5t-36.5 -71.5l-47 8q12 71 57.5 99.5t122.5 28.5q45 0 76.5 -9t51.5 -29t29.5 -52.5t9.5 -79.5v-276zM391 252q-17 2 -36 2.5t-42 0.5q-38 0 -72.5 -5t-60.5 -18.5t-41 -37.5t-15 -63q0 -21 4.5 -39t16.5 -32t32 -22t52 -8
q48 0 92 20t70 52v150zM240 572l-42 14l113 165h72z" />
    <glyph glyph-name="acircumflex" unicode="&#xe2;" horiz-adv-x="536" 
d="M440 72q0 -21 5.5 -31.5t25.5 -10.5q11 0 31 6l4 -32q-15 -8 -26.5 -10t-27.5 -2q-33 0 -46.5 20.5t-11.5 43.5q-29 -29 -73.5 -48.5t-98.5 -19.5q-49 0 -78.5 15t-45.5 36t-21 45t-5 42q0 54 22.5 87.5t58 52t80 24.5t88.5 6q18 0 35 -0.5t34 -1.5v45q0 37 -5.5 63.5
t-19 43t-37 24t-59.5 7.5q-64 0 -92.5 -23.5t-36.5 -71.5l-47 8q12 71 57.5 99.5t122.5 28.5q45 0 76.5 -9t51.5 -29t29.5 -52.5t9.5 -79.5v-276zM391 252q-17 2 -36 2.5t-42 0.5q-38 0 -72.5 -5t-60.5 -18.5t-41 -37.5t-15 -63q0 -21 4.5 -39t16.5 -32t32 -22t52 -8
q48 0 92 20t70 52v150zM372 579l-101 129l-95 -132l-45 9l116 165h50l122 -165z" />
    <glyph glyph-name="atilde" unicode="&#xe3;" horiz-adv-x="536" 
d="M440 72q0 -21 5.5 -31.5t25.5 -10.5q11 0 31 6l4 -32q-15 -8 -26.5 -10t-27.5 -2q-33 0 -46.5 20.5t-11.5 43.5q-29 -29 -73.5 -48.5t-98.5 -19.5q-49 0 -78.5 15t-45.5 36t-21 45t-5 42q0 54 22.5 87.5t58 52t80 24.5t88.5 6q18 0 35 -0.5t34 -1.5v45q0 37 -5.5 63.5
t-19 43t-37 24t-59.5 7.5q-64 0 -92.5 -23.5t-36.5 -71.5l-47 8q12 71 57.5 99.5t122.5 28.5q45 0 76.5 -9t51.5 -29t29.5 -52.5t9.5 -79.5v-276zM391 252q-17 2 -36 2.5t-42 0.5q-38 0 -72.5 -5t-60.5 -18.5t-41 -37.5t-15 -63q0 -21 4.5 -39t16.5 -32t32 -22t52 -8
q48 0 92 20t70 52v150zM191 699q23 0 43.5 -7t39 -15.5t36 -15.5t34.5 -7q20 0 31.5 9.5t11.5 48.5l38 -2q4 -31 -2 -50.5t-17 -31t-26.5 -16t-31.5 -4.5q-22 0 -42 7t-39.5 16t-38 16t-36.5 7q-16 0 -28 -11.5t-11 -48.5l-36 2q-4 30 1.5 50t17 31.5t26 16.5t29.5 5z" />
    <glyph glyph-name="adieresis" unicode="&#xe4;" horiz-adv-x="536" 
d="M440 72q0 -21 5.5 -31.5t25.5 -10.5q11 0 31 6l4 -32q-15 -8 -26.5 -10t-27.5 -2q-33 0 -46.5 20.5t-11.5 43.5q-29 -29 -73.5 -48.5t-98.5 -19.5q-49 0 -78.5 15t-45.5 36t-21 45t-5 42q0 54 22.5 87.5t58 52t80 24.5t88.5 6q18 0 35 -0.5t34 -1.5v45q0 37 -5.5 63.5
t-19 43t-37 24t-59.5 7.5q-64 0 -92.5 -23.5t-36.5 -71.5l-47 8q12 71 57.5 99.5t122.5 28.5q45 0 76.5 -9t51.5 -29t29.5 -52.5t9.5 -79.5v-276zM391 252q-17 2 -36 2.5t-42 0.5q-38 0 -72.5 -5t-60.5 -18.5t-41 -37.5t-15 -63q0 -21 4.5 -39t16.5 -32t32 -22t52 -8
q48 0 92 20t70 52v150zM220 665q0 -20 -12 -31t-32 -11q-21 0 -33 11t-12 31t12 31t33 11q20 0 32 -11t12 -31zM411 665q0 -20 -12 -31t-32 -11t-32.5 11t-12.5 31t12.5 31t32.5 11t32 -11t12 -31z" />
    <glyph glyph-name="aring" unicode="&#xe5;" horiz-adv-x="536" 
d="M440 72q0 -21 5.5 -31.5t25.5 -10.5q11 0 31 6l4 -32q-15 -8 -26.5 -10t-27.5 -2q-33 0 -46.5 20.5t-11.5 43.5q-29 -29 -73.5 -48.5t-98.5 -19.5q-49 0 -78.5 15t-45.5 36t-21 45t-5 42q0 54 22.5 87.5t58 52t80 24.5t88.5 6q18 0 35 -0.5t34 -1.5v45q0 37 -5.5 63.5
t-19 43t-37 24t-59.5 7.5q-64 0 -92.5 -23.5t-36.5 -71.5l-47 8q12 71 57.5 99.5t122.5 28.5q45 0 76.5 -9t51.5 -29t29.5 -52.5t9.5 -79.5v-276zM391 252q-17 2 -36 2.5t-42 0.5q-38 0 -72.5 -5t-60.5 -18.5t-41 -37.5t-15 -63q0 -21 4.5 -39t16.5 -32t32 -22t52 -8
q48 0 92 20t70 52v150zM374 674q0 -46 -27 -72t-75 -26q-46 0 -73.5 24.5t-27.5 67.5q0 50 30 74.5t71 24.5q42 0 72 -21.5t30 -71.5zM272 614q29 0 42 17t13 43q0 55 -55 55q-25 0 -41 -15t-16 -44q0 -26 14 -41t43 -15z" />
    <glyph glyph-name="ae" unicode="&#xe6;" horiz-adv-x="873" 
d="M612 -12q-67 0 -110 22t-68 60q-46 -42 -101.5 -62t-111.5 -20q-49 0 -78.5 15t-45 36t-20.5 45t-5 42q0 54 22 87.5t57 52t79 25t88 6.5q19 0 37 -0.5t35 -1.5v71q0 51 -26 81t-96 30q-62 0 -90.5 -24.5t-37.5 -70.5l-47 9q12 70 57.5 98.5t124.5 28.5q69 0 105 -25.5
t50 -73.5q35 54 82.5 76.5t104.5 22.5q52 0 89 -16.5t60 -44.5t34 -66.5t11 -81.5q0 -16 -1.5 -32t-3.5 -33h-367q2 -63 16.5 -103.5t38 -64t55 -32.5t67.5 -9q64 0 95.5 26.5t44.5 78.5l47 -10q-8 -39 -27 -66t-44.5 -44t-56 -24.5t-63.5 -7.5zM230 31q51 0 99 21t83 59
q-11 30 -16 67t-6 74q-16 1 -34.5 1.5t-38.5 0.5q-34 0 -68.5 -3.5t-62 -16.5t-45 -37t-17.5 -64q0 -20 4.5 -38.5t16 -32.5t32 -22.5t53.5 -8.5zM760 290v7q0 81 -34 128.5t-111 47.5q-32 0 -62.5 -10.5t-55 -32.5t-40 -57t-17.5 -83h320z" />
    <glyph glyph-name="ccedilla" unicode="&#xe7;" horiz-adv-x="530" 
d="M215 -159q8 -6 23.5 -12.5t33.5 -6.5q27 0 39.5 15t12.5 35q0 26 -17.5 40t-63.5 15l8 63q-53 5 -89.5 26.5t-59 56t-32.5 80t-10 99.5q0 135 62 200.5t174 65.5q36 0 68 -10.5t56 -31t39 -51.5t17 -72l-53 -6q-7 66 -39 97t-94 31q-32 0 -64 -10t-57.5 -35t-41.5 -66.5
t-16 -104.5q0 -68 15 -111.5t39.5 -69t55.5 -35t63 -9.5q59 0 97 28t49 88l50 -10q-7 -40 -25.5 -68.5t-44 -47t-56.5 -27t-64 -9.5l-4 -31q16 -2 31 -7.5t27 -15t19 -24.5t7 -36q0 -40 -27 -65.5t-68 -25.5q-29 0 -48 8t-27 16z" />
    <glyph glyph-name="egrave" unicode="&#xe8;" horiz-adv-x="543" 
d="M284 -12q-66 0 -109 21.5t-68.5 58.5t-36 85t-10.5 101q0 70 19 120t51.5 82t74.5 47t88 15q51 0 87 -16t59 -44.5t33.5 -66.5t10.5 -81q0 -17 -1 -33t-4 -33h-366q1 -63 15.5 -103.5t38 -64t55 -32.5t67.5 -9q60 0 93 26.5t47 78.5l47 -9q-9 -39 -28 -66t-44 -44
t-55.5 -25t-63.5 -8zM432 287q2 91 -32 138.5t-113 47.5q-32 0 -62 -10t-54 -32.5t-40 -57.5t-19 -86h320zM180 751h72l113 -165l-41 -14z" />
    <glyph glyph-name="eacute" unicode="&#xe9;" horiz-adv-x="543" 
d="M284 -12q-66 0 -109 21.5t-68.5 58.5t-36 85t-10.5 101q0 70 19 120t51.5 82t74.5 47t88 15q51 0 87 -16t59 -44.5t33.5 -66.5t10.5 -81q0 -17 -1 -33t-4 -33h-366q1 -63 15.5 -103.5t38 -64t55 -32.5t67.5 -9q60 0 93 26.5t47 78.5l47 -9q-9 -39 -28 -66t-44 -44
t-55.5 -25t-63.5 -8zM432 287q2 91 -32 138.5t-113 47.5q-32 0 -62 -10t-54 -32.5t-40 -57.5t-19 -86h320zM254 572l-42 14l113 165h72z" />
    <glyph glyph-name="ecircumflex" unicode="&#xea;" horiz-adv-x="543" 
d="M284 -12q-66 0 -109 21.5t-68.5 58.5t-36 85t-10.5 101q0 70 19 120t51.5 82t74.5 47t88 15q51 0 87 -16t59 -44.5t33.5 -66.5t10.5 -81q0 -17 -1 -33t-4 -33h-366q1 -63 15.5 -103.5t38 -64t55 -32.5t67.5 -9q60 0 93 26.5t47 78.5l47 -9q-9 -39 -28 -66t-44 -44
t-55.5 -25t-63.5 -8zM432 287q2 91 -32 138.5t-113 47.5q-32 0 -62 -10t-54 -32.5t-40 -57.5t-19 -86h320zM386 579l-101 129l-95 -132l-45 9l116 165h50l122 -165z" />
    <glyph glyph-name="edieresis" unicode="&#xeb;" horiz-adv-x="543" 
d="M284 -12q-66 0 -109 21.5t-68.5 58.5t-36 85t-10.5 101q0 70 19 120t51.5 82t74.5 47t88 15q51 0 87 -16t59 -44.5t33.5 -66.5t10.5 -81q0 -17 -1 -33t-4 -33h-366q1 -63 15.5 -103.5t38 -64t55 -32.5t67.5 -9q60 0 93 26.5t47 78.5l47 -9q-9 -39 -28 -66t-44 -44
t-55.5 -25t-63.5 -8zM432 287q2 91 -32 138.5t-113 47.5q-32 0 -62 -10t-54 -32.5t-40 -57.5t-19 -86h320zM234 665q0 -20 -12 -31t-32 -11q-21 0 -33 11t-12 31t12 31t33 11q20 0 32 -11t12 -31zM425 665q0 -20 -12 -31t-32 -11t-32.5 11t-12.5 31t12.5 31t32.5 11t32 -11
t12 -31z" />
    <glyph glyph-name="igrave" unicode="&#xec;" horiz-adv-x="236" 
d="M145 0h-49v508h49v-508zM14 751h72l113 -165l-41 -14z" />
    <glyph glyph-name="iacute" unicode="&#xed;" horiz-adv-x="236" 
d="M145 0h-49v508h49v-508zM88 572l-42 14l113 165h72z" />
    <glyph glyph-name="icircumflex" unicode="&#xee;" horiz-adv-x="236" 
d="M145 0h-49v508h49v-508zM220 579l-101 129l-95 -132l-45 9l116 165h50l122 -165z" />
    <glyph glyph-name="idieresis" unicode="&#xef;" horiz-adv-x="236" 
d="M145 0h-49v508h49v-508zM68 665q0 -20 -12 -31t-32 -11q-21 0 -33 11t-12 31t12 31t33 11q20 0 32 -11t12 -31zM259 665q0 -20 -12 -31t-32 -11t-32.5 11t-12.5 31t12.5 31t32.5 11t32 -11t12 -31z" />
    <glyph glyph-name="eth" unicode="&#xf0;" horiz-adv-x="568" 
d="M207 621l100 56q-34 23 -75 36.5t-83 19.5q5 11 9.5 19.5t7.5 16.5q109 -14 186 -69l101 55l22 -35l-90 -49q63 -68 93 -159.5t30 -195.5q0 -52 -8.5 -110t-33.5 -106.5t-70 -80t-118 -31.5q-120 0 -174 71t-54 194q0 51 14.5 96t44 78.5t72.5 53.5t100 20q41 0 83 -13.5
t80 -42.5q-29 129 -104 203l-113 -62zM105 252q0 -41 7.5 -80.5t27 -70t53 -49t84.5 -18.5q54 0 88.5 24.5t54.5 63.5t27.5 88.5t7.5 100.5q0 19 -0.5 35.5t-2.5 33.5q-11 14 -28.5 27.5t-39.5 24t-47.5 16.5t-50.5 6q-92 0 -136.5 -55t-44.5 -147z" />
    <glyph glyph-name="ntilde" unicode="&#xf1;" horiz-adv-x="578" 
d="M490 0h-49v340q0 63 -24.5 98t-88.5 35q-27 0 -55 -8t-53 -20t-45.5 -25.5t-32.5 -25.5v-394h-49v508h43l3 -66q45 32 94.5 54t103.5 22q81 0 117 -45t36 -131v-342zM212 699q23 0 43.5 -7t39 -15.5t36 -15.5t34.5 -7q20 0 31.5 9.5t11.5 48.5l38 -2q4 -31 -2 -50.5
t-17 -31t-26.5 -16t-31.5 -4.5q-22 0 -42 7t-39.5 16t-38 16t-36.5 7q-16 0 -28 -11.5t-11 -48.5l-36 2q-4 30 1.5 50t17 31.5t26 16.5t29.5 5z" />
    <glyph glyph-name="ograve" unicode="&#xf2;" horiz-adv-x="572" 
d="M284 -12q-63 0 -106 20.5t-69.5 56t-37.5 83.5t-11 104q0 124 61.5 195t175.5 71q57 0 97.5 -18t66.5 -51.5t38.5 -80t12.5 -103.5q0 -63 -12.5 -114t-40 -87t-71 -56t-104.5 -20zM288 33q39 0 71 12.5t54.5 39.5t34.5 70t12 104q0 60 -11.5 101t-33 66t-52.5 36t-70 11
q-41 0 -74.5 -13t-58 -39.5t-38 -67.5t-13.5 -97q0 -223 179 -223zM188 751h72l113 -165l-41 -14z" />
    <glyph glyph-name="oacute" unicode="&#xf3;" horiz-adv-x="572" 
d="M284 -12q-63 0 -106 20.5t-69.5 56t-37.5 83.5t-11 104q0 124 61.5 195t175.5 71q57 0 97.5 -18t66.5 -51.5t38.5 -80t12.5 -103.5q0 -63 -12.5 -114t-40 -87t-71 -56t-104.5 -20zM288 33q39 0 71 12.5t54.5 39.5t34.5 70t12 104q0 60 -11.5 101t-33 66t-52.5 36t-70 11
q-41 0 -74.5 -13t-58 -39.5t-38 -67.5t-13.5 -97q0 -223 179 -223zM262 572l-42 14l113 165h72z" />
    <glyph glyph-name="ocircumflex" unicode="&#xf4;" horiz-adv-x="572" 
d="M284 -12q-63 0 -106 20.5t-69.5 56t-37.5 83.5t-11 104q0 124 61.5 195t175.5 71q57 0 97.5 -18t66.5 -51.5t38.5 -80t12.5 -103.5q0 -63 -12.5 -114t-40 -87t-71 -56t-104.5 -20zM288 33q39 0 71 12.5t54.5 39.5t34.5 70t12 104q0 60 -11.5 101t-33 66t-52.5 36t-70 11
q-41 0 -74.5 -13t-58 -39.5t-38 -67.5t-13.5 -97q0 -223 179 -223zM394 579l-101 129l-95 -132l-45 9l116 165h50l122 -165z" />
    <glyph glyph-name="otilde" unicode="&#xf5;" horiz-adv-x="572" 
d="M284 -12q-63 0 -106 20.5t-69.5 56t-37.5 83.5t-11 104q0 124 61.5 195t175.5 71q57 0 97.5 -18t66.5 -51.5t38.5 -80t12.5 -103.5q0 -63 -12.5 -114t-40 -87t-71 -56t-104.5 -20zM288 33q39 0 71 12.5t54.5 39.5t34.5 70t12 104q0 60 -11.5 101t-33 66t-52.5 36t-70 11
q-41 0 -74.5 -13t-58 -39.5t-38 -67.5t-13.5 -97q0 -223 179 -223zM213 699q23 0 43.5 -7t39 -15.5t36 -15.5t34.5 -7q20 0 31.5 9.5t11.5 48.5l38 -2q4 -31 -2 -50.5t-17 -31t-26.5 -16t-31.5 -4.5q-22 0 -42 7t-39.5 16t-38 16t-36.5 7q-16 0 -28 -11.5t-11 -48.5l-36 2
q-4 30 1.5 50t17 31.5t26 16.5t29.5 5z" />
    <glyph glyph-name="odieresis" unicode="&#xf6;" horiz-adv-x="572" 
d="M284 -12q-63 0 -106 20.5t-69.5 56t-37.5 83.5t-11 104q0 124 61.5 195t175.5 71q57 0 97.5 -18t66.5 -51.5t38.5 -80t12.5 -103.5q0 -63 -12.5 -114t-40 -87t-71 -56t-104.5 -20zM288 33q39 0 71 12.5t54.5 39.5t34.5 70t12 104q0 60 -11.5 101t-33 66t-52.5 36t-70 11
q-41 0 -74.5 -13t-58 -39.5t-38 -67.5t-13.5 -97q0 -223 179 -223zM242 665q0 -20 -12 -31t-32 -11q-21 0 -33 11t-12 31t12 31t33 11q20 0 32 -11t12 -31zM433 665q0 -20 -12 -31t-32 -11t-32.5 11t-12.5 31t12.5 31t32.5 11t32 -11t12 -31z" />
    <glyph glyph-name="divide" unicode="&#xf7;" 
d="M331 175q0 -26 -14 -39t-40 -13q-25 0 -39 13t-14 39q0 28 14 40.5t39 12.5q26 0 40 -12.5t14 -40.5zM100 295v52h370v-52h-370zM331 469q0 -27 -14 -39.5t-40 -12.5q-25 0 -39 13t-14 39q0 28 14 40.5t39 12.5q26 0 40 -12.5t14 -40.5z" />
    <glyph glyph-name="oslash" unicode="&#xf8;" horiz-adv-x="572" 
d="M284 -12q-25 0 -46.5 3.5t-39.5 8.5l-32 -72h-50l40 91q-53 33 -74.5 94.5t-21.5 138.5q0 124 61.5 195t175.5 71q43 0 76 -10l34 77h50l-43 -96q51 -30 74.5 -88t23.5 -136q0 -63 -12.5 -114t-40 -87t-71 -56t-104.5 -20zM288 33q39 0 71 12.5t54.5 39.5t34.5 70t12 104
q0 73 -16.5 118t-48.5 68l-178 -401q29 -11 71 -11zM109 256q0 -137 68 -190l177 399q-30 8 -61 8q-41 0 -74.5 -13t-58 -39.5t-38 -67.5t-13.5 -97z" />
    <glyph glyph-name="ugrave" unicode="&#xf9;" horiz-adv-x="581" 
d="M90 508h49v-340q0 -63 23.5 -98t87.5 -35q27 0 55 8t52.5 20t45 25.5t32.5 25.5v394h49v-508h-43l-3 65q-45 -32 -91 -53.5t-106 -21.5q-83 0 -117 45t-34 132v341zM181 751h72l113 -165l-41 -14z" />
    <glyph glyph-name="uacute" unicode="&#xfa;" horiz-adv-x="581" 
d="M90 508h49v-340q0 -63 23.5 -98t87.5 -35q27 0 55 8t52.5 20t45 25.5t32.5 25.5v394h49v-508h-43l-3 65q-45 -32 -91 -53.5t-106 -21.5q-83 0 -117 45t-34 132v341zM255 572l-42 14l113 165h72z" />
    <glyph glyph-name="ucircumflex" unicode="&#xfb;" horiz-adv-x="581" 
d="M90 508h49v-340q0 -63 23.5 -98t87.5 -35q27 0 55 8t52.5 20t45 25.5t32.5 25.5v394h49v-508h-43l-3 65q-45 -32 -91 -53.5t-106 -21.5q-83 0 -117 45t-34 132v341zM387 579l-101 129l-95 -132l-45 9l116 165h50l122 -165z" />
    <glyph glyph-name="udieresis" unicode="&#xfc;" horiz-adv-x="581" 
d="M90 508h49v-340q0 -63 23.5 -98t87.5 -35q27 0 55 8t52.5 20t45 25.5t32.5 25.5v394h49v-508h-43l-3 65q-45 -32 -91 -53.5t-106 -21.5q-83 0 -117 45t-34 132v341zM235 665q0 -20 -12 -31t-32 -11q-21 0 -33 11t-12 31t12 31t33 11q20 0 32 -11t12 -31zM426 665
q0 -20 -12 -31t-32 -11t-32.5 11t-12.5 31t12.5 31t32.5 11t32 -11t12 -31z" />
    <glyph glyph-name="yacute" unicode="&#xfd;" horiz-adv-x="457" 
d="M17 508h52l159 -441h1l163 441h52l-232 -603q-15 -37 -31 -61.5t-34.5 -39.5t-40 -21t-45.5 -6q-27 0 -50 6.5t-37 11.5l10 41q11 -5 34 -10.5t46 -5.5q16 0 30.5 4.5t28 16t25.5 31.5t24 51l29 77zM203 572l-42 14l113 165h72z" />
    <glyph glyph-name="thorn" unicode="&#xfe;" horiz-adv-x="580" 
d="M95 755h48v-312q31 27 77.5 51t109.5 24q40 0 73.5 -13t58.5 -42.5t39 -77.5t14 -118q0 -74 -17 -127t-46.5 -86.5t-68.5 -49.5t-82 -16q-48 0 -89 18t-70 38v-256h-47v967zM144 93q10 -8 25.5 -18.5t35 -20t44 -16t52.5 -6.5q44 0 75 17.5t50.5 49t28.5 76t9 97.5
q0 110 -35 156.5t-108 46.5q-27 0 -53 -7.5t-49 -19t-42.5 -25.5t-32.5 -28v-302z" />
    <glyph glyph-name="ydieresis" unicode="&#xff;" horiz-adv-x="457" 
d="M17 508h52l159 -441h1l163 441h52l-232 -603q-15 -37 -31 -61.5t-34.5 -39.5t-40 -21t-45.5 -6q-27 0 -50 6.5t-37 11.5l10 41q11 -5 34 -10.5t46 -5.5q16 0 30.5 4.5t28 16t25.5 31.5t24 51l29 77zM183 665q0 -20 -12 -31t-32 -11q-21 0 -33 11t-12 31t12 31t33 11
q20 0 32 -11t12 -31zM374 665q0 -20 -12 -31t-32 -11t-32.5 11t-12.5 31t12.5 31t32.5 11t32 -11t12 -31z" />
    <glyph glyph-name="apostrophe" unicode="&#x2bc;" horiz-adv-x="500" 
d="M225 681h66l-57 -146l-42 6z" />
    <glyph glyph-name="tilde" unicode="&#x2dc;" horiz-adv-x="500" 
d="M169 699q23 0 43.5 -7t39 -15.5t36 -15.5t34.5 -7q20 0 31.5 9.5t11.5 48.5l38 -2q4 -31 -2 -50.5t-17 -31t-26.5 -16t-31.5 -4.5q-22 0 -42 7t-39.5 16t-38 16t-36.5 7q-16 0 -28 -11.5t-11 -48.5l-36 2q-4 30 1.5 50t17 31.5t26 16.5t29.5 5z" />
    <glyph glyph-name="endash" unicode="&#x2013;" horiz-adv-x="500" 
d="M0 263v39h499v-39h-499z" />
    <glyph glyph-name="emdash" unicode="&#x2014;" horiz-adv-x="1000" 
d="M0 263v39h999v-39h-999z" />
    <glyph glyph-name="quoteleft" unicode="&#x2018;" horiz-adv-x="168" 
d="M106 560h-65l77 211l41 -7z" />
    <glyph glyph-name="quoteright" unicode="&#x2019;" horiz-adv-x="168" 
d="M82 760h65l-77 -211l-41 7z" />
    <glyph glyph-name="quotedblleft" unicode="&#x201c;" horiz-adv-x="303" 
d="M240 560h-65l77 211l41 -7zM106 560h-65l77 211l41 -7z" />
    <glyph glyph-name="quotedblright" unicode="&#x201d;" horiz-adv-x="303" 
d="M216 760h65l-77 -211l-41 7zM82 760h65l-77 -211l-41 7z" />
    <glyph glyph-name="quotedblbase" unicode="&#x201e;" horiz-adv-x="290" 
d="M71 81h65l-77 -211l-41 7zM204 81h65l-77 -211l-41 7z" />
    <glyph glyph-name="bullet" unicode="&#x2022;" horiz-adv-x="345" 
d="M300 280q0 -63 -33.5 -93.5t-94.5 -30.5q-60 0 -93.5 30.5t-33.5 93.5t33.5 93.5t93.5 30.5q61 0 94.5 -30.5t33.5 -93.5z" />
    <glyph glyph-name="ellipsis" unicode="&#x2026;" horiz-adv-x="590" 
d="M351 37q0 -25 -13.5 -37t-37.5 -12q-23 0 -36.5 12t-13.5 37q0 24 13.5 36t36.5 12q24 0 37.5 -12t13.5 -36zM155 37q0 -25 -13.5 -37t-37.5 -12q-23 0 -36.5 12t-13.5 37q0 24 13.5 36t36.5 12q24 0 37.5 -12t13.5 -36zM536 37q0 -25 -13.5 -37t-37.5 -12
q-23 0 -36.5 12t-13.5 37q0 24 13.5 36t36.5 12q24 0 37.5 -12t13.5 -36z" />
    <glyph glyph-name="guilsinglleft" unicode="&#x2039;" horiz-adv-x="278" 
d="M159 103l-88 158l89 147h54l-84 -146l84 -159h-55z" />
    <glyph glyph-name="guilsinglright" unicode="&#x203a;" horiz-adv-x="278" 
d="M115 408l88 -156l-89 -149h-55l88 148l-86 157h54z" />
    <glyph glyph-name="Euro" unicode="&#x20ac;" horiz-adv-x="589" 
d="M342 -12q-43 0 -85.5 10.5t-77.5 40t-60.5 82t-34.5 135.5h-86l7 42h75q-1 12 -1 24v26q0 17 0.5 33t1.5 32h-66l7 42h63q11 86 39 140.5t65.5 86t82 43.5t88.5 12t81 -12t64.5 -36.5t44 -62t19.5 -88.5l-46 -6q-5 42 -16.5 72t-31 50t-49 29.5t-69.5 9.5q-55 0 -94 -18
t-65 -49.5t-40.5 -75.5t-20.5 -95h258l-8 -42h-254q-2 -16 -2 -31.5v-32.5v-26.5t1 -24.5h236l-8 -42h-224q12 -109 60.5 -166t146.5 -57q73 0 118 32.5t59 107.5l44 -13q-8 -47 -29.5 -79.5t-51.5 -53t-66.5 -30t-74.5 -9.5z" />
    <glyph glyph-name="trademark" unicode="&#x2122;" horiz-adv-x="816" 
d="M709 348v291l-120 -291h-35l-117 292v-292h-44v376h56l124 -307l128 307h50v-376h-42zM198 348h-46v335h-136v41h319v-41h-137v-335z" />
    </font>
</defs>
</svg>
