<?xml version="1.0" standalone="no"?>
<!DOCTYPE svg PUBLIC "-//W3C//DTD SVG 1.1//EN" "http://www.w3.org/Graphics/SVG/1.1/DTD/svg11.dtd" >
<svg xmlns="http://www.w3.org/2000/svg" xmlns:xlink="http://www.w3.org/1999/xlink" version="1.1">
<metadata>
Created by FontForge 20170731 at Wed Feb  6 03:45:33 2013
 By Aleksey,,,
Copyright (c) 2012 by TypeTogether. All rights reserved.
</metadata>
<defs>
<font id="AdelleSans-ThinItalic" horiz-adv-x="570" >
  <font-face 
    font-family="Adelle Sans"
    font-weight="250"
    font-style="italic"
    font-stretch="normal"
    units-per-em="1000"
    panose-1="2 0 5 3 0 0 0 2 0 4"
    ascent="750"
    descent="-250"
    x-height="508"
    cap-height="724"
    bbox="-122 -223 1003 911"
    underline-thickness="50"
    underline-position="-150"
    slope="-8"
    unicode-range="U+000D-2122"
  />
<missing-glyph horiz-adv-x="500" 
d="M50 500h400v-500h-400v500zM400 50v400h-300v-400h300z" />
    <glyph glyph-name=".notdef" horiz-adv-x="500" 
d="M50 500h400v-500h-400v500zM400 50v400h-300v-400h300z" />
    <glyph glyph-name=".null" horiz-adv-x="0" 
 />
    <glyph glyph-name="nonmarkingreturn" unicode="&#xd;" horiz-adv-x="242" 
 />
    <glyph glyph-name="NULL" horiz-adv-x="0" 
 />
    <glyph glyph-name="NULL" horiz-adv-x="0" 
 />
    <glyph glyph-name="space" unicode=" " horiz-adv-x="242" 
 />
    <glyph glyph-name="exclam" unicode="!" horiz-adv-x="248" 
d="M83 180l63 544h59l-86 -544h-36zM131 48q0 -30 -15.5 -45t-42.5 -15q-44 0 -44 42q0 60 58 60q44 0 44 -42z" />
    <glyph glyph-name="quotedbl" unicode="&#x22;" horiz-adv-x="344" 
d="M238 465l36 259h48l-36 -259h-48zM88 465l36 259h48l-36 -259h-48z" />
    <glyph glyph-name="numbersign" unicode="#" horiz-adv-x="607" 
d="M270 0l46 148h-145l-47 -148h-44l45 148h-131l18 38h127l60 190h-130l16 39h127l42 128h43l-41 -128h143l40 128h44l-39 -128h130l-15 -39h-128l-58 -190h128l-15 -38h-126l-46 -148h-44zM387 376h-143l-61 -190h145z" />
    <glyph glyph-name="dollar" unicode="$" horiz-adv-x="521" 
d="M435 514q-1 72 -26 110.5t-80 44.5l-39 -290q30 -12 58 -25.5t50.5 -32.5t36 -45.5t13.5 -64.5q0 -51 -17.5 -88t-46.5 -62t-67 -38.5t-79 -16.5l-13 -86h-40l12 86q-91 4 -133.5 52.5t-45.5 133.5l46 8q3 -34 10.5 -61.5t23 -47.5t41 -31.5t64.5 -12.5l41 301
q-30 12 -58 25.5t-50 33.5t-35.5 48t-13.5 68q0 41 15.5 75t43.5 58t66 38.5t82 16.5l12 81h41l-12 -83q33 -4 59.5 -16t45 -34.5t28.5 -56.5t9 -81zM402 205q0 27 -9.5 46.5t-26 34.5t-37.5 26t-45 21l-39 -285q34 4 62.5 15.5t49.5 31t33 47t12 63.5zM134 523
q0 -27 9.5 -46.5t25 -34.5t36.5 -26t45 -21l37 275q-32 -2 -59.5 -11.5t-48.5 -27.5t-33 -45t-12 -63z" />
    <glyph glyph-name="percent" unicode="%" horiz-adv-x="776" 
d="M537 -12q-36 0 -62 12t-42.5 32.5t-24.5 48.5t-8 60q0 43 12.5 81t36 66.5t58 45.5t78.5 17q70 0 103.5 -40t33.5 -112q0 -42 -11 -80.5t-33.5 -67.5t-57.5 -46t-83 -17zM540 31q48 0 74.5 21t39 49t15 55.5t2.5 39.5q0 49 -19.5 80.5t-68.5 31.5q-39 0 -64.5 -16.5
t-41 -41.5t-22 -55t-6.5 -58q0 -21 5 -40t15.5 -34t28 -23.5t42.5 -8.5zM200 374q-36 0 -62 12t-42.5 32.5t-24.5 48.5t-8 60q0 43 12.5 81t36 66.5t58 45.5t78.5 17q70 0 103.5 -40t33.5 -112q0 -42 -11 -80.5t-33.5 -67.5t-57.5 -46t-83 -17zM203 417q48 0 74.5 21t39 49
t15 55.5t2.5 39.5q0 49 -19.5 80.5t-68.5 31.5q-39 0 -64.5 -16.5t-41 -41.5t-22 -55t-6.5 -58q0 -21 5 -40t15.5 -34t28 -23.5t42.5 -8.5zM85 -18l543 742h53l-542 -742h-54z" />
    <glyph glyph-name="ampersand" unicode="&#x26;" horiz-adv-x="666" 
d="M492 583q0 -48 -19 -81.5t-50.5 -58t-72.5 -42.5t-86 -34q12 -31 31.5 -67.5t42 -72t45 -67.5t41.5 -55q38 41 62 99t37 127h44q-12 -72 -39.5 -141t-76.5 -120q23 -22 45 -33.5t49 -11.5t54 13l8 -32q-14 -11 -32.5 -15t-33.5 -4q-41 0 -67.5 15.5t-52.5 41.5
q-38 -26 -83.5 -41t-101.5 -15q-40 0 -73.5 12t-58 33.5t-38 52.5t-13.5 69q0 82 40.5 136.5t116.5 96.5q-4 12 -7.5 23.5t-6.5 25t-4.5 29.5t-1.5 38q0 43 13.5 78.5t37.5 61t57.5 39t72.5 13.5q23 0 45 -6.5t39 -20.5t27 -35.5t10 -50.5zM223 351q-25 -13 -47 -30.5
t-39 -40t-27 -51t-10 -64.5q0 -27 7.5 -51.5t24 -43t44 -30t68.5 -11.5q38 0 75 10.5t75 36.5q-31 36 -57 73t-47 73t-38 69t-29 60zM238 507q0 -24 3 -51.5t11 -52.5q51 20 87.5 38t60 38t34.5 43.5t11 53.5q0 37 -20 58.5t-62 21.5q-26 0 -49 -8.5t-40 -27t-26.5 -46.5
t-9.5 -67z" />
    <glyph glyph-name="quotesingle" unicode="'" horiz-adv-x="194" 
d="M88 465l36 259h48l-36 -259h-48z" />
    <glyph glyph-name="parenleft" unicode="(" horiz-adv-x="285" 
d="M144 -152q-33 69 -60 159t-27 196q0 82 20.5 156.5t52.5 140t71 122t77 102.5h48q-54 -71 -95.5 -136t-69 -128.5t-42 -127.5t-14.5 -134q0 -99 24.5 -184.5t62.5 -166.5z" />
    <glyph glyph-name="parenright" unicode=")" horiz-adv-x="285" 
d="M123 723q33 -69 60 -159t27 -196q0 -82 -20.5 -156.5t-52.5 -140t-71.5 -122t-76.5 -102.5h-48q54 71 95.5 136t69 128.5t42 127.5t14.5 134q0 99 -24.5 184.5t-62.5 166.5z" />
    <glyph glyph-name="asterisk" unicode="*" horiz-adv-x="466" 
d="M307 609l139 32l5 -22l-137 -63l67 -130l-21 -14l-94 102l-128 -104l-17 15l102 132l-122 61l12 22l132 -31l43 146h21z" />
    <glyph glyph-name="plus" unicode="+" horiz-adv-x="569" 
d="M231 134l26 165h-161l8 47h161l25 158h48l-25 -158h161l-8 -47h-161l-26 -165h-48z" />
    <glyph glyph-name="comma" unicode="," horiz-adv-x="205" 
d="M58 82h62l-101 -200l-37 7z" />
    <glyph glyph-name="hyphen" unicode="-" horiz-adv-x="318" 
d="M14 276l6 46h271l-6 -46h-271z" />
    <glyph glyph-name="period" unicode="." horiz-adv-x="204" 
d="M116 45q0 -29 -15.5 -43t-41.5 -14q-42 0 -42 40q0 29 15.5 43t41.5 14q42 0 42 -40z" />
    <glyph glyph-name="slash" unicode="/" horiz-adv-x="334" 
d="M-51 -92l400 847h48l-399 -847h-49z" />
    <glyph glyph-name="zero" unicode="0" horiz-adv-x="564" 
d="M237 -12q-56 0 -91.5 18.5t-56 52t-28.5 80.5t-8 103q0 40 4 92t15 107t31.5 108t52.5 95t78.5 67.5t109.5 25.5q51 0 85 -17.5t55 -47.5t29.5 -70t8.5 -84t-3.5 -101t-13.5 -115.5t-29 -115t-51 -100.5t-78 -71t-110 -27zM238 28q54 0 92.5 25t65 66t42.5 93t24.5 106.5
t11 106.5t2.5 92q0 36 -7 68.5t-22.5 57t-41.5 39t-64 14.5q-52 0 -90 -23t-65 -61t-43.5 -87t-26 -100.5t-13 -102.5t-3.5 -92q0 -37 4.5 -73.5t19 -65t42 -46t72.5 -17.5z" />
    <glyph glyph-name="one" unicode="1" horiz-adv-x="391" 
d="M155 0l91 640q-17 -10 -39.5 -16.5t-45.5 -11t-44 -6.5t-33 -2v36q36 3 64.5 9.5t52 16t43.5 24t40 34.5h20l-102 -724h-47z" />
    <glyph glyph-name="two" unicode="2" horiz-adv-x="509" 
d="M10 0l5 37l211 225q60 63 98.5 106.5t60.5 78t30.5 64.5t8.5 67q0 60 -30.5 88.5t-95.5 28.5q-63 0 -105.5 -32.5t-64.5 -108.5l-46 9q25 93 86 133.5t140 40.5q34 0 64 -8.5t52.5 -26.5t36 -47t13.5 -69q0 -46 -14 -85.5t-39.5 -78.5t-62 -79.5t-81.5 -89.5l-203 -211
h332l-6 -42h-390z" />
    <glyph glyph-name="three" unicode="3" horiz-adv-x="530" 
d="M323 737q81 0 122.5 -41t41.5 -105q0 -50 -17 -86t-43 -60.5t-56.5 -38t-57.5 -18.5l-1 -2q28 -5 53 -15.5t43 -30t28.5 -48t10.5 -68.5q0 -54 -17.5 -97.5t-49.5 -74.5t-76.5 -47.5t-98.5 -16.5q-87 0 -130 40t-48 115l44 9q2 -19 7 -40.5t19 -39.5t39.5 -30t68.5 -12
q36 0 70.5 11t61.5 34t43.5 60t16.5 89q0 40 -12 66.5t-34 43t-51.5 23.5t-63.5 7h-57l6 43h46q48 0 86 13.5t64.5 37.5t40.5 56.5t14 70.5q0 22 -6 42t-19.5 35t-36 24t-56.5 9q-38 0 -64.5 -9t-45.5 -24.5t-32.5 -37.5t-25.5 -49l-42 12q24 78 82 114t133 36z" />
    <glyph glyph-name="four" unicode="4" horiz-adv-x="532" 
d="M328 0l27 191h-340l5 34l395 499h63l-69 -492h88l-6 -41h-90l-26 -191h-47zM362 232l61 435l-345 -435h284z" />
    <glyph glyph-name="five" unicode="5" horiz-adv-x="540" 
d="M203 682l-67 -279q30 26 71.5 41t86.5 15q31 0 62 -9t55.5 -31.5t40 -59.5t15.5 -92q0 -57 -17 -108t-50.5 -89t-82.5 -60t-113 -22q-78 0 -128 41t-56 116l45 14q3 -18 9.5 -40.5t22 -42t42 -33t68.5 -13.5q37 0 75 12t68 40t49 74t19 114q0 72 -34 109.5t-98 37.5
q-45 0 -87.5 -19t-77.5 -48l-33 18l78 356h332l-6 -42h-289z" />
    <glyph glyph-name="six" unicode="6" horiz-adv-x="565" 
d="M487 576q-4 34 -14 56.5t-25 36.5t-34.5 20t-41.5 6q-62 0 -106.5 -35t-74.5 -88t-48 -115t-25 -117q15 17 37.5 34.5t50 32t58 23.5t60.5 9q44 0 76 -13.5t52.5 -37t30.5 -55.5t10 -69q0 -60 -17.5 -110.5t-49.5 -87.5t-76.5 -57.5t-98.5 -20.5q-55 0 -91 19t-57 52.5
t-29.5 80t-8.5 100.5q0 38 5.5 89.5t19 107t36.5 109t58.5 96t84.5 69t114 26.5q61 0 102 -38.5t44 -113.5zM114 290q-1 -14 -1.5 -28t-0.5 -29q0 -36 5.5 -72.5t21 -65.5t43 -47.5t70.5 -18.5q38 0 73 14.5t61.5 43t42.5 72t16 102.5q0 65 -31 99.5t-90 34.5
q-29 0 -58 -8.5t-56 -23t-51.5 -33.5t-44.5 -40z" />
    <glyph glyph-name="seven" unicode="7" horiz-adv-x="499" 
d="M50 0l403 682h-388l6 42h442l-5 -38l-405 -686h-53z" />
    <glyph glyph-name="eight" unicode="8" horiz-adv-x="525" 
d="M318 374q26 -12 52.5 -26t48.5 -34.5t35.5 -48t13.5 -65.5q0 -47 -18 -86t-51 -67t-78 -43.5t-99 -15.5q-50 0 -86.5 13t-60 35.5t-34.5 51.5t-11 62q0 48 16.5 83t43.5 61.5t62 45.5t73 35q-26 13 -48 28.5t-38.5 35.5t-26 44.5t-9.5 54.5q0 47 18.5 84t51 62.5t75 39
t90.5 13.5q81 0 128 -37t47 -104q0 -39 -15.5 -71.5t-42 -60t-62 -50t-75.5 -40.5zM270 352q-46 -17 -81.5 -35.5t-59.5 -42t-36.5 -54t-12.5 -70.5q0 -25 8 -47.5t25.5 -39t45.5 -26t68 -9.5q52 0 89 16t60.5 40.5t34 54t10.5 56.5q0 36 -15 61.5t-37.5 44t-49 30.5
t-49.5 21zM275 394q38 17 72.5 37.5t60.5 45t41.5 53t15.5 61.5q0 48 -33.5 76.5t-102.5 28.5q-39 0 -72 -11t-57 -31t-37.5 -48.5t-13.5 -62.5q0 -30 8.5 -51.5t24.5 -38.5t39.5 -31t53.5 -28z" />
    <glyph glyph-name="nine" unicode="9" horiz-adv-x="565" 
d="M75 147q9 -63 43 -91.5t85 -28.5q63 0 109 30.5t77 80t48.5 112t22.5 127.5q-15 -17 -40 -35t-55 -33t-62.5 -24.5t-63.5 -9.5q-44 0 -74.5 15t-49.5 40.5t-27.5 59t-8.5 70.5q0 60 17 111t49.5 88t78.5 57.5t104 20.5q52 0 86.5 -20t55.5 -55t29.5 -81.5t8.5 -98.5
q0 -111 -19.5 -202t-57.5 -156t-96 -100.5t-134 -35.5q-70 0 -114 36.5t-54 111.5zM461 424q1 16 1 34.5v35.5q0 36 -5.5 72.5t-21 65t-43 46.5t-70.5 18q-38 0 -74 -14.5t-64 -43t-44.5 -72.5t-16.5 -102q0 -71 29 -109.5t89 -38.5q28 0 58.5 9t60 24t55.5 34.5t46 40.5z
" />
    <glyph glyph-name="colon" unicode=":" horiz-adv-x="215" 
d="M116 45q0 -29 -15.5 -43t-41.5 -14q-42 0 -42 40q0 29 15.5 43t41.5 14q42 0 42 -40zM180 450q0 -29 -15.5 -43t-41.5 -14q-42 0 -42 40q0 29 15.5 43t41.5 14q42 0 42 -40z" />
    <glyph glyph-name="semicolon" unicode=";" horiz-adv-x="228" 
d="M58 82h62l-101 -200l-37 7zM203 450q0 -29 -15.5 -43t-41.5 -14q-42 0 -42 40q0 29 15.5 43t41.5 14q42 0 42 -40z" />
    <glyph glyph-name="less" unicode="&#x3c;" 
d="M83 261l9 51l397 164l-8 -50l-342 -141l299 -132l-8 -43z" />
    <glyph glyph-name="equal" unicode="=" 
d="M88 193l7 45h365l-7 -45h-365zM110 335l7 45h365l-7 -45h-365z" />
    <glyph glyph-name="greater" unicode="&#x3e;" horiz-adv-x="569" 
d="M59 104l8 49l341 132l-298 141l8 44l345 -164l-9 -51z" />
    <glyph glyph-name="question" unicode="?" horiz-adv-x="480" 
d="M289 721q35 0 67 -9.5t56.5 -29.5t39 -51.5t14.5 -75.5q0 -63 -21 -105.5t-56.5 -70.5t-82 -42.5t-98.5 -20.5l-19 -138h-44l25 177q45 3 89.5 11.5t79.5 29.5t56.5 57.5t21.5 94.5q0 35 -10.5 60t-29 41t-43.5 23.5t-53 7.5q-26 0 -50.5 -5t-46 -19t-39 -38.5
t-29.5 -64.5l-44 10q7 28 22 56.5t40 51t63 36.5t92 14zM201 48q0 -30 -15.5 -45t-42.5 -15q-44 0 -44 42q0 60 58 60q44 0 44 -42z" />
    <glyph glyph-name="at" unicode="@" horiz-adv-x="833" 
d="M626 -73q-51 -45 -121 -66.5t-145 -21.5q-71 0 -129 19t-99 56.5t-63.5 93t-22.5 128.5q0 102 32.5 182t91 134.5t139.5 83t177 28.5q66 0 122 -15.5t97 -47.5t64 -82.5t23 -120.5q0 -28 -4.5 -61.5t-14.5 -66.5t-26 -63.5t-39 -54.5t-54.5 -38t-71.5 -14t-60.5 18
t-25.5 38q-23 -25 -61.5 -44.5t-82.5 -19.5q-35 0 -58.5 11.5t-37.5 30t-20 43t-6 51.5q0 57 17 106.5t45.5 85.5t66 56.5t78.5 20.5q35 0 63.5 -12t45.5 -29l8 35h39l-45 -257q-3 -16 -5 -30.5t-2 -26.5q0 -21 9.5 -33.5t38.5 -12.5q20 0 47.5 11.5t52.5 40.5t42.5 78.5
t17.5 126.5q0 68 -20 114t-56.5 74t-87 40t-111.5 12q-85 0 -156 -26.5t-122 -77t-79 -123t-28 -163.5q0 -69 21.5 -118.5t59.5 -81.5t90 -47t113 -15q70 0 130 21t100 57zM538 322q-16 16 -40.5 27t-56.5 11q-29 0 -58 -15t-52.5 -44.5t-38.5 -74t-15 -102.5
q0 -42 18 -68.5t64 -26.5q39 0 78.5 23t62.5 59z" />
    <glyph glyph-name="A" unicode="A" horiz-adv-x="610" 
d="M400 724l140 -724h-51l-46 248h-286l-113 -248h-49l333 724h72zM360 687h-1l-181 -397h256z" />
    <glyph glyph-name="B" unicode="B" horiz-adv-x="598" 
d="M69 0l97 724h201q59 0 97.5 -11t61.5 -31t32 -47.5t9 -60.5q0 -46 -14 -80t-37.5 -58t-54.5 -38.5t-65 -20.5v-2q75 -11 110 -51t35 -103t-20.5 -105t-57.5 -68t-88.5 -37t-114.5 -11h-191zM253 43q52 0 96 6t75.5 25t49.5 53.5t18 90.5q0 44 -18 70t-49 39.5t-71.5 17.5
t-85.5 4h-105l-40 -306h130zM296 393q32 0 70 7.5t71 27t55.5 54.5t22.5 90q0 37 -12.5 58.5t-38 33t-63.5 15t-90 3.5h-104l-38 -289h127z" />
    <glyph glyph-name="C" unicode="C" horiz-adv-x="655" 
d="M594 190q-18 -56 -47.5 -94.5t-67 -62.5t-81 -34.5t-90.5 -10.5q-67 0 -114.5 21t-78 59t-45 92t-14.5 120q0 109 28.5 194t78 143.5t117 89t144.5 30.5q53 0 95.5 -16t71.5 -46.5t43 -76t11 -103.5l-44 -4q0 46 -9 84t-30 65t-55.5 41.5t-84.5 14.5q-69 0 -127 -27.5
t-100.5 -80t-66 -129.5t-23.5 -175q0 -133 56.5 -193.5t158.5 -60.5q90 0 144.5 40.5t87.5 130.5z" />
    <glyph glyph-name="D" unicode="D" horiz-adv-x="700" 
d="M69 0l97 724h190q79 0 136 -20.5t93.5 -58.5t54 -92t17.5 -120q0 -93 -24.5 -172.5t-75 -137.5t-128.5 -90.5t-186 -32.5h-174zM251 41q84 0 150.5 26.5t112.5 77.5t70.5 125t24.5 168q0 68 -18.5 114.5t-52 75.5t-82 42t-108.5 13h-140l-87 -642h130z" />
    <glyph glyph-name="E" unicode="E" horiz-adv-x="543" 
d="M69 0l97 724h379l-5 -41h-332l-39 -294h309l-5 -42h-309l-42 -305h340l-7 -42h-386z" />
    <glyph glyph-name="F" unicode="F" horiz-adv-x="518" 
d="M116 0h-47l97 724h379l-3 -41h-333l-42 -304h308l-4 -44h-309z" />
    <glyph glyph-name="G" unicode="G" horiz-adv-x="690" 
d="M574 0h-36l7 111q-76 -123 -232 -123q-67 0 -115.5 21t-80 60t-46.5 94t-15 122q0 109 28 193.5t78 142t117.5 87t147.5 29.5q52 0 94 -14t70.5 -42.5t42 -72.5t9.5 -104l-43 -6q2 55 -9.5 93t-34.5 61.5t-57 33.5t-77 10q-70 0 -128 -28t-100 -80.5t-65 -128.5t-23 -173
q0 -76 16.5 -125.5t45 -79t67.5 -41t83 -11.5q54 0 97.5 18t74 47.5t48.5 65.5t23 72l14 99h-223l7 43h266z" />
    <glyph glyph-name="H" unicode="H" horiz-adv-x="690" 
d="M544 0h-47l47 352h-382l-47 -352h-48l98 724h48l-45 -330h381l45 330h48z" />
    <glyph glyph-name="I" unicode="I" horiz-adv-x="258" 
d="M69 0l97 724h48l-98 -724h-47z" />
    <glyph glyph-name="J" unicode="J" horiz-adv-x="467" 
d="M384 724h47l-75 -564q-7 -50 -24 -83.5t-41.5 -53t-56 -27.5t-67.5 -8q-39 0 -67 11t-46.5 30.5t-28 45.5t-11.5 57l42 11q3 -21 9 -41.5t18.5 -36t33.5 -25.5t54 -10q25 0 47.5 5t40.5 20t30.5 41.5t18.5 69.5z" />
    <glyph glyph-name="K" unicode="K" horiz-adv-x="595" 
d="M159 342l390 382h60l-329 -320l256 -404h-56l-235 373l-93 -91l-38 -282h-47l97 724h47z" />
    <glyph glyph-name="L" unicode="L" horiz-adv-x="515" 
d="M69 0l97 724h47l-92 -682h320l-6 -42h-366z" />
    <glyph glyph-name="M" unicode="M" horiz-adv-x="842" 
d="M699 0h-45l91 669h-2l-329 -669h-63l-149 669h-1l-90 -669h-42l97 724h72l150 -682h1l331 682h76z" />
    <glyph glyph-name="N" unicode="N" horiz-adv-x="709" 
d="M504 0l-299 680l-92 -680h-46l97 724h74l290 -669l91 669h45l-97 -724h-63z" />
    <glyph glyph-name="O" unicode="O" horiz-adv-x="724" 
d="M323 -12q-69 0 -119.5 22.5t-84 63.5t-49.5 98t-16 127q0 94 24 174.5t71 139t116 91.5t159 33q67 0 116 -22.5t81 -61.5t47.5 -92t15.5 -114q0 -110 -25.5 -195.5t-72.5 -144t-114 -89t-149 -30.5zM327 31q62 0 118 24.5t98 74t66.5 125t24.5 178.5q0 54 -12 102t-38 83
t-67.5 55.5t-100.5 20.5q-63 0 -120 -23.5t-99.5 -72t-68 -123t-25.5 -176.5q0 -54 12 -103t38.5 -85.5t69 -58t104.5 -21.5z" />
    <glyph glyph-name="P" unicode="P" horiz-adv-x="584" 
d="M115 0h-46l97 724h178q60 0 102.5 -13.5t69.5 -37.5t40 -56t13 -69q0 -70 -20.5 -120t-59 -81.5t-92 -46t-119.5 -14.5h-123zM282 329q50 0 93.5 9.5t75.5 34t50 66.5t18 107q0 39 -13 65.5t-38.5 42.5t-63.5 22.5t-88 6.5h-108l-47 -354h121z" />
    <glyph glyph-name="Q" unicode="Q" horiz-adv-x="724" 
d="M323 -12q-69 0 -119.5 22.5t-84 63.5t-49.5 98t-16 127q0 94 24 174.5t71 139t116 91.5t159 33q67 0 116 -22.5t81 -61.5t47.5 -92t15.5 -114q0 -178 -64.5 -290.5t-178.5 -150.5q41 -51 90.5 -81t112.5 -44l-11 -40q-32 5 -68 21.5t-69 38t-60 46.5t-41 48
q-32 -7 -72 -7zM327 31q62 0 118 24.5t98 74t66.5 125t24.5 178.5q0 54 -12 102t-38 83t-67.5 55.5t-100.5 20.5q-63 0 -120 -23.5t-99.5 -72t-68 -123t-25.5 -176.5q0 -54 12 -103t38.5 -85.5t69 -58t104.5 -21.5z" />
    <glyph glyph-name="R" unicode="R" horiz-adv-x="594" 
d="M536 0h-49l-131 321h-198l-43 -321h-46l97 724h196q63 0 104 -14t65 -37t33.5 -54t9.5 -64q0 -88 -41 -142t-132 -82zM318 363q43 0 81 10.5t66 33t44.5 58t16.5 86.5q0 40 -12.5 66t-35 40.5t-54.5 20t-71 5.5h-145l-44 -320h154z" />
    <glyph glyph-name="S" unicode="S" horiz-adv-x="547" 
d="M483 528q0 28 -5 57.5t-21 53.5t-44.5 39t-76.5 15q-51 0 -87 -12t-59 -33t-34 -50t-11 -62q0 -39 16 -64t41.5 -41.5t58.5 -28t68 -22.5q31 -10 60 -23.5t51.5 -33.5t35.5 -48t13 -67q0 -59 -21 -100.5t-56 -68t-81 -39t-96 -12.5q-60 0 -100 15t-65.5 41.5t-38 62
t-15.5 77.5l45 8q3 -32 12 -60.5t28.5 -50.5t51.5 -35t82 -13q35 0 71 8t65.5 27t48 51.5t18.5 82.5q0 34 -12 57t-32 39t-46 26.5t-54 19.5q-35 11 -70.5 23.5t-64 32.5t-46 51.5t-17.5 80.5q0 47 17.5 85t49 64.5t75.5 41t97 14.5q43 0 79.5 -12t62.5 -36.5t40 -63
t13 -91.5z" />
    <glyph glyph-name="T" unicode="T" horiz-adv-x="500" 
d="M189 0l92 683h-213l5 41h470l-6 -41h-212l-91 -683h-45z" />
    <glyph glyph-name="U" unicode="U" horiz-adv-x="688" 
d="M575 230q-32 -242 -269 -242q-125 0 -175.5 62t-34.5 179l67 495h47l-66 -493q-8 -56 0.5 -94t29.5 -61.5t54.5 -33.5t77.5 -10q45 0 83 10t66.5 33.5t47.5 62t26 94.5l66 492h47z" />
    <glyph glyph-name="V" unicode="V" horiz-adv-x="564" 
d="M211 0l-142 724h49l130 -684h1l302 684h49l-322 -724h-67z" />
    <glyph glyph-name="W" unicode="W" horiz-adv-x="824" 
d="M540 0l-78 669h-1l-263 -669h-52l-57 724h48l44 -661h1l256 661h62l77 -673h1l218 673h46l-241 -724h-61z" />
    <glyph glyph-name="X" unicode="X" horiz-adv-x="577" 
d="M465 0l-175 336l-250 -336h-55l278 375l-169 349h51l151 -316l241 316h52l-267 -353l193 -371h-50z" />
    <glyph glyph-name="Y" unicode="Y" horiz-adv-x="503" 
d="M238 0h-45l39 286l-175 438h50l152 -387h1l251 387h51l-284 -434z" />
    <glyph glyph-name="Z" unicode="Z" horiz-adv-x="545" 
d="M2 0l4 33l484 650h-385l6 41h445l-5 -34l-484 -648h414l-6 -42h-473z" />
    <glyph glyph-name="bracketleft" unicode="[" horiz-adv-x="239" 
d="M12 -143l121 867h128l-5 -38h-84l-111 -791h84l-5 -38h-128z" />
    <glyph glyph-name="backslash" unicode="\" horiz-adv-x="332" 
d="M232 -92l-161 847h43l162 -847h-44z" />
    <glyph glyph-name="bracketright" unicode="]" horiz-adv-x="239" 
d="M212 724l-121 -867h-128l5 38h84l111 791h-84l5 38h128z" />
    <glyph glyph-name="asciicircum" unicode="^" horiz-adv-x="492" 
d="M419 299l-176 316l-172 -316h-49l197 365h51l200 -365h-51z" />
    <glyph glyph-name="underscore" unicode="_" horiz-adv-x="500" 
d="M7 -181v36h500v-36h-500z" />
    <glyph glyph-name="grave" unicode="`" horiz-adv-x="499" 
d="M344 572l-119 178h68l90 -164z" />
    <glyph glyph-name="a" unicode="a" horiz-adv-x="568" 
d="M446 78q-3 -21 1 -33t23 -12q7 0 14.5 1t18.5 4l-5 -37q-9 -3 -17 -4t-18 -1q-30 0 -47.5 17t-12.5 59q-45 -42 -90.5 -63t-97.5 -21q-35 0 -64 11t-50.5 35t-33.5 62.5t-12 92.5q0 48 11 106t39 107.5t75 83t119 33.5q48 0 89 -18t67 -39l10 46h42zM447 416
q-11 11 -28 21.5t-37.5 19t-43.5 13.5t-47 5q-54 0 -90.5 -28.5t-58.5 -71.5t-31.5 -93.5t-9.5 -93.5q0 -45 9 -75t25.5 -48.5t38.5 -26.5t49 -8q22 0 42 4t41.5 14t46 28t54.5 47z" />
    <glyph glyph-name="b" unicode="b" horiz-adv-x="580" 
d="M59 0l106 755h48l-46 -320q20 14 42 29t46.5 27t52 20t58.5 8q34 0 62.5 -10.5t48.5 -33.5t31 -59.5t11 -88.5q0 -89 -20.5 -153.5t-54 -105.5t-76.5 -60.5t-89 -19.5q-45 0 -86.5 15.5t-78.5 42.5h-1l-9 -46h-45zM122 98q9 -8 23 -18.5t33.5 -21t44 -17.5t53.5 -7
q55 0 92.5 26.5t60.5 68.5t32.5 94.5t9.5 105.5q0 40 -8 68t-22.5 45t-34.5 25t-45 8q-28 0 -57 -9.5t-55.5 -23.5t-49.5 -30.5t-38 -29.5z" />
    <glyph glyph-name="c" unicode="c" horiz-adv-x="528" 
d="M245 -12q-50 0 -86.5 15.5t-59.5 44t-34 69t-11 90.5q0 75 20.5 133t56 98t83.5 60.5t104 20.5q45 0 77.5 -14.5t53 -40t28 -61t2.5 -77.5l-44 -5q1 36 -4 64.5t-19 49t-38 31.5t-61 11q-35 0 -72.5 -13.5t-68.5 -45t-51 -84t-20 -130.5q0 -49 12 -82t32 -53.5
t46.5 -29.5t55.5 -9q60 0 101.5 28t61.5 93l42 -10q-11 -39 -31 -68t-47.5 -47.5t-60 -28t-68.5 -9.5z" />
    <glyph glyph-name="d" unicode="d" horiz-adv-x="567" 
d="M397 0l5 62h-2q-39 -33 -84 -53.5t-95 -20.5q-74 0 -120 46t-46 145q0 93 21 157.5t55.5 105t78.5 59t90 18.5q48 0 87.5 -17.5t65.5 -38.5l41 292h50l-106 -755h-41zM447 419q-9 7 -22.5 17t-32.5 19t-42 15.5t-51 6.5q-53 0 -90.5 -24.5t-61.5 -65.5t-35 -94t-11 -111
q0 -152 123 -152q30 0 55.5 7.5t47.5 20t41.5 28t38.5 32.5z" />
    <glyph glyph-name="e" unicode="e" horiz-adv-x="508" 
d="M242 -12q-53 0 -88.5 17.5t-58 48.5t-32 71.5t-9.5 87.5q0 55 15.5 110t48 98.5t81.5 70.5t117 27q37 0 65.5 -10t48 -27t29.5 -40t10 -49q0 -35 -11.5 -61t-32 -45t-47.5 -32t-57 -22t-61.5 -14t-60.5 -8t-55 -4t-44 -1q1 -31 6.5 -62.5t21.5 -57t45 -41.5t77 -16
q32 0 58 9.5t45 25t32 36t19 42.5l42 -8q-11 -39 -32 -67t-48 -45.5t-59 -25.5t-65 -8zM310 477q-48 0 -85 -18t-62.5 -49.5t-40.5 -73t-20 -89.5q9 0 33 1t56 4t68 9t70 17q41 14 66 42t25 72q0 42 -28.5 63.5t-81.5 21.5z" />
    <glyph glyph-name="f" unicode="f" horiz-adv-x="290" 
d="M375 706q-14 5 -34 9t-38 4q-36 0 -61.5 -21.5t-33.5 -75.5l-15 -114h147l-7 -42h-147l-95 -678h-49l95 678h-79l6 42h80l14 107q10 77 46.5 112.5t102.5 35.5q25 0 44.5 -5t31.5 -11z" />
    <glyph glyph-name="g" unicode="g" horiz-adv-x="547" 
d="M281 476q-54 0 -91 -28t-59 -70t-31.5 -91.5t-9.5 -93.5q0 -45 9 -74t25 -46.5t37 -24.5t45 -7t46.5 4t45.5 14.5t47.5 28.5t52.5 47l38 281q-23 22 -65 41t-90 19zM393 81q-37 -38 -86.5 -60t-101.5 -22q-35 0 -64.5 11t-51 34.5t-33.5 60.5t-12 90t12.5 110.5t41.5 105
t75.5 78t115.5 30.5q48 0 88.5 -19t66.5 -38l10 46h42l-77 -554q-12 -85 -65 -131t-150 -46q-40 0 -73.5 7.5t-58 25.5t-39.5 47t-19 71l45 10q3 -24 10.5 -45t23.5 -37.5t41.5 -26t64.5 -9.5q31 0 60.5 6t53 22t40.5 44.5t23 72.5z" />
    <glyph glyph-name="h" unicode="h" horiz-adv-x="581" 
d="M108 0h-49l106 755h49l-48 -323q16 13 38 28t48.5 28t56 22t59.5 9q76 0 111.5 -44t23.5 -132l-48 -343h-49l48 343q10 69 -12.5 100.5t-76.5 31.5q-56 0 -105 -27t-98 -64z" />
    <glyph glyph-name="i" unicode="i" horiz-adv-x="233" 
d="M103 0h-49l72 508h49zM217 685q0 -23 -13.5 -36.5t-36.5 -13.5q-38 0 -38 36q0 23 13 36.5t37 13.5q38 0 38 -36z" />
    <glyph glyph-name="j" unicode="j" horiz-adv-x="233" 
d="M126 508h49l-85 -598q-10 -70 -39 -101.5t-92 -31.5q-6 0 -17.5 1t-23.5 3.5t-23 5.5t-17 6l14 42q16 -6 35 -9.5t35 -3.5q33 0 52.5 18.5t26.5 65.5zM215 685q0 -23 -13.5 -36.5t-36.5 -13.5q-38 0 -38 36q0 23 13 36.5t37 13.5q38 0 38 -36z" />
    <glyph glyph-name="k" unicode="k" horiz-adv-x="496" 
d="M381 0l-135 288l-111 -95l-27 -193h-49l106 755h49l-70 -499l283 252h66l-209 -186l150 -322h-53z" />
    <glyph glyph-name="l" unicode="l" horiz-adv-x="233" 
d="M160 755h49l-106 -755h-49z" />
    <glyph glyph-name="m" unicode="m" horiz-adv-x="873" 
d="M362 519q62 0 88 -23.5t31 -62.5q46 35 95.5 60.5t106.5 25.5q42 0 67 -13.5t36.5 -37.5t12 -56.5t-4.5 -69.5l-47 -342h-49l48 339q4 28 5.5 52.5t-5 43t-23 29.5t-48.5 11q-26 0 -53 -9t-52.5 -22t-47.5 -28t-37 -27l-53 -389h-49l48 339q4 28 6 52.5t-4 43t-23 29.5
t-50 11q-28 0 -57 -9.5t-56 -23.5t-49.5 -29.5t-36.5 -26.5l-53 -386h-49l71 508h45l-10 -72q19 15 42.5 30t49 26.5t52.5 19t53 7.5z" />
    <glyph glyph-name="n" unicode="n" horiz-adv-x="581" 
d="M108 0h-49l71 508h47l-11 -72q16 12 38.5 26.5t49 27t56 21t59.5 8.5q77 0 111 -44t23 -132l-48 -343h-49l48 343q10 66 -11.5 99.5t-79.5 33.5q-27 0 -55.5 -9t-55.5 -22.5t-50.5 -29.5t-40.5 -29z" />
    <glyph glyph-name="o" unicode="o" 
d="M246 -12q-51 0 -87 16t-59.5 44.5t-34.5 68t-11 87.5q0 57 14.5 113.5t47 101t83.5 72.5t124 28q51 0 86.5 -16t58 -44.5t32.5 -68.5t10 -88q0 -55 -14 -111t-45.5 -101t-82 -73.5t-122.5 -28.5zM251 30q57 0 97 23.5t65 62t36.5 87.5t11.5 100q0 173 -144 173
q-56 0 -97 -22t-67 -59.5t-38.5 -86.5t-12.5 -103q0 -85 36.5 -130t112.5 -45z" />
    <glyph glyph-name="p" unicode="p" horiz-adv-x="580" 
d="M165 434h1h1q15 11 36.5 25.5t47 28t55 22.5t60.5 9q34 0 62.5 -10.5t48.5 -33.5t31 -59.5t11 -88.5q0 -89 -20.5 -153t-54.5 -105.5t-78.5 -61t-92.5 -19.5q-24 0 -47 5.5t-44 14t-39 19t-31 21.5l-36 -260h-48l102 720h46zM470 329q0 79 -26 113t-78 34
q-28 0 -58.5 -10.5t-58.5 -25t-51.5 -30.5t-36.5 -28l-40 -285q9 -8 23.5 -18.5t34 -21t43 -17.5t49.5 -7q57 0 95.5 26.5t61.5 68.5t32.5 95t9.5 106z" />
    <glyph glyph-name="q" unicode="q" horiz-adv-x="563" 
d="M302 519q46 0 86 -17.5t66 -38.5l6 45h49l-101 -720h-45l39 274q-42 -33 -87 -53.5t-96 -20.5q-74 0 -119 45.5t-45 143.5q0 93 21 158.5t55.5 106t79 59t91.5 18.5zM102 185q0 -155 116 -155q57 0 103.5 25t85.5 63l40 300l-22.5 17.5t-31.5 19.5t-40.5 15.5t-48.5 6.5
q-55 0 -93.5 -24.5t-62.5 -65t-35 -93t-11 -109.5z" />
    <glyph glyph-name="r" unicode="r" horiz-adv-x="342" 
d="M108 0h-49l71 508h47l-12 -86q23 24 42.5 42t39 30.5t40 18.5t44.5 6h10.5t10.5 -1l-8 -55q-50 5 -92.5 -18.5t-90.5 -68.5z" />
    <glyph glyph-name="s" unicode="s" horiz-adv-x="475" 
d="M264 519q46 0 77.5 -13t51 -35.5t28 -51.5t8.5 -60l-43 -4q0 25 -6.5 48t-21 40t-37.5 27.5t-56 10.5q-38 0 -63 -9.5t-39.5 -24.5t-20.5 -34t-6 -37q0 -25 10 -41t27 -27t40 -18.5t49 -14.5q25 -7 50 -16t45.5 -24t33 -37.5t12.5 -57.5q0 -70 -47.5 -111t-132.5 -41
q-81 0 -129 37t-55 121l43 7q3 -26 11.5 -49t24.5 -40t41 -27t61 -10q24 0 48.5 5t44 18t31.5 34.5t12 53.5q0 24 -9 40.5t-25.5 27.5t-38.5 18.5t-47 14.5q-26 7 -52 15.5t-47 22.5t-34 36.5t-13 57.5q0 39 15 67t39.5 46t55.5 26.5t64 8.5z" />
    <glyph glyph-name="t" unicode="t" horiz-adv-x="360" 
d="M311 17q-21 -13 -51 -21t-58 -8q-69 0 -96.5 30t-17.5 99l49 349h-80l5 42h81l20 147l50 7l-21 -154h144l-6 -42h-144l-49 -341q-3 -23 -3 -41t6.5 -30t21.5 -18.5t41 -6.5t53.5 8.5t45.5 18.5z" />
    <glyph glyph-name="u" unicode="u" horiz-adv-x="582" 
d="M471 508h49l-72 -508h-45l9 70h-1q-15 -13 -37.5 -27.5t-48.5 -26.5t-56 -20t-60 -8q-76 0 -109.5 42.5t-21.5 132.5l48 345h49l-47 -339q-4 -26 -3.5 -50.5t8.5 -44t27 -31.5t53 -12q57 0 106 25t99 67z" />
    <glyph glyph-name="v" unicode="v" horiz-adv-x="474" 
d="M171 0l-121 508h51l102 -458l230 458h50l-259 -508h-53z" />
    <glyph glyph-name="w" unicode="w" horiz-adv-x="712" 
d="M133 0l-83 508h48l68 -458l189 458h62l59 -456l196 456h49l-222 -508h-62l-58 455l-188 -455h-58z" />
    <glyph glyph-name="x" unicode="x" horiz-adv-x="440" 
d="M327 0l-119 229l-169 -229h-55l200 270l-129 238h50l112 -209l163 209h57l-196 -244l139 -264h-53z" />
    <glyph glyph-name="y" unicode="y" horiz-adv-x="447" 
d="M52 508h51l83 -445l218 445h52l-269 -537q-28 -56 -49 -93.5t-41.5 -60t-42.5 -31.5t-52 -9q-23 0 -42.5 5.5t-32.5 11.5l10 40q10 -5 28 -10t41 -5q17 0 31.5 6.5t28.5 23t30 43t36 67.5l20 41z" />
    <glyph glyph-name="z" unicode="z" horiz-adv-x="448" 
d="M3 0l5 34l363 432h-302l7 42h365l-5 -33l-366 -433h317l-6 -42h-378z" />
    <glyph glyph-name="braceleft" unicode="{" horiz-adv-x="284" 
d="M25 312q28 0 52.5 12t36.5 43q6 11 9 37t5 57.5t3.5 65.5t3.5 62q3 41 9.5 69t21.5 45.5t41 25.5t68 8h44l-7 -43h-50q-37 0 -53.5 -16t-21.5 -43q-5 -30 -7.5 -80t-7.5 -122q-3 -42 -9.5 -67t-18 -40t-27 -23t-34.5 -15q9 -4 19 -10t18.5 -16.5t13.5 -26t5 -39.5
q0 -28 -7 -61.5t-16 -67t-16 -63.5t-7 -50q0 -28 17 -42t56 -14h35l-5 -43h-38q-63 0 -88 26t-25 68q0 28 7.5 57t16 58.5t16 60.5t7.5 64q0 44 -20.5 60t-50.5 16h-16l7 47h13z" />
    <glyph glyph-name="bar" unicode="|" horiz-adv-x="280" 
d="M60 -143l126 898h43l-126 -898h-43z" />
    <glyph glyph-name="braceright" unicode="}" horiz-adv-x="284" 
d="M253 280q-28 0 -52.5 -12t-36.5 -43q-6 -11 -9 -37t-5 -57.5t-3.5 -65.5t-3.5 -62q-3 -41 -9.5 -69t-21.5 -45.5t-41 -25.5t-68 -8h-44l7 43h50q37 0 53.5 16t21.5 43q5 30 7.5 80t7.5 122q3 42 9.5 67t18 40t26.5 22.5t35 15.5q-9 4 -19 10t-18.5 16.5t-13.5 26t-5 39.5
q0 28 7 61.5t16 67t16 63.5t7 50q0 28 -17 42t-56 14h-35l5 43h38q63 0 88 -26t25 -68q0 -28 -7.5 -57t-16 -58.5t-16 -60.5t-7.5 -64q0 -44 20.5 -60t50.5 -16h16l-7 -47h-13z" />
    <glyph glyph-name="asciitilde" unicode="~" horiz-adv-x="459" 
d="M120 393q23 0 55 -7.5t65 -16.5t62.5 -16.5t46.5 -7.5q20 0 32 10t12 48l39 -2q4 -31 -2 -50.5t-18 -31t-28 -15.5t-31 -4q-22 0 -54 7.5t-65.5 17t-64 17t-48.5 7.5q-16 0 -28 -12t-11 -48l-37 1q-4 30 2 50t17.5 32t26.5 16.5t29 4.5z" />
    <glyph glyph-name="uni00A0" unicode="&#xa0;" horiz-adv-x="242" 
 />
    <glyph glyph-name="exclamdown" unicode="&#xa1;" horiz-adv-x="249" 
d="M149 327l-63 -544h-59l86 544h36zM101 459q0 30 15.5 45t42.5 15q44 0 44 -42q0 -60 -58 -60q-44 0 -44 42z" />
    <glyph glyph-name="cent" unicode="&#xa2;" horiz-adv-x="501" 
d="M338 692l-14 -96q71 -7 105.5 -56t25.5 -122l-43 -3q2 55 -18.5 94t-74.5 46l-59 -405q53 5 84 31.5t46 76.5l38 -10q-19 -68 -65 -101.5t-106 -38.5l-15 -108h-40l15 106q-86 13 -122 65.5t-36 138.5q0 67 17 118.5t47 87.5t71 56t90 24l14 96h40zM107 309
q0 -78 31 -116t82 -43l59 406q-30 -3 -61 -16t-55.5 -41.5t-40 -75t-15.5 -114.5z" />
    <glyph glyph-name="sterling" unicode="&#xa3;" horiz-adv-x="550" 
d="M49 42q60 49 88.5 101t28.5 104q0 43 -15 84h-109l7 41h86q-5 10 -10 26.5t-9.5 35.5t-7.5 40t-3 42q0 51 19 91.5t51 69.5t75.5 44.5t91.5 15.5q90 0 135.5 -42.5t41.5 -139.5l-46 -5q1 71 -26.5 108.5t-104.5 37.5q-38 0 -72.5 -10.5t-60.5 -32.5t-41 -56.5t-15 -82.5
q0 -42 11 -80t19 -62h247l-7 -41h-225q6 -19 9 -41t3 -41q0 -57 -26.5 -110t-78.5 -97h202q31 0 54 7.5t39.5 23t28 38.5t21.5 54l41 -11q-24 -85 -68.5 -119.5t-115.5 -34.5h-319l6 42h55z" />
    <glyph glyph-name="currency" unicode="&#xa4;" 
d="M521 13l-94 92q-27 -21 -61.5 -32.5t-78.5 -11.5q-47 0 -82.5 12t-61.5 34q1 1 -5.5 -5.5t-17.5 -17t-23.5 -23.5t-23 -24t-17.5 -18t-6 -6l-39 37l96 96q-18 29 -26.5 64t-8.5 73q0 68 37 128l-95 94l43 39l91 -91q28 23 64.5 36.5t81.5 13.5t82 -12t63 -35l87 87
l39 -37l-90 -92q34 -53 34 -127q0 -39 -10 -74.5t-31 -66.5l96 -95zM292 107q39 0 69 13.5t50.5 37t31.5 55.5t11 70q0 82 -42.5 127.5t-122.5 45.5q-78 0 -120.5 -47.5t-42.5 -125.5q0 -38 10.5 -70t31 -55.5t51.5 -37t73 -13.5z" />
    <glyph glyph-name="yen" unicode="&#xa5;" horiz-adv-x="499" 
d="M265 249l-34 -249h-48l34 249h-137l7 41h135l12 89h-135l7 41h112l-131 304h51l126 -304l206 304h54l-212 -304h116l-7 -41h-137l-13 -89h137l-6 -41h-137z" />
    <glyph glyph-name="brokenbar" unicode="&#xa6;" horiz-adv-x="280" 
d="M60 -143l55 388h43l-55 -388h-43zM138 408l48 347h43l-48 -347h-43z" />
    <glyph glyph-name="section" unicode="&#xa7;" horiz-adv-x="545" 
d="M338 664q-41 0 -71.5 -11.5t-50.5 -30.5t-30 -44.5t-10 -53.5q0 -42 23.5 -65t58 -37t75.5 -24t75.5 -25t58 -41.5t23.5 -72.5q0 -56 -33 -97t-92 -82q21 -17 36.5 -44t15.5 -64q0 -46 -16 -80.5t-43.5 -58t-65.5 -35.5t-82 -12q-52 0 -88.5 14t-59 38t-32 56.5
t-7.5 70.5l51 7q0 -29 6 -55t21.5 -45t41.5 -30t66 -11q75 0 116 38.5t41 101.5q0 42 -23.5 65t-59 37t-76.5 24t-76.5 27t-59 45.5t-23.5 78.5q0 47 30.5 85t94.5 83q-26 19 -39 45t-13 64q0 46 18.5 80.5t49 57.5t69.5 34.5t79 11.5q50 0 84.5 -13t55.5 -37t29.5 -57
t5.5 -72l-48 -7q2 69 -26 105t-100 36zM100 251q0 -38 22 -59.5t55.5 -35.5t73 -24t75.5 -25q50 29 80 65.5t30 85.5q0 33 -22.5 51.5t-56 31.5t-73.5 22.5t-74 24.5q-23 -14 -43 -29t-35 -31.5t-23.5 -35.5t-8.5 -41z" />
    <glyph glyph-name="dieresis" unicode="&#xa8;" horiz-adv-x="499" 
d="M189 660q0 23 14.5 37t38.5 14q37 0 37 -38q0 -24 -14 -37t-36 -13q-18 0 -29 9.5t-11 27.5zM381 660q0 23 14.5 37t37.5 14q17 0 27.5 -10t10.5 -28q0 -24 -14.5 -37t-35.5 -13q-40 0 -40 37z" />
    <glyph glyph-name="copyright" unicode="&#xa9;" horiz-adv-x="750" 
d="M701 313q0 -73 -24 -133t-67 -102.5t-103 -66t-133 -23.5q-81 0 -142 24t-101.5 66t-61 98.5t-20.5 122.5q0 76 25.5 136.5t70 102.5t104 64t127.5 22q76 0 136 -22t102 -62.5t64.5 -98t22.5 -128.5zM376 21q66 0 118 20t89 57t56.5 90t19.5 119q0 69 -21 122t-58.5 89
t-89.5 54t-114 18q-61 0 -113 -19.5t-90 -56.5t-59.5 -91t-21.5 -123q0 -65 19.5 -116.5t56.5 -87.5t89.5 -55.5t118.5 -19.5zM525 241q-5 -39 -20.5 -63.5t-36 -38.5t-44 -19t-45.5 -5q-48 0 -82.5 14.5t-56.5 41t-32 62t-10 77.5t12 78t35 61.5t57 40t78 14.5
q28 0 52.5 -6.5t43.5 -21.5t30.5 -39t13.5 -59l-45 -6q-4 46 -26 69.5t-70 23.5q-27 0 -51 -8.5t-42 -27.5t-28.5 -48.5t-10.5 -72.5q0 -32 7.5 -60t23 -48.5t40 -32.5t58.5 -12q27 0 45.5 6t30.5 17.5t19.5 29t12.5 40.5z" />
    <glyph glyph-name="ordfeminine" unicode="&#xaa;" horiz-adv-x="387" 
d="M326 338q-2 -14 1 -21t15 -7q10 0 22 4l-5 -31q-11 -4 -29 -4q-22 0 -34 11t-10 34q-23 -23 -54.5 -36.5t-65.5 -13.5q-47 0 -76.5 29t-29.5 96q0 37 8.5 75t27.5 69t50.5 51t77.5 20q28 0 53.5 -11.5t42.5 -24.5l5 30h40zM312 540q-14 13 -38.5 24.5t-53.5 11.5
q-33 0 -55.5 -17t-36 -43t-19.5 -56t-6 -56q0 -52 19.5 -72.5t51.5 -20.5q27 0 55 13t58 45z" />
    <glyph glyph-name="guillemotleft" unicode="&#xab;" horiz-adv-x="420" 
d="M136 103l-66 158l110 147h54l-103 -146l59 -159h-54zM278 103l-66 158l110 147h54l-103 -146l59 -159h-54z" />
    <glyph glyph-name="logicalnot" unicode="&#xac;" 
d="M409 207l15 94h-320l8 45h370l-23 -139h-50z" />
    <glyph glyph-name="uni00AD" unicode="&#xad;" horiz-adv-x="311" 
d="M56 276l6 46h271l-6 -46h-271z" />
    <glyph glyph-name="registered" unicode="&#xae;" horiz-adv-x="442" 
d="M425 482q0 -41 -13.5 -74t-37.5 -57t-57.5 -37t-73.5 -13q-45 0 -79 13.5t-56.5 36.5t-34 55t-11.5 69q0 42 14 75.5t39 57t58 36t71 12.5q85 0 133 -47.5t48 -126.5zM389 479q0 71 -41 107.5t-104 36.5q-30 0 -56.5 -10t-46 -28.5t-30.5 -46t-11 -62.5
q0 -67 38.5 -104.5t105.5 -37.5q68 0 106.5 38.5t38.5 106.5zM330 385h-35l-46 77h-30v-77h-34v191h65q38 0 50 -16.5t12 -37.5q0 -19 -8.5 -30.5t-24.5 -19.5zM232 488q20 0 33 6t13 28q0 17 -10 22.5t-29 5.5h-20v-62h13z" />
    <glyph glyph-name="macron" unicode="&#xaf;" horiz-adv-x="500" 
d="M196 690h277l-7 -42h-277z" />
    <glyph glyph-name="degree" unicode="&#xb0;" horiz-adv-x="290" 
d="M172 570q32 0 47.5 19.5t15.5 52.5q0 70 -63 70q-30 0 -47.5 -18t-17.5 -56q0 -68 65 -68zM279 642q0 -51 -28 -79.5t-79 -28.5t-80 27.5t-29 76.5q0 55 31.5 82.5t77.5 27.5q48 0 77.5 -26t29.5 -80z" />
    <glyph glyph-name="plusminus" unicode="&#xb1;" horiz-adv-x="569" 
d="M242 134l26 165h-161l7 47h161l25 158h48l-25 -158h161l-7 -47h-161l-26 -165h-48zM60 0l6 43h370l-6 -43h-370z" />
    <glyph glyph-name="twosuperior" unicode="&#xb2;" horiz-adv-x="344" 
d="M41 349l5 38l126 126q35 36 58.5 61.5t38 45.5t21 38t6.5 38q0 62 -69 62q-37 0 -61.5 -18.5t-38.5 -60.5l-39 8q14 59 53 84.5t91 25.5q48 0 78 -23.5t30 -75.5q0 -25 -7 -46.5t-21 -43t-35 -44t-49 -49.5l-130 -126h205l-7 -40h-255z" />
    <glyph glyph-name="threesuperior" unicode="&#xb3;" horiz-adv-x="369" 
d="M244 797q54 0 81.5 -25.5t27.5 -68.5q0 -27 -10 -47.5t-26 -34.5t-34.5 -23t-36.5 -15v-2q34 -7 59 -28.5t25 -68.5q0 -32 -11 -58t-31 -44.5t-48 -29t-62 -10.5q-56 0 -88.5 26t-35.5 77l42 7q1 -11 5 -24t13 -23.5t24.5 -17.5t40.5 -7q18 0 37 6t34 18.5t25 32.5t10 49
q0 22 -7.5 36.5t-20 23.5t-30 12.5t-37.5 3.5h-38l6 38h28q54 0 88 27t34 69q0 28 -15.5 45t-52.5 17q-42 0 -62.5 -18t-34.5 -49l-41 9q16 50 54 73.5t88 23.5z" />
    <glyph glyph-name="acute" unicode="&#xb4;" horiz-adv-x="500" 
d="M385 750h78l-169 -178l-39 14z" />
    <glyph glyph-name="mu" unicode="&#xb5;" horiz-adv-x="628" 
d="M489 508h49l-71 -508h-51l12 82q-48 -42 -100.5 -68t-107.5 -26q-33 0 -59.5 12t-39.5 35l-3 -2l-24 -209h-48l96 684h49l-48 -336q-2 -16 -3 -30t-1 -26q0 -39 18 -63.5t68 -24.5q31 0 61 10.5t57 26.5t51 35.5t44 37.5z" />
    <glyph glyph-name="paragraph" unicode="&#xb6;" horiz-adv-x="550" 
d="M391 -133h-46l115 817h-107l-115 -817h-46l54 385q-80 9 -127 60t-47 135q0 75 25.5 127.5t68.5 86t99 48.5t117 15h128z" />
    <glyph glyph-name="periodcentered" unicode="&#xb7;" horiz-adv-x="163" 
d="M139 310q0 -31 -16.5 -46.5t-44.5 -15.5q-45 0 -45 43q0 31 16 46.5t44 15.5q46 0 46 -43z" />
    <glyph glyph-name="cedilla" unicode="&#xb8;" horiz-adv-x="499" 
d="M127 -157q8 -6 24.5 -14t36.5 -8q26 0 44 13.5t18 42.5q0 25 -18.5 35.5t-55.5 11.5l27 96l40 -3l-19 -66q10 -2 22 -6t22.5 -12.5t18 -21.5t7.5 -31q0 -25 -8.5 -43t-23 -29.5t-32.5 -17t-36 -5.5q-32 0 -53 9t-29 16z" />
    <glyph glyph-name="onesuperior" unicode="&#xb9;" horiz-adv-x="279" 
d="M141 347l54 372q-9 -5 -23 -8.5t-28.5 -6t-28 -4t-20.5 -1.5v37q45 4 76 15.5t56 35.5h23l-63 -440h-46z" />
    <glyph glyph-name="ordmasculine" unicode="&#xba;" horiz-adv-x="385" 
d="M188 274q-68 0 -98.5 37.5t-30.5 103.5q0 37 11 73t33 64t56 45t80 17q66 0 96.5 -38t30.5 -101q0 -37 -10 -73t-31.5 -64.5t-55.5 -46t-81 -17.5zM193 314q34 0 58.5 13.5t40 36t22.5 52t7 61.5q0 51 -22.5 74.5t-64.5 23.5q-33 0 -57.5 -13t-40.5 -35.5t-24 -52.5
t-8 -64q0 -96 89 -96z" />
    <glyph glyph-name="guillemotright" unicode="&#xbb;" horiz-adv-x="419" 
d="M33 103l110 153l-61 152h52l66 -155l-111 -150h-56zM175 103l110 153l-61 152h52l66 -155l-111 -150h-56z" />
    <glyph glyph-name="onequarter" unicode="&#xbc;" horiz-adv-x="821" 
d="M120 279l54 372q-9 -5 -23 -8.5t-28.5 -6t-28 -4t-20.5 -1.5v37q45 4 76 15.5t56 35.5h23l-63 -440h-46zM129 -12l461 736h48l-460 -736h-49zM631 0l16 111h-210l5 34l239 295h60l-43 -289h55l-5 -40h-55l-16 -111h-46zM654 151l36 241l-198 -241h162z" />
    <glyph glyph-name="onehalf" unicode="&#xbd;" horiz-adv-x="821" 
d="M130 279l54 372q-9 -5 -23 -8.5t-28.5 -6t-28 -4t-20.5 -1.5v37q45 4 76 15.5t56 35.5h23l-63 -440h-46zM103 -12l461 736h48l-460 -736h-49zM451 0l5 38l126 126q35 36 58.5 61.5t38 45.5t21 38t6.5 38q0 62 -69 62q-37 0 -61.5 -18.5t-38.5 -60.5l-39 8q14 59 53 84.5
t91 25.5q48 0 78 -23.5t30 -75.5q0 -25 -7 -46.5t-21 -43t-35 -44t-49 -49.5l-130 -126h205l-7 -40h-255z" />
    <glyph glyph-name="threequarters" unicode="&#xbe;" horiz-adv-x="821" 
d="M171 -12l461 736h48l-460 -736h-49zM650 0l16 111h-210l5 34l239 295h60l-43 -289h55l-5 -40h-55l-16 -111h-46zM673 151l36 241l-198 -241h162zM198 729q54 0 81.5 -25.5t27.5 -68.5q0 -27 -10 -47.5t-26 -34.5t-34.5 -23t-36.5 -15v-2q34 -7 59 -28.5t25 -68.5
q0 -32 -11 -58t-31 -44.5t-48 -29t-62 -10.5q-56 0 -88.5 26t-35.5 77l42 7q1 -11 5 -24t13 -23.5t24.5 -17.5t40.5 -7q18 0 37 6t34 18.5t25 32.5t10 49q0 22 -7.5 36.5t-20 23.5t-30 12.5t-37.5 3.5h-38l6 38h28q54 0 88 27t34 69q0 28 -15.5 45t-52.5 17q-42 0 -62.5 -18
t-34.5 -49l-41 9q16 50 54 73.5t88 23.5z" />
    <glyph glyph-name="questiondown" unicode="&#xbf;" horiz-adv-x="438" 
d="M160 -214q-35 0 -67 9.5t-56.5 29.5t-39 51.5t-14.5 75.5q0 63 21 105.5t56.5 70.5t82 42.5t98.5 20.5l19 138h44l-25 -177q-45 -3 -89.5 -11.5t-79.5 -29.5t-56.5 -57.5t-21.5 -94.5q0 -35 10.5 -60t29 -41t43 -23.5t53.5 -7.5q25 0 50 5t46.5 19t39 38.5t29.5 64.5
l44 -10q-8 -28 -22.5 -56.5t-39.5 -51t-63 -36.5t-92 -14zM248 459q0 30 15.5 45t42.5 15q44 0 44 -42q0 -60 -58 -60q-44 0 -44 42z" />
    <glyph glyph-name="Agrave" unicode="&#xc0;" horiz-adv-x="610" 
d="M400 724l140 -724h-51l-46 248h-286l-113 -248h-49l333 724h72zM360 687h-1l-181 -397h256zM312 911l84 -130l-37 -14l-115 144h68z" />
    <glyph glyph-name="Aacute" unicode="&#xc1;" horiz-adv-x="610" 
d="M400 724l140 -724h-51l-46 248h-286l-113 -248h-49l333 724h72zM360 687h-1l-181 -397h256zM464 911h81l-156 -144l-39 14z" />
    <glyph glyph-name="Acircumflex" unicode="&#xc2;" horiz-adv-x="610" 
d="M400 724l140 -724h-51l-46 248h-286l-113 -248h-49l333 724h72zM360 687h-1l-181 -397h256zM465 769l-83 83l-102 -85l-48 10l139 118h33l107 -118z" />
    <glyph glyph-name="Atilde" unicode="&#xc3;" horiz-adv-x="610" 
d="M400 724l140 -724h-51l-46 248h-286l-113 -248h-49l333 724h72zM360 687h-1l-181 -397h256zM303 872q23 0 40.5 -7.5t32.5 -16.5t29.5 -16.5t31.5 -7.5q21 0 34 13.5t18 45.5l37 -2q-4 -31 -12.5 -49.5t-20.5 -29t-26.5 -14t-30.5 -3.5q-22 0 -39.5 7t-33 16t-31 16
t-33.5 7q-17 0 -30 -13.5t-18 -46.5l-37 2q4 30 13 49t21 30.5t26 15.5t29 4z" />
    <glyph glyph-name="Adieresis" unicode="&#xc4;" horiz-adv-x="610" 
d="M400 724l140 -724h-51l-46 248h-286l-113 -248h-49l333 724h72zM360 687h-1l-181 -397h256zM234 820q0 24 14.5 38t37.5 14q17 0 27.5 -10t10.5 -28q0 -24 -14.5 -37.5t-35.5 -13.5q-40 0 -40 37zM425 820q0 24 14.5 38t37.5 14q38 0 38 -38q0 -24 -14 -37.5t-36 -13.5
q-40 0 -40 37z" />
    <glyph glyph-name="Aring" unicode="&#xc5;" horiz-adv-x="610" 
d="M483 831q0 -43 -22.5 -71t-60.5 -36l140 -724h-51l-46 248h-286l-113 -248h-49l333 724q-19 8 -32 26.5t-13 48.5q0 27 9.5 48t25 34.5t36 20.5t41.5 7q38 0 63 -18.5t25 -59.5zM360 687h-1l-181 -397h256zM374 755q33 0 50 21t17 51q0 23 -13 35.5t-37 12.5
q-29 0 -48.5 -18.5t-19.5 -53.5q0 -21 12.5 -34.5t38.5 -13.5z" />
    <glyph glyph-name="AE" unicode="&#xc6;" horiz-adv-x="961" 
d="M482 0l47 340h-235l-245 -340h-53l524 724h442l-6 -40h-332l-42 -300h310l-6 -42h-310l-42 -301h341l-7 -41h-386zM578 684h-40l-213 -301h210z" />
    <glyph glyph-name="Ccedilla" unicode="&#xc7;" horiz-adv-x="655" 
d="M218 -157q8 -6 24.5 -14t36.5 -8q26 0 44 13.5t18 42.5q0 25 -18.5 35.5t-55.5 11.5l18 65q-61 4 -104.5 26t-71 60t-40.5 90t-13 115q0 109 28.5 194t78 143.5t117 89t144.5 30.5q53 0 95.5 -16t71.5 -46.5t43 -76t11 -103.5l-44 -4q0 46 -9 84t-30 65t-55.5 41.5
t-84.5 14.5q-69 0 -127 -27.5t-100.5 -80t-66 -129.5t-23.5 -175q0 -133 56.5 -193.5t158.5 -60.5q90 0 144.5 40.5t87.5 130.5l42 -11q-17 -54 -44.5 -91t-62.5 -61t-76 -35.5t-85 -13.5l-11 -38q10 -2 22 -6t22.5 -12.5t18 -21.5t7.5 -31q0 -25 -8.5 -43t-23 -29.5
t-32.5 -17t-36 -5.5q-32 0 -53 9t-29 16z" />
    <glyph glyph-name="Egrave" unicode="&#xc8;" horiz-adv-x="543" 
d="M69 0l97 724h379l-5 -41h-332l-39 -294h309l-5 -42h-309l-42 -305h340l-7 -42h-386zM340 911l84 -130l-37 -14l-115 144h68z" />
    <glyph glyph-name="Eacute" unicode="&#xc9;" horiz-adv-x="543" 
d="M69 0l97 724h379l-5 -41h-332l-39 -294h309l-5 -42h-309l-42 -305h340l-7 -42h-386zM413 911h81l-156 -144l-39 14z" />
    <glyph glyph-name="Ecircumflex" unicode="&#xca;" horiz-adv-x="543" 
d="M69 0l97 724h379l-5 -41h-332l-39 -294h309l-5 -42h-309l-42 -305h340l-7 -42h-386zM458 769l-83 83l-102 -85l-48 10l139 118h33l107 -118z" />
    <glyph glyph-name="Edieresis" unicode="&#xcb;" horiz-adv-x="543" 
d="M69 0l97 724h379l-5 -41h-332l-39 -294h309l-5 -42h-309l-42 -305h340l-7 -42h-386zM227 820q0 24 14.5 38t37.5 14q17 0 27.5 -10t10.5 -28q0 -24 -14.5 -37.5t-35.5 -13.5q-40 0 -40 37zM418 820q0 24 14.5 38t37.5 14q38 0 38 -38q0 -24 -14 -37.5t-36 -13.5
q-40 0 -40 37z" />
    <glyph glyph-name="Igrave" unicode="&#xcc;" horiz-adv-x="258" 
d="M69 0l97 724h48l-98 -724h-47zM147 911l84 -130l-37 -14l-115 144h68z" />
    <glyph glyph-name="Iacute" unicode="&#xcd;" horiz-adv-x="258" 
d="M69 0l97 724h48l-98 -724h-47zM283 911h81l-156 -144l-39 14z" />
    <glyph glyph-name="Icircumflex" unicode="&#xce;" horiz-adv-x="258" 
d="M69 0l97 724h48l-98 -724h-47zM289 769l-83 83l-102 -85l-48 10l139 118h33l107 -118z" />
    <glyph glyph-name="Idieresis" unicode="&#xcf;" horiz-adv-x="258" 
d="M69 0l97 724h48l-98 -724h-47zM58 820q0 24 14.5 38t37.5 14q17 0 27.5 -10t10.5 -28q0 -24 -14.5 -37.5t-35.5 -13.5q-40 0 -40 37zM249 820q0 24 14.5 38t37.5 14q38 0 38 -38q0 -24 -14 -37.5t-36 -13.5q-40 0 -40 37z" />
    <glyph glyph-name="Eth" unicode="&#xd0;" horiz-adv-x="710" 
d="M79 0l46 348h-74l6 41h74l45 335h190q79 0 136 -20.5t93.5 -58.5t54 -92t17.5 -120q0 -93 -24.5 -172.5t-75 -137.5t-128.5 -90.5t-186 -32.5h-174zM261 41q84 0 150.5 26.5t112.5 77.5t70.5 125t24.5 168q0 68 -18.5 115t-52 76t-82 42t-108.5 13h-142l-40 -295h238
l-6 -41h-238l-41 -307h132z" />
    <glyph glyph-name="Ntilde" unicode="&#xd1;" horiz-adv-x="709" 
d="M504 0l-299 680l-92 -680h-46l97 724h74l290 -669l91 669h45l-97 -724h-63zM362 872q23 0 40.5 -7.5t32.5 -16.5t29.5 -16.5t31.5 -7.5q21 0 34 13.5t18 45.5l37 -2q-4 -31 -12.5 -49.5t-20.5 -29t-26.5 -14t-30.5 -3.5q-22 0 -39.5 7t-33 16t-31 16t-33.5 7
q-17 0 -30 -13.5t-18 -46.5l-37 2q4 30 13 49t21 30.5t26 15.5t29 4z" />
    <glyph glyph-name="Ograve" unicode="&#xd2;" horiz-adv-x="724" 
d="M323 -12q-69 0 -119.5 22.5t-84 63.5t-49.5 98t-16 127q0 94 24 174.5t71 139t116 91.5t159 33q67 0 116 -22.5t81 -61.5t47.5 -92t15.5 -114q0 -110 -25.5 -195.5t-72.5 -144t-114 -89t-149 -30.5zM327 31q62 0 118 24.5t98 74t66.5 125t24.5 178.5q0 54 -12 102t-38 83
t-67.5 55.5t-100.5 20.5q-63 0 -120 -23.5t-99.5 -72t-68 -123t-25.5 -176.5q0 -54 12 -103t38.5 -85.5t69 -58t104.5 -21.5zM404 911l84 -130l-37 -14l-115 144h68z" />
    <glyph glyph-name="Oacute" unicode="&#xd3;" horiz-adv-x="724" 
d="M323 -12q-69 0 -119.5 22.5t-84 63.5t-49.5 98t-16 127q0 94 24 174.5t71 139t116 91.5t159 33q67 0 116 -22.5t81 -61.5t47.5 -92t15.5 -114q0 -110 -25.5 -195.5t-72.5 -144t-114 -89t-149 -30.5zM327 31q62 0 118 24.5t98 74t66.5 125t24.5 178.5q0 54 -12 102t-38 83
t-67.5 55.5t-100.5 20.5q-63 0 -120 -23.5t-99.5 -72t-68 -123t-25.5 -176.5q0 -54 12 -103t38.5 -85.5t69 -58t104.5 -21.5zM477 911h81l-156 -144l-39 14z" />
    <glyph glyph-name="Ocircumflex" unicode="&#xd4;" horiz-adv-x="724" 
d="M323 -12q-69 0 -119.5 22.5t-84 63.5t-49.5 98t-16 127q0 94 24 174.5t71 139t116 91.5t159 33q67 0 116 -22.5t81 -61.5t47.5 -92t15.5 -114q0 -110 -25.5 -195.5t-72.5 -144t-114 -89t-149 -30.5zM327 31q62 0 118 24.5t98 74t66.5 125t24.5 178.5q0 54 -12 102t-38 83
t-67.5 55.5t-100.5 20.5q-63 0 -120 -23.5t-99.5 -72t-68 -123t-25.5 -176.5q0 -54 12 -103t38.5 -85.5t69 -58t104.5 -21.5zM522 769l-83 83l-102 -85l-48 10l139 118h33l107 -118z" />
    <glyph glyph-name="Otilde" unicode="&#xd5;" horiz-adv-x="724" 
d="M323 -12q-69 0 -119.5 22.5t-84 63.5t-49.5 98t-16 127q0 94 24 174.5t71 139t116 91.5t159 33q67 0 116 -22.5t81 -61.5t47.5 -92t15.5 -114q0 -110 -25.5 -195.5t-72.5 -144t-114 -89t-149 -30.5zM327 31q62 0 118 24.5t98 74t66.5 125t24.5 178.5q0 54 -12 102t-38 83
t-67.5 55.5t-100.5 20.5q-63 0 -120 -23.5t-99.5 -72t-68 -123t-25.5 -176.5q0 -54 12 -103t38.5 -85.5t69 -58t104.5 -21.5zM371 872q23 0 40.5 -7.5t32.5 -16.5t29.5 -16.5t31.5 -7.5q21 0 34 13.5t18 45.5l37 -2q-4 -31 -12.5 -49.5t-20.5 -29t-26.5 -14t-30.5 -3.5
q-22 0 -39.5 7t-33 16t-31 16t-33.5 7q-17 0 -30 -13.5t-18 -46.5l-37 2q4 30 13 49t21 30.5t26 15.5t29 4z" />
    <glyph glyph-name="Odieresis" unicode="&#xd6;" horiz-adv-x="724" 
d="M323 -12q-69 0 -119.5 22.5t-84 63.5t-49.5 98t-16 127q0 94 24 174.5t71 139t116 91.5t159 33q67 0 116 -22.5t81 -61.5t47.5 -92t15.5 -114q0 -110 -25.5 -195.5t-72.5 -144t-114 -89t-149 -30.5zM327 31q62 0 118 24.5t98 74t66.5 125t24.5 178.5q0 54 -12 102t-38 83
t-67.5 55.5t-100.5 20.5q-63 0 -120 -23.5t-99.5 -72t-68 -123t-25.5 -176.5q0 -54 12 -103t38.5 -85.5t69 -58t104.5 -21.5zM291 820q0 24 14.5 38t37.5 14q17 0 27.5 -10t10.5 -28q0 -24 -14.5 -37.5t-35.5 -13.5q-40 0 -40 37zM482 820q0 24 14.5 38t37.5 14q38 0 38 -38
q0 -24 -14 -37.5t-36 -13.5q-40 0 -40 37z" />
    <glyph glyph-name="multiply" unicode="&#xd7;" 
d="M379 175l-99 117l-136 -118l-27 33l136 118l-95 112l36 30l94 -112l132 114l28 -33l-132 -114l98 -117z" />
    <glyph glyph-name="Oslash" unicode="&#xd8;" horiz-adv-x="724" 
d="M323 -12q-46 0 -87 11l-32 -75h-45l38 89q-73 35 -108 109t-35 177q0 94 24 174.5t71 139t116 91.5t159 33q22 0 41.5 -2.5t37.5 -7.5l27 64h45l-33 -78q73 -33 107.5 -104t34.5 -162q0 -110 -25.5 -195.5t-72.5 -144t-114 -89t-149 -30.5zM102 299q0 -40 6.5 -77
t20 -68.5t35 -57t51.5 -41.5l270 631q-32 9 -69 9q-63 0 -120 -23.5t-100 -72t-68.5 -123.5t-25.5 -177zM327 30q62 0 118 24.5t98 74.5t67 125.5t25 178.5q0 80 -26 143t-86 95l-270 -631q31 -10 74 -10z" />
    <glyph glyph-name="Ugrave" unicode="&#xd9;" horiz-adv-x="688" 
d="M575 230q-32 -242 -269 -242q-125 0 -175.5 62t-34.5 179l67 495h47l-66 -493q-8 -56 0.5 -94t29.5 -61.5t54.5 -33.5t77.5 -10q45 0 83 10t66.5 33.5t47.5 62t26 94.5l66 492h47zM388 911l84 -130l-37 -14l-115 144h68z" />
    <glyph glyph-name="Uacute" unicode="&#xda;" horiz-adv-x="688" 
d="M575 230q-32 -242 -269 -242q-125 0 -175.5 62t-34.5 179l67 495h47l-66 -493q-8 -56 0.5 -94t29.5 -61.5t54.5 -33.5t77.5 -10q45 0 83 10t66.5 33.5t47.5 62t26 94.5l66 492h47zM481 911h81l-156 -144l-39 14z" />
    <glyph glyph-name="Ucircumflex" unicode="&#xdb;" horiz-adv-x="688" 
d="M575 230q-32 -242 -269 -242q-125 0 -175.5 62t-34.5 179l67 495h47l-66 -493q-8 -56 0.5 -94t29.5 -61.5t54.5 -33.5t77.5 -10q45 0 83 10t66.5 33.5t47.5 62t26 94.5l66 492h47zM506 769l-83 83l-102 -85l-48 10l139 118h33l107 -118z" />
    <glyph glyph-name="Udieresis" unicode="&#xdc;" horiz-adv-x="688" 
d="M575 230q-32 -242 -269 -242q-125 0 -175.5 62t-34.5 179l67 495h47l-66 -493q-8 -56 0.5 -94t29.5 -61.5t54.5 -33.5t77.5 -10q45 0 83 10t66.5 33.5t47.5 62t26 94.5l66 492h47zM275 820q0 24 14.5 38t37.5 14q17 0 27.5 -10t10.5 -28q0 -24 -14.5 -37.5t-35.5 -13.5
q-40 0 -40 37zM466 820q0 24 14.5 38t37.5 14q38 0 38 -38q0 -24 -14 -37.5t-36 -13.5q-40 0 -40 37z" />
    <glyph glyph-name="Yacute" unicode="&#xdd;" horiz-adv-x="503" 
d="M238 0h-45l39 286l-175 438h50l152 -387h1l251 387h51l-284 -434zM396 911h81l-156 -144l-39 14z" />
    <glyph glyph-name="Thorn" unicode="&#xde;" horiz-adv-x="668" 
d="M117 0h-47l102 724h48l-18 -122h140q64 0 108 -13.5t72 -37.5t40.5 -56.5t12.5 -69.5q0 -69 -20.5 -117t-59.5 -78t-94.5 -44t-125.5 -14h-134zM276 218q52 0 97 7t78.5 28.5t52.5 61t19 103.5q0 72 -48.5 105.5t-145.5 33.5h-133l-49 -339h129z" />
    <glyph glyph-name="germandbls" unicode="&#xdf;" horiz-adv-x="664" 
d="M33 -212l107 769q8 56 29.5 95.5t54 65t74 37.5t89.5 12q95 0 141 -42.5t46 -111.5q0 -40 -10.5 -70t-29.5 -53.5t-45.5 -40.5t-58.5 -30v-3q35 -5 65.5 -16.5t53.5 -32.5t36.5 -52.5t13.5 -74.5q0 -62 -16.5 -109t-45.5 -79t-68.5 -48t-86.5 -16q-169 0 -179 157l42 8
q2 -26 10 -48.5t24 -39.5t41 -26.5t62 -9.5t67.5 14.5t52.5 40.5t34 63.5t12 83.5q0 45 -15.5 75.5t-42.5 49t-63.5 26t-77.5 7.5h-43l7 46h14q54 0 91.5 16t61 40.5t33.5 54.5t10 58q0 63 -35.5 91.5t-101.5 28.5q-41 0 -75 -8.5t-59.5 -29.5t-42.5 -56.5t-24 -88.5
l-106 -753h-46z" />
    <glyph glyph-name="agrave" unicode="&#xe0;" horiz-adv-x="568" 
d="M446 78q-3 -21 1 -33t23 -12q7 0 14.5 1t18.5 4l-5 -37q-9 -3 -17 -4t-18 -1q-30 0 -47.5 17t-12.5 59q-45 -42 -90.5 -63t-97.5 -21q-35 0 -64 11t-50.5 35t-33.5 62.5t-12 92.5q0 48 11 106t39 107.5t75 83t119 33.5q48 0 89 -18t67 -39l10 46h42zM447 416
q-11 11 -28 21.5t-37.5 19t-43.5 13.5t-47 5q-54 0 -90.5 -28.5t-58.5 -71.5t-31.5 -93.5t-9.5 -93.5q0 -45 9 -75t25.5 -48.5t38.5 -26.5t49 -8q22 0 42 4t41.5 14t46 28t54.5 47zM349 572l-119 178h68l90 -164z" />
    <glyph glyph-name="aacute" unicode="&#xe1;" horiz-adv-x="568" 
d="M446 78q-3 -21 1 -33t23 -12q7 0 14.5 1t18.5 4l-5 -37q-9 -3 -17 -4t-18 -1q-30 0 -47.5 17t-12.5 59q-45 -42 -90.5 -63t-97.5 -21q-35 0 -64 11t-50.5 35t-33.5 62.5t-12 92.5q0 48 11 106t39 107.5t75 83t119 33.5q48 0 89 -18t67 -39l10 46h42zM447 416
q-11 11 -28 21.5t-37.5 19t-43.5 13.5t-47 5q-54 0 -90.5 -28.5t-58.5 -71.5t-31.5 -93.5t-9.5 -93.5q0 -45 9 -75t25.5 -48.5t38.5 -26.5t49 -8q22 0 42 4t41.5 14t46 28t54.5 47zM409 750h78l-169 -178l-39 14z" />
    <glyph glyph-name="acircumflex" unicode="&#xe2;" horiz-adv-x="568" 
d="M446 78q-3 -21 1 -33t23 -12q7 0 14.5 1t18.5 4l-5 -37q-9 -3 -17 -4t-18 -1q-30 0 -47.5 17t-12.5 59q-45 -42 -90.5 -63t-97.5 -21q-35 0 -64 11t-50.5 35t-33.5 62.5t-12 92.5q0 48 11 106t39 107.5t75 83t119 33.5q48 0 89 -18t67 -39l10 46h42zM447 416
q-11 11 -28 21.5t-37.5 19t-43.5 13.5t-47 5q-54 0 -90.5 -28.5t-58.5 -71.5t-31.5 -93.5t-9.5 -93.5q0 -45 9 -75t25.5 -48.5t38.5 -26.5t49 -8q22 0 42 4t41.5 14t46 28t54.5 47zM426 578l-82 130l-115 -132l-44 9l138 165h49l98 -165z" />
    <glyph glyph-name="atilde" unicode="&#xe3;" horiz-adv-x="568" 
d="M446 78q-3 -21 1 -33t23 -12q7 0 14.5 1t18.5 4l-5 -37q-9 -3 -17 -4t-18 -1q-30 0 -47.5 17t-12.5 59q-45 -42 -90.5 -63t-97.5 -21q-35 0 -64 11t-50.5 35t-33.5 62.5t-12 92.5q0 48 11 106t39 107.5t75 83t119 33.5q48 0 89 -18t67 -39l10 46h42zM447 416
q-11 11 -28 21.5t-37.5 19t-43.5 13.5t-47 5q-54 0 -90.5 -28.5t-58.5 -71.5t-31.5 -93.5t-9.5 -93.5q0 -45 9 -75t25.5 -48.5t38.5 -26.5t49 -8q22 0 42 4t41.5 14t46 28t54.5 47zM270 697q23 0 40.5 -7.5t32.5 -16.5t29.5 -16.5t31.5 -7.5q21 0 34 13.5t18 45.5l37 -2
q-4 -31 -12.5 -49.5t-20.5 -29t-26.5 -14t-30.5 -3.5q-22 0 -39.5 7t-33 16t-31 16t-33.5 7q-17 0 -30 -13.5t-18 -46.5l-37 2q4 30 13 49t21 30.5t26 15.5t29 4z" />
    <glyph glyph-name="adieresis" unicode="&#xe4;" horiz-adv-x="568" 
d="M446 78q-3 -21 1 -33t23 -12q7 0 14.5 1t18.5 4l-5 -37q-9 -3 -17 -4t-18 -1q-30 0 -47.5 17t-12.5 59q-45 -42 -90.5 -63t-97.5 -21q-35 0 -64 11t-50.5 35t-33.5 62.5t-12 92.5q0 48 11 106t39 107.5t75 83t119 33.5q48 0 89 -18t67 -39l10 46h42zM447 416
q-11 11 -28 21.5t-37.5 19t-43.5 13.5t-47 5q-54 0 -90.5 -28.5t-58.5 -71.5t-31.5 -93.5t-9.5 -93.5q0 -45 9 -75t25.5 -48.5t38.5 -26.5t49 -8q22 0 42 4t41.5 14t46 28t54.5 47zM205 660q0 23 14.5 37t38.5 14q37 0 37 -38q0 -24 -14 -37t-36 -13q-18 0 -29 9.5t-11 27.5
zM397 660q0 23 14.5 37t37.5 14q17 0 27.5 -10t10.5 -28q0 -24 -14.5 -37t-35.5 -13q-40 0 -40 37z" />
    <glyph glyph-name="aring" unicode="&#xe5;" horiz-adv-x="568" 
d="M446 78q-3 -21 1 -33t23 -12q7 0 14.5 1t18.5 4l-5 -37q-9 -3 -17 -4t-18 -1q-30 0 -47.5 17t-12.5 59q-45 -42 -90.5 -63t-97.5 -21q-35 0 -64 11t-50.5 35t-33.5 62.5t-12 92.5q0 48 11 106t39 107.5t75 83t119 33.5q48 0 89 -18t67 -39l10 46h42zM447 416
q-11 11 -28 21.5t-37.5 19t-43.5 13.5t-47 5q-54 0 -90.5 -28.5t-58.5 -71.5t-31.5 -93.5t-9.5 -93.5q0 -45 9 -75t25.5 -48.5t38.5 -26.5t49 -8q22 0 42 4t41.5 14t46 28t54.5 47zM448 689q0 -52 -31.5 -82.5t-84.5 -30.5q-42 0 -65 21t-23 59q0 28 9.5 49t25.5 35t36.5 21
t42.5 7q38 0 64 -18.5t26 -60.5zM337 611q34 0 51 21.5t17 51.5q0 49 -51 49q-29 0 -49 -18.5t-20 -54.5q0 -22 13 -35.5t39 -13.5z" />
    <glyph glyph-name="ae" unicode="&#xe6;" horiz-adv-x="848" 
d="M582 -12q-64 0 -104.5 25.5t-60.5 69.5q-54 -51 -103 -73t-99 -22q-35 0 -64 11t-50.5 34.5t-33.5 60.5t-12 90q0 33 4.5 71t15.5 75.5t29.5 71.5t46 60t65 41.5t87.5 15.5q43 0 84.5 -18t67.5 -39l8 47h48l-7 -41q29 24 67.5 37.5t83.5 13.5q37 0 65.5 -10t48 -27
t30 -40t10.5 -49q0 -45 -20.5 -76t-53 -51.5t-73 -32t-81.5 -17t-78.5 -7l-62.5 -2.5q1 -85 35 -131.5t113 -46.5q33 0 58.5 9t45 24.5t32.5 36t20 43.5l42 -8q-11 -39 -32 -67t-48 -45.5t-59 -25.5t-65 -8zM405 122q-5 20 -7.5 43.5t-2.5 46.5q0 53 14 105.5t43 94.5
q-30 29 -71 46.5t-89 17.5q-54 0 -90.5 -29t-59 -72.5t-32 -94.5t-9.5 -94q0 -45 9 -75t24.5 -48t37 -25.5t47.5 -7.5q23 0 44 4t43 14.5t46 28.5t53 45zM652 476q-50 0 -87.5 -18.5t-63 -50t-40 -73t-19.5 -87.5q56 1 113 6.5t102.5 20.5t74 43t28.5 75q0 42 -29.5 63
t-78.5 21z" />
    <glyph glyph-name="ccedilla" unicode="&#xe7;" horiz-adv-x="528" 
d="M149 -157q8 -6 24.5 -14t36.5 -8q26 0 44 13.5t18 42.5q0 25 -18.5 35.5t-55.5 11.5l18 66q-85 8 -123.5 66t-38.5 151q0 75 20.5 133t56 98t83.5 60.5t104 20.5q45 0 77.5 -14.5t53 -40t28 -61t2.5 -77.5l-44 -5q1 36 -4 64.5t-19 49t-38 31.5t-61 11q-35 0 -72.5 -13.5
t-68.5 -45t-51 -84t-20 -130.5q0 -49 12 -82t32 -53.5t46.5 -29.5t55.5 -9q60 0 101.5 28t61.5 93l42 -10q-10 -38 -29.5 -65.5t-45 -46.5t-56.5 -29t-65 -11l-10 -38q10 -2 22 -6t22.5 -12.5t18 -21.5t7.5 -31q0 -25 -8.5 -43t-23 -29.5t-32.5 -17t-36 -5.5q-32 0 -53 9
t-29 16z" />
    <glyph glyph-name="egrave" unicode="&#xe8;" horiz-adv-x="508" 
d="M242 -12q-53 0 -88.5 17.5t-58 48.5t-32 71.5t-9.5 87.5q0 55 15.5 110t48 98.5t81.5 70.5t117 27q37 0 65.5 -10t48 -27t29.5 -40t10 -49q0 -35 -11.5 -61t-32 -45t-47.5 -32t-57 -22t-61.5 -14t-60.5 -8t-55 -4t-44 -1q1 -31 6.5 -62.5t21.5 -57t45 -41.5t77 -16
q32 0 58 9.5t45 25t32 36t19 42.5l42 -8q-11 -39 -32 -67t-48 -45.5t-59 -25.5t-65 -8zM310 477q-48 0 -85 -18t-62.5 -49.5t-40.5 -73t-20 -89.5q9 0 33 1t56 4t68 9t70 17q41 14 66 42t25 72q0 42 -28.5 63.5t-81.5 21.5zM335 572l-119 178h68l90 -164z" />
    <glyph glyph-name="eacute" unicode="&#xe9;" horiz-adv-x="508" 
d="M242 -12q-53 0 -88.5 17.5t-58 48.5t-32 71.5t-9.5 87.5q0 55 15.5 110t48 98.5t81.5 70.5t117 27q37 0 65.5 -10t48 -27t29.5 -40t10 -49q0 -35 -11.5 -61t-32 -45t-47.5 -32t-57 -22t-61.5 -14t-60.5 -8t-55 -4t-44 -1q1 -31 6.5 -62.5t21.5 -57t45 -41.5t77 -16
q32 0 58 9.5t45 25t32 36t19 42.5l42 -8q-11 -39 -32 -67t-48 -45.5t-59 -25.5t-65 -8zM310 477q-48 0 -85 -18t-62.5 -49.5t-40.5 -73t-20 -89.5q9 0 33 1t56 4t68 9t70 17q41 14 66 42t25 72q0 42 -28.5 63.5t-81.5 21.5zM398 750h78l-169 -178l-39 14z" />
    <glyph glyph-name="ecircumflex" unicode="&#xea;" horiz-adv-x="508" 
d="M242 -12q-53 0 -88.5 17.5t-58 48.5t-32 71.5t-9.5 87.5q0 55 15.5 110t48 98.5t81.5 70.5t117 27q37 0 65.5 -10t48 -27t29.5 -40t10 -49q0 -35 -11.5 -61t-32 -45t-47.5 -32t-57 -22t-61.5 -14t-60.5 -8t-55 -4t-44 -1q1 -31 6.5 -62.5t21.5 -57t45 -41.5t77 -16
q32 0 58 9.5t45 25t32 36t19 42.5l42 -8q-11 -39 -32 -67t-48 -45.5t-59 -25.5t-65 -8zM310 477q-48 0 -85 -18t-62.5 -49.5t-40.5 -73t-20 -89.5q9 0 33 1t56 4t68 9t70 17q41 14 66 42t25 72q0 42 -28.5 63.5t-81.5 21.5zM423 578l-82 130l-115 -132l-44 9l138 165h49
l98 -165z" />
    <glyph glyph-name="edieresis" unicode="&#xeb;" horiz-adv-x="508" 
d="M242 -12q-53 0 -88.5 17.5t-58 48.5t-32 71.5t-9.5 87.5q0 55 15.5 110t48 98.5t81.5 70.5t117 27q37 0 65.5 -10t48 -27t29.5 -40t10 -49q0 -35 -11.5 -61t-32 -45t-47.5 -32t-57 -22t-61.5 -14t-60.5 -8t-55 -4t-44 -1q1 -31 6.5 -62.5t21.5 -57t45 -41.5t77 -16
q32 0 58 9.5t45 25t32 36t19 42.5l42 -8q-11 -39 -32 -67t-48 -45.5t-59 -25.5t-65 -8zM310 477q-48 0 -85 -18t-62.5 -49.5t-40.5 -73t-20 -89.5q9 0 33 1t56 4t68 9t70 17q41 14 66 42t25 72q0 42 -28.5 63.5t-81.5 21.5zM202 660q0 23 14.5 37t38.5 14q37 0 37 -38
q0 -24 -14 -37t-36 -13q-18 0 -29 9.5t-11 27.5zM394 660q0 23 14.5 37t37.5 14q17 0 27.5 -10t10.5 -28q0 -24 -14.5 -37t-35.5 -13q-40 0 -40 37z" />
    <glyph glyph-name="igrave" unicode="&#xec;" horiz-adv-x="233" 
d="M103 0h-49l72 509h49zM163 572l-119 178h68l90 -164z" />
    <glyph glyph-name="iacute" unicode="&#xed;" horiz-adv-x="233" 
d="M103 0h-49l72 509h49zM250 750h78l-169 -178l-39 14z" />
    <glyph glyph-name="icircumflex" unicode="&#xee;" horiz-adv-x="233" 
d="M103 0h-49l72 509h49zM259 578l-82 130l-115 -132l-44 9l138 165h49l98 -165z" />
    <glyph glyph-name="idieresis" unicode="&#xef;" horiz-adv-x="233" 
d="M103 0h-49l72 509h49zM27 660q0 23 14.5 37t38.5 14q37 0 37 -38q0 -24 -14 -37t-36 -13q-18 0 -29 9.5t-11 27.5zM219 660q0 23 14.5 37t37.5 14q17 0 27.5 -10t10.5 -28q0 -24 -14.5 -37t-35.5 -13q-40 0 -40 37z" />
    <glyph glyph-name="eth" unicode="&#xf0;" horiz-adv-x="566" 
d="M329 670q-60 40 -138 57l28 31q47 -12 84.5 -29t67.5 -39l120 59l11 -38l-99 -48q58 -55 81.5 -130t23.5 -163q0 -59 -10 -126t-38.5 -124t-79 -94.5t-132.5 -37.5q-53 0 -90.5 15.5t-61.5 44t-35 68t-11 87.5q0 59 17 112.5t50 94.5t80.5 65.5t108.5 24.5q44 0 85 -16.5
t67 -39.5h2q-8 64 -33.5 114t-64.5 85l-146 -70l-12 36zM300 457q-47 0 -84.5 -19t-63.5 -53t-40 -80.5t-14 -101.5q0 -30 6.5 -61t23 -55.5t44.5 -40.5t71 -16q65 0 107.5 27.5t67.5 75.5t35 113.5t10 140.5q-9 12 -25 24.5t-37 22.5t-46.5 16.5t-54.5 6.5z" />
    <glyph glyph-name="ntilde" unicode="&#xf1;" horiz-adv-x="581" 
d="M108 0h-49l71 508h47l-11 -72q16 12 38.5 26.5t49 27t56 21t59.5 8.5q77 0 111 -44t23 -132l-48 -343h-49l48 343q10 66 -11.5 99.5t-79.5 33.5q-27 0 -55.5 -9t-55.5 -22.5t-50.5 -29.5t-40.5 -29zM280 697q23 0 40.5 -7.5t32.5 -16.5t29.5 -16.5t31.5 -7.5
q21 0 34 13.5t18 45.5l37 -2q-4 -31 -12.5 -49.5t-20.5 -29t-26.5 -14t-30.5 -3.5q-22 0 -39.5 7t-33 16t-31 16t-33.5 7q-17 0 -30 -13.5t-18 -46.5l-37 2q4 30 13 49t21 30.5t26 15.5t29 4z" />
    <glyph glyph-name="ograve" unicode="&#xf2;" 
d="M246 -12q-51 0 -87 16t-59.5 44.5t-34.5 68t-11 87.5q0 57 14.5 113.5t47 101t83.5 72.5t124 28q51 0 86.5 -16t58 -44.5t32.5 -68.5t10 -88q0 -55 -14 -111t-45.5 -101t-82 -73.5t-122.5 -28.5zM251 30q57 0 97 23.5t65 62t36.5 87.5t11.5 100q0 173 -144 173
q-56 0 -97 -22t-67 -59.5t-38.5 -86.5t-12.5 -103q0 -85 36.5 -130t112.5 -45zM352 572l-119 178h68l90 -164z" />
    <glyph glyph-name="oacute" unicode="&#xf3;" 
d="M246 -12q-51 0 -87 16t-59.5 44.5t-34.5 68t-11 87.5q0 57 14.5 113.5t47 101t83.5 72.5t124 28q51 0 86.5 -16t58 -44.5t32.5 -68.5t10 -88q0 -55 -14 -111t-45.5 -101t-82 -73.5t-122.5 -28.5zM251 30q57 0 97 23.5t65 62t36.5 87.5t11.5 100q0 173 -144 173
q-56 0 -97 -22t-67 -59.5t-38.5 -86.5t-12.5 -103q0 -85 36.5 -130t112.5 -45zM405 750h78l-169 -178l-39 14z" />
    <glyph glyph-name="ocircumflex" unicode="&#xf4;" 
d="M246 -12q-51 0 -87 16t-59.5 44.5t-34.5 68t-11 87.5q0 57 14.5 113.5t47 101t83.5 72.5t124 28q51 0 86.5 -16t58 -44.5t32.5 -68.5t10 -88q0 -55 -14 -111t-45.5 -101t-82 -73.5t-122.5 -28.5zM251 30q57 0 97 23.5t65 62t36.5 87.5t11.5 100q0 173 -144 173
q-56 0 -97 -22t-67 -59.5t-38.5 -86.5t-12.5 -103q0 -85 36.5 -130t112.5 -45zM429 578l-82 130l-115 -132l-44 9l138 165h49l98 -165z" />
    <glyph glyph-name="otilde" unicode="&#xf5;" 
d="M246 -12q-51 0 -87 16t-59.5 44.5t-34.5 68t-11 87.5q0 57 14.5 113.5t47 101t83.5 72.5t124 28q51 0 86.5 -16t58 -44.5t32.5 -68.5t10 -88q0 -55 -14 -111t-45.5 -101t-82 -73.5t-122.5 -28.5zM251 30q57 0 97 23.5t65 62t36.5 87.5t11.5 100q0 173 -144 173
q-56 0 -97 -22t-67 -59.5t-38.5 -86.5t-12.5 -103q0 -85 36.5 -130t112.5 -45zM266 697q23 0 40.5 -7.5t32.5 -16.5t29.5 -16.5t31.5 -7.5q21 0 34 13.5t18 45.5l37 -2q-4 -31 -12.5 -49.5t-20.5 -29t-26.5 -14t-30.5 -3.5q-22 0 -39.5 7t-33 16t-31 16t-33.5 7
q-17 0 -30 -13.5t-18 -46.5l-37 2q4 30 13 49t21 30.5t26 15.5t29 4z" />
    <glyph glyph-name="odieresis" unicode="&#xf6;" 
d="M246 -12q-51 0 -87 16t-59.5 44.5t-34.5 68t-11 87.5q0 57 14.5 113.5t47 101t83.5 72.5t124 28q51 0 86.5 -16t58 -44.5t32.5 -68.5t10 -88q0 -55 -14 -111t-45.5 -101t-82 -73.5t-122.5 -28.5zM251 30q57 0 97 23.5t65 62t36.5 87.5t11.5 100q0 173 -144 173
q-56 0 -97 -22t-67 -59.5t-38.5 -86.5t-12.5 -103q0 -85 36.5 -130t112.5 -45zM197 660q0 23 14.5 37t38.5 14q37 0 37 -38q0 -24 -14 -37t-36 -13q-18 0 -29 9.5t-11 27.5zM389 660q0 23 14.5 37t37.5 14q17 0 27.5 -10t10.5 -28q0 -24 -14.5 -37t-35.5 -13q-40 0 -40 37z
" />
    <glyph glyph-name="divide" unicode="&#xf7;" horiz-adv-x="569" 
d="M310 184q0 -32 -16 -47.5t-45 -15.5q-47 0 -47 44q0 63 62 63q46 0 46 -44zM352 480q0 -32 -16.5 -48t-45.5 -16q-47 0 -47 45q0 32 16.5 47.5t45.5 15.5q47 0 47 -44zM96 295l7 45h370l-7 -45h-370z" />
    <glyph glyph-name="oslash" unicode="&#xf8;" 
d="M246 -12q-13 0 -25 1t-23 3l-28 -70h-43l33 81q-56 23 -81 76t-25 125q0 57 14.5 113.5t47 101t83.5 72.5t124 28q25 0 44 -4l27 67h43l-32 -78q57 -23 81 -75.5t24 -126.5q0 -55 -14 -111t-45.5 -101t-82 -73.5t-122.5 -28.5zM102 205q0 -60 18.5 -100.5t56.5 -59.5
l173 428q-8 1 -16.5 2t-16.5 1q-56 0 -97 -22t-67 -59.5t-38.5 -86.5t-12.5 -103zM251 30q57 0 97 23.5t65 62t36.5 87.5t11.5 100q0 121 -73 158l-173 -428q16 -3 36 -3z" />
    <glyph glyph-name="ugrave" unicode="&#xf9;" horiz-adv-x="582" 
d="M471 508h49l-72 -508h-45l9 70h-1q-15 -13 -37.5 -27.5t-48.5 -26.5t-56 -20t-60 -8q-76 0 -109.5 42.5t-21.5 132.5l48 345h49l-47 -339q-4 -26 -3.5 -50.5t8.5 -44t27 -31.5t53 -12q57 0 106 25t99 67zM354 572l-119 178h68l90 -164z" />
    <glyph glyph-name="uacute" unicode="&#xfa;" horiz-adv-x="582" 
d="M471 508h49l-72 -508h-45l9 70h-1q-15 -13 -37.5 -27.5t-48.5 -26.5t-56 -20t-60 -8q-76 0 -109.5 42.5t-21.5 132.5l48 345h49l-47 -339q-4 -26 -3.5 -50.5t8.5 -44t27 -31.5t53 -12q57 0 106 25t99 67zM415 750h78l-169 -178l-39 14z" />
    <glyph glyph-name="ucircumflex" unicode="&#xfb;" horiz-adv-x="582" 
d="M471 508h49l-72 -508h-45l9 70h-1q-15 -13 -37.5 -27.5t-48.5 -26.5t-56 -20t-60 -8q-76 0 -109.5 42.5t-21.5 132.5l48 345h49l-47 -339q-4 -26 -3.5 -50.5t8.5 -44t27 -31.5t53 -12q57 0 106 25t99 67zM431 578l-82 130l-115 -132l-44 9l138 165h49l98 -165z" />
    <glyph glyph-name="udieresis" unicode="&#xfc;" horiz-adv-x="582" 
d="M471 508h49l-72 -508h-45l9 70h-1q-15 -13 -37.5 -27.5t-48.5 -26.5t-56 -20t-60 -8q-76 0 -109.5 42.5t-21.5 132.5l48 345h49l-47 -339q-4 -26 -3.5 -50.5t8.5 -44t27 -31.5t53 -12q57 0 106 25t99 67zM199 660q0 23 14.5 37t38.5 14q37 0 37 -38q0 -24 -14 -37
t-36 -13q-18 0 -29 9.5t-11 27.5zM391 660q0 23 14.5 37t37.5 14q17 0 27.5 -10t10.5 -28q0 -24 -14.5 -37t-35.5 -13q-40 0 -40 37z" />
    <glyph glyph-name="yacute" unicode="&#xfd;" horiz-adv-x="447" 
d="M52 508h51l83 -445l218 445h52l-269 -537q-28 -56 -49 -93.5t-41.5 -60t-42.5 -31.5t-52 -9q-23 0 -42.5 5.5t-32.5 11.5l10 40q10 -5 28 -10t41 -5q17 0 31.5 6.5t28.5 23t30 43t36 67.5l20 41zM358 750h78l-169 -178l-39 14z" />
    <glyph glyph-name="thorn" unicode="&#xfe;" horiz-adv-x="580" 
d="M165 434h1h1q15 11 36.5 25.5t47 28t55 22.5t60.5 9q34 0 62.5 -10.5t48.5 -33.5t31 -59.5t11 -88.5q0 -89 -20.5 -153t-54.5 -105.5t-78.5 -61t-92.5 -19.5q-24 0 -47 5.5t-44 14t-39 19t-31 21.5l-36 -260h-48l132 936h46zM470 329q0 79 -26 113t-78 34
q-28 0 -58.5 -10.5t-58.5 -25t-51.5 -30.5t-36.5 -28l-40 -285q9 -8 23.5 -18.5t34 -21t43 -17.5t49.5 -7q57 0 95.5 26.5t61.5 68.5t32.5 95t9.5 106z" />
    <glyph glyph-name="ydieresis" unicode="&#xff;" horiz-adv-x="447" 
d="M52 508h51l83 -445l218 445h52l-269 -537q-28 -56 -49 -93.5t-41.5 -60t-42.5 -31.5t-52 -9q-23 0 -42.5 5.5t-32.5 11.5l10 40q10 -5 28 -10t41 -5q17 0 31.5 6.5t28.5 23t30 43t36 67.5l20 41zM131 660q0 23 14.5 37t38.5 14q37 0 37 -38q0 -24 -14 -37t-36 -13
q-18 0 -29 9.5t-11 27.5zM323 660q0 23 14.5 37t37.5 14q17 0 27.5 -10t10.5 -28q0 -24 -14.5 -37t-35.5 -13q-40 0 -40 37z" />
    <glyph glyph-name="apostrophe" unicode="&#x2bc;" horiz-adv-x="499" 
d="M320 683h62l-78 -150l-37 7z" />
    <glyph glyph-name="tilde" unicode="&#x2dc;" horiz-adv-x="499" 
d="M258 697q23 0 40.5 -7.5t32.5 -16.5t29.5 -16.5t31.5 -7.5q21 0 34 13.5t18 45.5l37 -2q-4 -31 -12.5 -49.5t-20.5 -29t-26.5 -14t-30.5 -3.5q-22 0 -39.5 7t-33 16t-31 16t-33.5 7q-17 0 -30 -13.5t-18 -46.5l-37 2q4 30 13 49t21 30.5t26 15.5t29 4z" />
    <glyph glyph-name="endash" unicode="&#x2013;" horiz-adv-x="500" 
d="M-2 263l7 39h499l-7 -39h-499z" />
    <glyph glyph-name="emdash" unicode="&#x2014;" horiz-adv-x="1000" 
d="M-2 263l6 39h999l-6 -39h-999z" />
    <glyph glyph-name="quoteleft" unicode="&#x2018;" horiz-adv-x="175" 
d="M139 560h-65l106 208l40 -7z" />
    <glyph glyph-name="quoteright" unicode="&#x2019;" horiz-adv-x="175" 
d="M157 760h65l-106 -208l-40 7z" />
    <glyph glyph-name="quotedblleft" unicode="&#x201c;" horiz-adv-x="309" 
d="M273 560h-65l106 208l40 -7zM139 560h-65l106 208l40 -7z" />
    <glyph glyph-name="quotedblright" unicode="&#x201d;" horiz-adv-x="310" 
d="M291 760h65l-106 -208l-40 7zM157 760h65l-106 -208l-40 7z" />
    <glyph glyph-name="quotedblbase" unicode="&#x201e;" horiz-adv-x="308" 
d="M56 81h65l-106 -208l-40 7zM189 81h65l-106 -208l-40 7z" />
    <glyph glyph-name="bullet" unicode="&#x2022;" horiz-adv-x="359" 
d="M309 303q0 -73 -39 -110.5t-108 -37.5q-54 0 -83 26t-29 77q0 72 39 110t108 38q54 0 83 -26t29 -77z" />
    <glyph glyph-name="ellipsis" unicode="&#x2026;" horiz-adv-x="584" 
d="M496 45q0 -29 -15.5 -43t-41.5 -14q-42 0 -42 40q0 29 15.5 43t41.5 14q42 0 42 -40zM312 45q0 -29 -15.5 -43t-41.5 -14q-42 0 -42 40q0 29 15.5 43t41.5 14q42 0 42 -40zM116 45q0 -29 -15.5 -43t-41.5 -14q-42 0 -42 40q0 29 15.5 43t41.5 14q42 0 42 -40z" />
    <glyph glyph-name="guilsinglleft" unicode="&#x2039;" horiz-adv-x="278" 
d="M136 103l-66 158l110 147h54l-103 -146l59 -159h-54z" />
    <glyph glyph-name="guilsinglright" unicode="&#x203a;" horiz-adv-x="277" 
d="M33 103l110 153l-61 152h52l66 -155l-111 -150h-56z" />
    <glyph glyph-name="Euro" unicode="&#x20ac;" horiz-adv-x="645" 
d="M128 455q16 58 43.5 109.5t67.5 90t92 61t117 22.5q32 0 65 -8t59 -30t40.5 -61.5t10.5 -103.5l-44 -4q1 42 -5 73.5t-22 52t-43 31t-68 10.5q-38 0 -77 -14t-75 -44t-66 -76t-48 -109h237l-12 -40h-234q-11 -52 -13 -117h217l-12 -40h-205q3 -111 46.5 -170t138.5 -59
q44 0 76.5 14t55 35.5t36.5 47.5t22 50l39 -12q-27 -90 -89 -133t-146 -43q-59 0 -101 19t-69 54t-40.5 85t-15.5 112h-81l11 40h70q2 61 13 117h-62l10 40h61z" />
    <glyph glyph-name="trademark" unicode="&#x2122;" horiz-adv-x="815" 
d="M743 348v291l-120 -291h-35l-117 292v-292h-44v376h56l124 -307l128 307h50v-376h-42zM232 348h-46v335h-136v41h319v-41h-137v-335z" />
    </font>
</defs>
</svg>
