<?xml version="1.0" standalone="no"?>
<!DOCTYPE svg PUBLIC "-//W3C//DTD SVG 1.1//EN" "http://www.w3.org/Graphics/SVG/1.1/DTD/svg11.dtd" >
<svg xmlns="http://www.w3.org/2000/svg" xmlns:xlink="http://www.w3.org/1999/xlink" version="1.1">
<metadata>
Created by FontForge 20170731 at Wed Feb  6 03:45:25 2013
 By Aleksey,,,
Copyright (c) 2012 by TypeTogether. All rights reserved.
</metadata>
<defs>
<font id="AdelleSans" horiz-adv-x="759" >
  <font-face 
    font-family="Adelle Sans"
    font-weight="400"
    font-stretch="normal"
    units-per-em="1000"
    panose-1="2 0 5 3 0 0 0 2 0 4"
    ascent="750"
    descent="-250"
    x-height="513"
    cap-height="724"
    bbox="-71 -232 999 913"
    underline-thickness="50"
    underline-position="-150"
    unicode-range="U+000D-2122"
  />
<missing-glyph horiz-adv-x="364" 
d="M33 666h265v-666h-265v666zM265 33v600h-199v-600h199z" />
    <glyph glyph-name=".notdef" horiz-adv-x="364" 
d="M33 666h265v-666h-265v666zM265 33v600h-199v-600h199z" />
    <glyph glyph-name=".null" horiz-adv-x="0" 
 />
    <glyph glyph-name=".null" horiz-adv-x="0" 
 />
    <glyph glyph-name="nonmarkingreturn" unicode="&#xd;" horiz-adv-x="333" 
 />
    <glyph glyph-name="space" unicode=" " horiz-adv-x="214" 
 />
    <glyph glyph-name="exclam" unicode="!" horiz-adv-x="266" 
d="M99 188l-17 536h102l-16 -536h-69zM201 52q0 -64 -67 -64t-67 64q0 65 67 65t67 -65z" />
    <glyph glyph-name="quotedbl" unicode="&#x22;" horiz-adv-x="361" 
d="M213 465v259h90v-259h-90zM58 465v259h90v-259h-90z" />
    <glyph glyph-name="numbersign" unicode="#" horiz-adv-x="607" 
d="M321 0l22 144h-121l-22 -144h-72l21 144h-115l16 69h110l23 145h-115l14 70h111l19 131h73l-20 -131h119l19 131h73l-20 -131h115l-13 -70h-112l-21 -145h114l-14 -69h-110l-22 -144h-72zM374 358h-119l-23 -145h121z" />
    <glyph glyph-name="dollar" unicode="$" horiz-adv-x="529" 
d="M387 518q-9 49 -29 78q-20 28 -60 36v-240q86 -22 135 -65q48 -42 48 -128q0 -83 -48 -132q-48 -50 -132 -60v-86h-75v85q-178 12 -198 191l83 17q12 -67 38 -99q25 -31 83 -37v241q-20 5 -36.5 11t-30.5 12q-27 12 -54 33t-41 56q-14 36 -14 81q0 82 48 132
q48 49 126 60v87h76v-84q151 -14 171 -177l-84 -13zM389 191q0 47 -24 71q-25 24 -68 38v-220q92 20 92 111zM139 526q0 -41 20 -69q19 -27 68 -45v220q-88 -16 -88 -107v1z" />
    <glyph glyph-name="percent" unicode="%" horiz-adv-x="801" 
d="M187 373q-85 0 -122 49q-38 50 -38 127q0 84 44 136q43 51 125 51q158 0 158 -174q0 -87 -43 -137q-44 -51 -123 -51zM190 438q46 0 66 30q19 29 19 89q0 54 -18 84t-64 30q-86 0 -86 -116q0 -56 18 -86t65 -30v-1zM587 -15q-85 0 -122 49q-38 50 -38 127q0 84 44 136
q43 51 125 51q158 0 158 -174q0 -87 -43 -137q-44 -51 -123 -51zM590 50q46 0 66 30q19 29 19 89q0 54 -18 84t-64 30q-86 0 -86 -116q0 -56 18 -86t65 -30v-1zM122 -20l439 740h81l-438 -740h-82z" />
    <glyph glyph-name="ampersand" unicode="&#x26;" horiz-adv-x="699" 
d="M489 558q0 -114 -150 -178l-36 -16q33 -54 84 -117q46 -59 84 -99q48 68 51 193h81q-1 -149 -74 -243q46 -36 89 -36q24 0 45 10l16 -68q-31 -17 -72 -17q-67 0 -138 53q-71 -54 -186 -54q-102 0 -164 56t-62 143q0 70 33 118t101 83q-39 72 -39 144t51 120t131 48
q63 0 107 -31q45 -32 45 -106zM299 58q67 0 114 30q-57 54 -115 133q-24 32 -42 58t-31 46q-75 -47 -75 -133q0 -55 38 -95q37 -39 110 -39h1zM244 535q0 -55 30 -116q3 0 18 7l17 7q100 43 100 119q0 32 -19 51q-20 20 -57 20q-39 0 -64 -23q-24 -23 -24 -63z" />
    <glyph glyph-name="quotesingle" unicode="'" horiz-adv-x="206" 
d="M58 465v259h90v-259h-90z" />
    <glyph glyph-name="parenleft" unicode="(" horiz-adv-x="317" 
d="M200 -152q-144 217 -144 432q0 222 153 444h94q-75 -118 -114 -223q-39 -107 -39 -219q0 -124 36 -223q36 -100 105 -212z" />
    <glyph glyph-name="parenright" unicode=")" horiz-adv-x="317" 
d="M17 -153q69 112 105 212q36 99 36 223q0 112 -39 219q-39 105 -114 223h94q153 -222 153 -444q0 -215 -144 -432z" />
    <glyph glyph-name="asterisk" unicode="*" horiz-adv-x="471" 
d="M273 617l128 32l13 -43l-119 -60l79 -120l-34 -27l-106 100l-105 -103l-34 29l78 121l-121 59l14 43l130 -31l19 138h42z" />
    <glyph glyph-name="plus" unicode="+" horiz-adv-x="570" 
d="M243 128v152h-147v83h147v150h83v-150h147v-83h-147v-152h-83z" />
    <glyph glyph-name="comma" unicode="," horiz-adv-x="218" 
d="M70 106h101l-84 -235l-73 9z" />
    <glyph glyph-name="hyphen" unicode="-" horiz-adv-x="316" 
d="M20 251v87h271v-87h-271z" />
    <glyph glyph-name="period" unicode="." horiz-adv-x="226" 
d="M113 122q68 0 68 -67t-68 -67t-68 67t68 67z" />
    <glyph glyph-name="slash" unicode="/" horiz-adv-x="379" 
d="M7 -92l281 847h82l-280 -847h-83z" />
    <glyph glyph-name="zero" unicode="0" horiz-adv-x="562" 
d="M40 359q0 85 12 150q12 64 39 117q27 52 77 81q49 28 120 28q58 0 99 -19q43 -20 68 -51q24 -30 40 -80t20 -98q2 -25 3.5 -54t1.5 -62q0 -72 -6 -127q-6 -58 -22 -105q-17 -50 -43 -81q-27 -32 -70 -51q-42 -19 -102 -19q-58 0 -100 18t-68 50t-41 81t-21 102
q-6 52 -6 122zM283 55q86 0 117 76q31 75 31 228q0 73 -6 123q-6 49 -21 91t-44 62t-74 20q-88 0 -121 -75t-33 -226q0 -71 6 -119t21 -90t45 -63t77 -21z" />
    <glyph glyph-name="one" unicode="1" horiz-adv-x="413" 
d="M201 -2v599q-23 -14 -74 -23t-81 -9l-7 74q70 6 119 26q47 19 82 59h52v-724z" />
    <glyph glyph-name="two" unicode="2" horiz-adv-x="523" 
d="M266 736q93 0 146 -45t53 -135q0 -76 -36 -139t-121 -163l-147 -172v-2h314v-80h-420v76l170 205q84 101 117 155q31 52 31 117q0 107 -114 107q-64 0 -91 -30q-26 -29 -37 -91l-83 15q25 183 219 183z" />
    <glyph glyph-name="three" unicode="3" horiz-adv-x="541" 
d="M122 173q12 -55 36 -82t90 -27q59 0 99 35q39 34 39 105q0 137 -152 137h-65v77h46q74 0 118 36q43 36 43 97q0 108 -114 108q-60 0 -87 -24t-42 -78l-81 18q32 161 219 161q95 0 145 -46q51 -47 51 -126q0 -74 -42 -117q-42 -44 -99 -57v-3q154 -28 154 -184
q0 -98 -63 -156q-64 -59 -169 -59q-191 0 -210 168z" />
    <glyph glyph-name="four" unicode="4" horiz-adv-x="553" 
d="M356 0v178h-334v68l309 478h114v-468h85v-78h-86v-178h-88zM357 256v378l-245 -378h245z" />
    <glyph glyph-name="five" unicode="5" horiz-adv-x="541" 
d="M100 720h346v-80h-275l-21 -233q59 49 142 49q85 0 141 -52q57 -53 57 -168q0 -112 -65 -182q-65 -69 -177 -69q-84 0 -144 42q-59 42 -73 128l85 21q21 -111 132 -111q62 0 104 42t42 128q0 75 -36 111t-96 36q-71 0 -129 -55l-62 28z" />
    <glyph glyph-name="six" unicode="6" horiz-adv-x="565" 
d="M426 557q-13 56 -39 79q-25 22 -69 22q-48 0 -82 -27t-52 -73q-9 -23 -15.5 -46.5t-10.5 -47.5q-8 -48 -9 -102q28 31 77 54t101 23q93 0 143 -56t50 -152q0 -116 -61 -180t-165 -64q-67 0 -115 27t-72 78q-23 49 -34 110q-10 56 -10 135q0 53 6 104q6 50 24 106
q18 54 47 96q28 39 77 67q48 27 111 27q154 0 182 -154zM152 281q1 -38 6 -66q2 -14 5.5 -29t8.5 -31q9 -32 24 -51q15 -20 40 -33t58 -13q59 0 95 42t36 122q0 138 -118 138q-82 0 -155 -78v-1z" />
    <glyph glyph-name="seven" unicode="7" horiz-adv-x="512" 
d="M99 0l296 644h-360v80h456v-70l-295 -654h-97z" />
    <glyph glyph-name="eight" unicode="8" horiz-adv-x="540" 
d="M355 381q76 -33 113 -75q38 -43 38 -120q0 -88 -66 -143q-67 -56 -175 -56q-116 0 -172 52q-57 52 -57 135q0 128 152 197q-128 59 -128 176q0 91 62 141q61 49 162 49q97 0 153 -45t56 -121q0 -116 -138 -188v-2zM257 331q-64 -30 -96 -64q-33 -35 -33 -90
q0 -115 140 -115q73 0 108 35t35 87q0 31 -13 54q-14 24 -39 42q-13 9 -24.5 16t-22.5 12t-24 11t-30 12h-1zM279 414q121 61 121 150q0 96 -122 96q-59 0 -92 -27t-33 -75q0 -50 33 -81q33 -32 93 -63z" />
    <glyph glyph-name="nine" unicode="9" horiz-adv-x="565" 
d="M127 169q13 -57 44 -82q30 -24 81 -24q158 0 164 290q-29 -32 -76 -54t-101 -22q-94 0 -142 57t-48 159q0 115 63 180t167 65q56 0 95 -19q40 -20 66 -51q25 -30 40 -78q15 -46 21 -95q6 -48 6 -109q0 -398 -257 -398q-173 0 -203 158zM409 430q-1 25 -2.5 46t-4.5 38
t-7.5 35t-11.5 36q-14 37 -42 56q-29 20 -71 20q-60 0 -96 -42t-36 -124q0 -143 118 -143q44 0 85 22q43 23 71 57z" />
    <glyph glyph-name="colon" unicode=":" horiz-adv-x="226" 
d="M113 122q68 0 68 -67t-68 -67t-68 67t68 67zM113 501q68 0 68 -67t-68 -67t-68 67t68 67z" />
    <glyph glyph-name="semicolon" unicode=";" horiz-adv-x="218" 
d="M61 106h101l-84 -235l-73 9zM125 501q68 0 68 -67t-68 -67t-68 67t68 67z" />
    <glyph glyph-name="less" unicode="&#x3c;" horiz-adv-x="570" 
d="M83 238v98l379 153v-84l-296 -115l296 -111v-86z" />
    <glyph glyph-name="equal" unicode="=" horiz-adv-x="570" 
d="M98 157v85h374v-85h-374zM98 321v85h374v-85h-374z" />
    <glyph glyph-name="greater" unicode="&#x3e;" horiz-adv-x="570" 
d="M91 98v81l296 111l-296 113v86l379 -153v-94z" />
    <glyph glyph-name="question" unicode="?" horiz-adv-x="508" 
d="M158 185v179q94 7 152 44q57 36 57 118q0 67 -33 94t-91 27q-56 0 -90 -25q-35 -26 -48 -88l-85 15q14 79 69 128q56 50 159 50q95 0 153 -46q59 -47 59 -150q0 -184 -216 -227v-117zM267 50q0 -64 -67 -64t-67 64q0 65 67 65t67 -65z" />
    <glyph glyph-name="at" unicode="@" horiz-adv-x="842" 
d="M671 -105q-82 -73 -245 -73q-168 0 -274 94t-106 271q0 173 108 278t285 105q157 0 256 -84t99 -238q0 -126 -47 -190q-47 -63 -128 -63q-40 0 -70 15t-42 40q-44 -59 -120 -59q-77 0 -111 51q-35 52 -35 135q0 96 47 158t125 62q54 0 92 -36l5 30h62v-254q0 -42 9 -61
t44 -19q42 0 68 48q26 49 26 132q0 268 -285 268q-143 0 -226 -89q-82 -88 -82 -224q0 -150 85 -225t226 -75q124 0 200 61zM499 303q-35 30 -78 30q-47 0 -75 -37q-29 -38 -29 -114q0 -129 83 -129q61 0 99 62v188z" />
    <glyph glyph-name="A" unicode="A" horiz-adv-x="687" 
d="M400 724l252 -724h-101l-73 215h-278l-71 -215h-93l244 724h120zM339 640h-1l-116 -346h233z" />
    <glyph glyph-name="B" unicode="B" horiz-adv-x="628" 
d="M95 3v724h249q119 0 169 -48q49 -48 49 -130q0 -72 -39 -114t-104 -57v-2q173 -23 173 -180q0 -196 -268 -196zM309 80q92 0 138 25q47 26 47 100q0 129 -164 129h-144v-254h123zM287 409q33 0 62 6q30 6 57 19q29 14 45 40t16 64q0 65 -36 89t-114 24h-132v-241z" />
    <glyph glyph-name="C" unicode="C" horiz-adv-x="692" 
d="M370 -12q-164 0 -240 96q-77 97 -77 267q0 182 90 284t246 102q118 0 189 -60q70 -60 78 -183l-86 -9q-11 87 -54 129q-44 42 -130 42q-115 0 -178 -75t-63 -222q0 -292 229 -292q87 0 131 37q45 38 63 115l83 -17q-12 -77 -57 -126q-45 -50 -102 -69q-56 -19 -124 -19h2
z" />
    <glyph glyph-name="D" unicode="D" horiz-adv-x="728" 
d="M96 -1v724h223q183 0 271 -91t88 -259q0 -173 -94 -273t-282 -100zM301 76q139 0 210 74t71 209q0 158 -67 222t-204 64h-123v-568z" />
    <glyph glyph-name="E" unicode="E" horiz-adv-x="575" 
d="M188 80h344v-80h-436v724h423v-80h-331v-239h311v-80h-311v-245z" />
    <glyph glyph-name="F" unicode="F" horiz-adv-x="547" 
d="M188 0h-92v724h423v-80h-331v-251h306v-80h-306v-313z" />
    <glyph glyph-name="G" unicode="G" horiz-adv-x="736" 
d="M577 97q-20 -47 -81 -78t-136 -31q-157 0 -234 98q-76 97 -76 267q0 183 90 284t249 101q250 0 268 -241l-88 -9q-9 88 -54 129q-46 41 -130 41q-115 0 -178 -78t-63 -219q0 -295 232 -295q92 0 143 51t51 122v62h-192v75h279v-376h-67z" />
    <glyph glyph-name="H" unicode="H" horiz-adv-x="728" 
d="M632 0h-92v328h-352v-328h-92v724h92v-313h352v313h92v-724z" />
    <glyph glyph-name="I" unicode="I" horiz-adv-x="284" 
d="M188 0h-92v724h92v-724z" />
    <glyph glyph-name="J" unicode="J" horiz-adv-x="499" 
d="M321 721h92v-541q0 -104 -51 -149t-147 -45q-89 0 -136 41q-46 40 -52 129l88 15q6 -55 26 -81q19 -25 75 -25q50 0 77 24t27 90z" />
    <glyph glyph-name="K" unicode="K" horiz-adv-x="644" 
d="M188 371l325 353h103l-285 -310l299 -414h-108l-254 342l-80 -85v-257h-92v724h92v-353z" />
    <glyph glyph-name="L" unicode="L" horiz-adv-x="552" 
d="M188 81h326v-81h-418v724h92v-643z" />
    <glyph glyph-name="M" unicode="M" horiz-adv-x="897" 
d="M801 0h-87v625h-1l-219 -625h-96l-215 626h-2v-626h-85v724h140l213 -616h1l213 616h138v-724z" />
    <glyph glyph-name="N" unicode="N" horiz-adv-x="745" 
d="M538 0l-356 607v-607h-86v724h121l347 -601v601h85v-724h-111z" />
    <glyph glyph-name="O" unicode="O" 
d="M48 362q0 166 90 270t251 104q157 0 238 -100q81 -101 81 -261q0 -180 -86 -284t-248 -104t-243 102t-81 273h-2zM378 67q106 0 171 75q64 74 64 223q0 141 -61 215q-62 75 -168 75q-108 0 -174 -76q-66 -77 -66 -217q0 -143 63 -218t171 -75v-2z" />
    <glyph glyph-name="P" unicode="P" horiz-adv-x="616" 
d="M187 0h-91v724h236q129 0 185 -60q56 -61 56 -157q0 -244 -276 -244h-110v-263zM290 344q89 0 139 33q49 33 49 126q0 77 -42 110t-131 33h-118v-304z" />
    <glyph glyph-name="Q" unicode="Q" 
d="M374 -12q-161 0 -243 102q-82 101 -82 272q0 166 90 270t251 104q157 0 238 -100q81 -101 81 -261q0 -188 -94 -288l89 -96l-54 -51l-92 99q-69 -51 -183 -51h-1zM378 65q71 0 123 31l-132 139l57 54l131 -144q58 85 58 220q0 141 -61 215q-62 75 -168 75
q-108 0 -174 -76q-66 -77 -66 -217q0 -143 63 -219t170 -76z" />
    <glyph glyph-name="R" unicode="R" horiz-adv-x="625" 
d="M617 -1h-100l-166 301h-163v-301h-91v724h248q66 0 111 -16q46 -17 72 -45q26 -29 38 -62t12 -73q0 -154 -140 -202zM323 376q77 0 119 33t42 112q0 70 -43 97q-44 27 -127 27h-126v-268z" />
    <glyph glyph-name="S" unicode="S" horiz-adv-x="583" 
d="M297 654q-151 0 -151 -113q0 -24 11 -46q10 -21 24 -33t40 -24q27 -12 45 -18l22.5 -7.5t31.5 -9.5q21 -6 37.5 -11t27.5 -9q22 -8 57 -24q35 -17 53 -36q19 -21 32 -51q14 -33 14 -72q0 -108 -73 -160t-183 -52q-237 0 -264 209l88 13q15 -68 54 -105q40 -38 124 -38
q69 0 115 28t46 94q0 27 -10 47q-11 21 -24 33q-14 12 -39 24q-24 11 -44 18q-9 3 -22 7t-30 9q-16 5 -27 8.5t-19 5.5t-18.5 6t-24.5 9t-24.5 10t-18.5 10t-16.5 11.5t-19.5 14.5q-20 15 -31 35q-10 17 -18 44q-7 24 -7 57q0 92 69 146t176 54q217 0 237 -204l-86 -10
q-11 64 -43 99q-33 36 -109 36z" />
    <glyph glyph-name="T" unicode="T" horiz-adv-x="554" 
d="M232 0v644h-219v80h528v-80h-217v-644h-92z" />
    <glyph glyph-name="U" unicode="U" horiz-adv-x="714" 
d="M357 66q90 0 132 42t42 141v473h91v-481q0 -128 -69 -191t-200 -63q-137 0 -200 64t-63 193v479h92v-470q0 -97 44 -141t132 -44z" />
    <glyph glyph-name="V" unicode="V" horiz-adv-x="621" 
d="M254 0l-244 724h103l205 -635h1l198 635h94l-232 -724h-125z" />
    <glyph glyph-name="W" unicode="W" horiz-adv-x="888" 
d="M602 0l-154 595h-1l-158 -595h-114l-158 724h96l124 -616h1l160 616h102l160 -624h1l119 624h92l-153 -724h-117z" />
    <glyph glyph-name="X" unicode="X" horiz-adv-x="625" 
d="M363 371l248 -371h-106l-199 297l-192 -297h-100l238 367l-226 357h104l179 -286l185 286h97z" />
    <glyph glyph-name="Y" unicode="Y" horiz-adv-x="566" 
d="M334 0h-92v280l-247 444h104l190 -353h2l185 353h95l-237 -442v-282z" />
    <glyph glyph-name="Z" unicode="Z" horiz-adv-x="588" 
d="M146 80h401v-80h-513v68l387 576h-376v80h486v-70z" />
    <glyph glyph-name="bracketleft" unicode="[" horiz-adv-x="272" 
d="M64 -143v867h169v-64h-83v-739h83v-64h-169z" />
    <glyph glyph-name="backslash" unicode="\" horiz-adv-x="380" 
d="M290 -92l-280 847h82l281 -847h-83z" />
    <glyph glyph-name="bracketright" unicode="]" horiz-adv-x="272" 
d="M39 -143v64h83v739h-83v64h169v-867h-169z" />
    <glyph glyph-name="asciicircum" unicode="^" horiz-adv-x="571" 
d="M441 299l-158 282l-155 -282h-87l197 365h93l200 -365h-90z" />
    <glyph glyph-name="underscore" unicode="_" horiz-adv-x="500" 
d="M0 -181v71h500v-71h-500z" />
    <glyph glyph-name="grave" unicode="`" horiz-adv-x="500" 
d="M131 747h109l97 -163l-66 -12z" />
    <glyph glyph-name="a" unicode="a" horiz-adv-x="545" 
d="M457 97q0 -22 6 -31t25 -9q10 0 30 6l4 -57q-31 -16 -71 -16q-70 0 -79 61q-63 -63 -165 -63q-45 0 -78 14q-32 14 -47 36t-21 44q-6 21 -6 43q0 175 266 175q8 0 19.5 -0.5t25.5 -1.5v50q0 52 -21 78t-80 26q-52 0 -76 -21t-33 -64l-80 15q12 73 60 107q49 35 137 35
q96 0 140 -41t44 -135v-251zM366 235q-21 3 -52 3q-33 0 -57 -3t-51 -12t-42 -30t-15 -52q0 -82 86 -82q37 0 74 17q36 17 59 41z" />
    <glyph glyph-name="b" unicode="b" horiz-adv-x="581" 
d="M80 -1v755h90v-298q77 68 174 68q86 0 137 -61q51 -62 51 -195q0 -142 -60 -211t-156 -69q-77 0 -150 57h-1l-5 -45zM171 117q73 -53 132 -53q134 0 134 205q0 91 -30 135q-30 43 -93 43q-40 0 -78 -19q-40 -20 -65 -45v-266z" />
    <glyph glyph-name="c" unicode="c" horiz-adv-x="538" 
d="M284 -16q-122 0 -179 71q-57 70 -57 194q0 133 65 204q64 70 182 70q88 0 141 -45t57 -133l-87 -12q-12 115 -115 115q-64 0 -106 -42t-42 -143q0 -199 144 -199q109 0 129 110l80 -17q-12 -85 -70 -127q-59 -42 -141 -42z" />
    <glyph glyph-name="d" unicode="d" horiz-adv-x="577" 
d="M500 -1h-76l-7 55l-1 1q-76 -68 -170 -68q-92 0 -144 63q-52 62 -52 198q0 143 61 210t156 67q84 0 144 -48v278h89v-756zM409 401q-60 45 -131 45q-135 0 -135 -198q0 -96 31 -140q31 -45 99 -45q74 0 137 63z" />
    <glyph glyph-name="e" unicode="e" horiz-adv-x="546" 
d="M283 -15q-66 0 -114 21q-47 21 -73 60q-27 41 -38 85q-12 46 -12 102q0 133 68 201t174 68q103 0 154 -60t51 -161q0 -17 -1 -33.5t-3 -32.5h-346q3 -92 41 -132q37 -39 104 -39q99 0 121 91l80 -18q-15 -74 -69 -111q-55 -38 -134 -38zM397 306q0 143 -116 143
q-56 0 -95 -36q-38 -36 -43 -108z" />
    <glyph glyph-name="f" unicode="f" horiz-adv-x="327" 
d="M336 678q-36 13 -72 13q-38 0 -60 -20q-21 -20 -21 -71v-86h143v-73h-143v-441h-91v441h-76v73h76v83q0 168 153 168q57 0 94 -17z" />
    <glyph glyph-name="g" unicode="g" horiz-adv-x="552" 
d="M269 521q102 0 149 -47q28 67 81 67q19 0 45 -8v-73h-14q-48 0 -84 -11q38 -44 38 -111q0 -86 -60 -135q-59 -49 -151 -49q-58 0 -92 12l-6 -6l-6 -6l-6 -6q-5 -5 -6 -7q-2 -4 -4 -7t-4 -9q-1 -3 -1 -9q0 -17 14 -26q13 -9 51 -12l143 -10q86 -6 126 -34q41 -29 41 -99
q0 -61 -40 -98q-41 -38 -96 -51q-58 -14 -126 -14q-231 0 -231 127q0 77 83 118v1q-56 23 -56 72q0 30 18 53q18 22 51 48q-37 20 -56 57q-20 38 -20 87q0 85 60 138q59 52 159 52v-4zM395 335q0 112 -124 112q-58 0 -94 -27t-36 -83q0 -110 128 -110q57 0 92 29t35 80z
M433 -78q0 30 -18 44q-18 13 -68 18l-167 10q-31 -19 -45 -38q-13 -17 -13 -43q0 -72 151 -72q159 0 159 81h1z" />
    <glyph glyph-name="h" unicode="h" horiz-adv-x="582" 
d="M507 0h-91v335q0 57 -22 83q-23 27 -73 27q-39 0 -82 -20q-41 -19 -67 -42v-383h-91v755h90v-299q88 69 181 69q157 0 157 -176z" />
    <glyph glyph-name="i" unicode="i" horiz-adv-x="249" 
d="M172 0h-91v514h91v-514zM64 681q0 65 64 65q31 0 48 -17t17 -48q0 -30 -17 -49q-17 -18 -48 -18t-48 17q-16 16 -16 48v2z" />
    <glyph glyph-name="j" unicode="j" horiz-adv-x="247" 
d="M26 -223q-63 0 -97 20l10 74q37 -15 75 -15q67 0 67 81v577h91v-581q0 -156 -146 -156zM192 677q0 -32 -16 -48q-17 -17 -48 -17q-32 0 -48 18q-17 19 -17 49q0 31 17 48t48 17t48 -17t17 -48z" />
    <glyph glyph-name="k" unicode="k" horiz-adv-x="531" 
d="M172 288l221 226h103l-178 -185l191 -329h-100l-158 265l-79 -78v-187h-91v755h91v-467z" />
    <glyph glyph-name="l" unicode="l" horiz-adv-x="249" 
d="M172 0h-91v755h91v-755z" />
    <glyph glyph-name="m" unicode="m" horiz-adv-x="866" 
d="M171 3h-91v514h78l5 -58q90 69 175 69q99 0 129 -71q89 71 177 71q80 0 113 -43q33 -44 33 -132v-350h-91v337q0 56 -16 81q-17 26 -63 26q-34 0 -73 -18q-41 -19 -65 -40q1 -12 1.5 -21.5t0.5 -16.5v-350h-91v337q0 56 -16 81q-17 26 -63 26q-38 0 -77 -19
q-42 -20 -65 -42z" />
    <glyph glyph-name="n" unicode="n" horiz-adv-x="582" 
d="M506 0h-91v335q0 57 -22 83q-23 27 -73 27q-39 0 -82 -20q-41 -19 -67 -42v-383h-91v514h80l5 -61q90 72 185 72q81 0 120 -44t39 -132z" />
    <glyph glyph-name="o" unicode="o" horiz-adv-x="578" 
d="M285 -12q-237 0 -237 267q0 126 65 199q64 72 186 72q118 0 174 -69q56 -70 56 -190q0 -279 -243 -279h-1zM291 60q143 0 143 200q0 104 -34 147t-105 43q-152 0 -152 -191q0 -102 36 -150t111 -48z" />
    <glyph glyph-name="p" unicode="p" horiz-adv-x="581" 
d="M81 513h79l5 -59q77 70 178 70q188 0 188 -256q0 -142 -60 -211t-154 -69q-81 0 -148 50v-250h-88v725zM172 114q66 -51 132 -51q134 0 134 205q0 95 -30 137t-93 42q-40 0 -78 -19q-40 -20 -65 -45v-269z" />
    <glyph glyph-name="q" unicode="q" horiz-adv-x="575" 
d="M499 -212h-86v263q-80 -63 -168 -63q-196 0 -196 262q0 142 62 209q61 66 156 66q82 0 146 -56l8 45h79zM408 398q-64 50 -131 50q-135 0 -135 -197q0 -95 31 -141t99 -46q74 0 137 63z" />
    <glyph glyph-name="r" unicode="r" horiz-adv-x="364" 
d="M354 429q-9 1 -15.5 1.5t-10.5 0.5q-43 0 -85 -16q-43 -16 -70 -42v-374h-91v514h76l7 -74q63 85 171 85h9h9v-95z" />
    <glyph glyph-name="s" unicode="s" horiz-adv-x="487" 
d="M248 524q87 0 131 -38q43 -38 57 -111l-82 -18q-11 49 -33 72q-23 23 -75 23q-99 0 -99 -72q0 -38 27 -54q27 -17 88 -30q37 -8 57 -12q17 -4 48 -17q28 -12 42 -26q13 -14 24 -39q11 -27 11 -58q0 -73 -54 -115t-148 -42q-181 0 -204 149l81 22q12 -50 39 -75
q26 -25 89 -25q107 0 107 74q0 39 -25 54q-26 15 -87 27q-14 2 -23 4t-14 4t-14 4t-21 6t-21 7.5t-15 6.5q-12 6 -30 18t-26 26q-8 15 -14 35q-6 21 -6 46q0 74 54 115q53 40 136 40v-1z" />
    <glyph glyph-name="t" unicode="t" horiz-adv-x="379" 
d="M368 20q-19 -13 -56 -24q-34 -10 -70 -10q-73 0 -109 36t-36 112v306h-79v73h79v149l91 14v-163h142v-73h-142v-294q0 -44 15 -63q15 -20 59 -20t90 25z" />
    <glyph glyph-name="u" unicode="u" horiz-adv-x="581" 
d="M78 516h91v-335q0 -56 20 -84q19 -27 74 -27q39 0 82 20q41 19 67 42v382h91v-514h-79l-6 59q-84 -69 -182 -69q-157 0 -157 175z" />
    <glyph glyph-name="v" unicode="v" horiz-adv-x="505" 
d="M202 0l-196 514h99l151 -423h1l149 423h93l-193 -514h-104z" />
    <glyph glyph-name="w" unicode="w" 
d="M167 0l-161 514h92l125 -418l113 418h94l112 -416h1l122 416h88l-160 -514h-106l-106 405h-1l-105 -405h-108z" />
    <glyph glyph-name="x" unicode="x" horiz-adv-x="492" 
d="M294 267l182 -267h-99l-137 202l-130 -202h-93l173 265l-172 249h100l126 -187l130 187h93z" />
    <glyph glyph-name="y" unicode="y" horiz-adv-x="485" 
d="M9 513h101l136 -408h1l141 408h93l-222 -589q-32 -82 -70 -114q-39 -33 -100 -33q-58 0 -99 19l11 71q42 -16 82 -16q62 0 92 80l24 63z" />
    <glyph glyph-name="z" unicode="z" horiz-adv-x="459" 
d="M134 73h300v-73h-403v62l288 379h-284v73h387v-66z" />
    <glyph glyph-name="braceleft" unicode="{" horiz-adv-x="306" 
d="M275 -146h-54q-137 0 -137 116q0 31 6 99q6 67 6 99q0 86 -75 86h-18v67h17q76 0 76 85q0 33 -6 110q-6 76 -6 102q0 116 136 116h55v-71h-39q-32 0 -45 -13t-13 -40q0 -29 6 -102q6 -74 6 -106q0 -53 -19 -76q-20 -25 -55 -38q36 -13 55 -37q19 -23 19 -76
q0 -34 -6 -100t-6 -91q0 -31 15 -46t54 -15h28v-69z" />
    <glyph glyph-name="bar" unicode="|" horiz-adv-x="280" 
d="M99 -143v898h82v-898h-82z" />
    <glyph glyph-name="braceright" unicode="}" horiz-adv-x="306" 
d="M30 732h54q137 0 137 -116q0 -32 -6 -99q-6 -68 -6 -99q0 -86 75 -86h18v-67h-17q-76 0 -76 -85q0 -33 6 -109q6 -77 6 -102q0 -116 -136 -116h-55v71h39q32 0 45 13q14 14 14 40q0 28 -6 102q-6 73 -6 106q0 54 19 77q20 25 55 38q-35 13 -55 38q-19 23 -19 77
q0 34 6 100t6 92q0 32 -15 47t-54 15h-28z" />
    <glyph glyph-name="asciitilde" unicode="~" horiz-adv-x="517" 
d="M136 417q32 0 126 -23t111 -23q20 0 29 11q9 10 9 42l58 -3q1 -8 1.5 -14t0.5 -10q0 -48 -25 -73t-64 -25q-31 0 -125 23t-113 23q-35 0 -35 -45v-9l-58 2q-1 5 -1 24q0 49 24 76t63 27z" />
    <glyph glyph-name="uni00A0" unicode="&#xa0;" horiz-adv-x="214" 
 />
    <glyph glyph-name="exclamdown" unicode="&#xa1;" horiz-adv-x="266" 
d="M175 324l17 -536h-102l16 536h69zM73 460q0 64 67 64t67 -64q0 -65 -67 -65t-67 65z" />
    <glyph glyph-name="cent" unicode="&#xa2;" horiz-adv-x="516" 
d="M318 700v-100q66 -7 109 -50q41 -41 46 -114l-83 -12q-9 87 -76 99v-342q37 4 57 27q19 22 30 68l77 -16q-11 -70 -54 -107q-44 -38 -108 -48v-105h-73v103q-92 12 -138 78q-47 67 -47 168q0 107 50 171q49 63 137 78v102h73zM150 359q0 -152 94 -176v338
q-94 -22 -94 -162z" />
    <glyph glyph-name="sterling" unicode="&#xa3;" horiz-adv-x="561" 
d="M76 72q83 75 83 159q0 40 -23 88h-104v74h77q-45 82 -45 142q0 88 63 144q64 56 164 56q96 0 148 -43t64 -141l-82 -11q-9 63 -37 92q-29 30 -96 30q-62 0 -99 -30t-37 -85q0 -15 3 -31q3 -17 6 -27q2 -5 4 -12t6 -16t6 -15t4 -9l12 -24q9 -18 9 -19h226v-74h-201
q19 -41 19 -86q0 -89 -74 -161h173q56 0 80 25q25 26 35 87l80 -16q-11 -89 -57 -129t-135 -40h-326v75z" />
    <glyph glyph-name="yen" unicode="&#xa5;" horiz-adv-x="530" 
d="M315 200v-200h-91v200h-132v69h132v87h-132v68h96l-165 300h100l149 -279h1l143 279h93l-161 -300h101v-68h-134v-87h134v-69h-134z" />
    <glyph glyph-name="brokenbar" unicode="&#xa6;" horiz-adv-x="280" 
d="M99 -143v388h82v-388h-82zM99 412v343h82v-343h-82z" />
    <glyph glyph-name="section" unicode="&#xa7;" horiz-adv-x="548" 
d="M46 245q0 88 95 148q-59 47 -59 131q0 86 60 134t152 48q93 0 146 -46q55 -47 59 -135l-85 -11q-6 58 -35 89q-29 30 -87 30q-59 0 -90 -27t-31 -71q0 -47 35 -74q35 -28 84 -41q25 -7 49.5 -14t49.5 -15q49 -15 84 -51q35 -37 35 -95q0 -88 -94 -149q59 -47 59 -130
q0 -86 -60 -134t-152 -48q-90 0 -145 47q-54 46 -60 135l86 11q11 -119 123 -119q56 0 88 27q31 27 31 74t-35 74q-34 26 -84 40q-25 7 -49.5 13.5t-49.5 14.5q-50 15 -84 51q-35 37 -35 96zM131 258q0 -32 22 -53t48 -30q13 -5 31.5 -10t42.5 -12t42 -12t31 -10
q72 45 72 99q0 25 -12 43t-37 30q-23 11 -49 19q-24 7 -60 18q-18 5 -33 9.5t-26 9.5q-70 -46 -70 -99z" />
    <glyph glyph-name="dieresis" unicode="&#xa8;" horiz-adv-x="500" 
d="M207 670q0 -28 -17 -45q-16 -16 -45 -16q-27 0 -46 17q-18 16 -18 45q0 28 18 45q19 17 47 17q29 0 45 -16q17 -17 17 -45zM417 668q0 -28 -17 -45q-16 -16 -45 -16q-28 0 -45 17t-17 45t17 45t45 17q29 0 45 -16q17 -17 17 -45v-2z" />
    <glyph glyph-name="copyright" unicode="&#xa9;" horiz-adv-x="771" 
d="M720 324q0 -151 -93 -244t-243 -93q-161 0 -248 90t-87 233q0 154 96 246q97 92 242 92q155 0 245 -87t90 -235zM386 36q127 0 201 75q74 76 74 204q0 131 -76 203q-77 72 -201 72q-121 0 -199 -75t-78 -205q0 -126 74 -198q73 -72 204 -72zM539 243q-8 -48 -34 -79
q-27 -32 -57 -42q-29 -10 -64 -10q-92 0 -135 54q-43 53 -43 144q0 87 48 141t134 54q63 0 103 -31q40 -32 45 -99l-59 -8q-8 84 -90 84q-50 1 -81 -33t-31 -108q0 -62 27 -101t83 -39q46 0 69 21t33 64z" />
    <glyph glyph-name="ordfeminine" unicode="&#xaa;" horiz-adv-x="378" 
d="M310 350q0 -12 5 -19q4 -6 17 -6q8 0 20 3l3 -41q-20 -11 -53 -11q-50 0 -57 40q-45 -42 -110 -42q-57 0 -79 28t-22 63q0 106 161 114q16 0 27 -0.5t18 -1.5v28q0 33 -12 48t-48 15q-31 0 -46 -12q-16 -13 -20 -40l-64 12q15 93 136 93q67 0 99 -27q31 -27 31 -88z
M238 430q-8 1 -15 1.5t-13 0.5q-11 0 -20 -0.5t-17 -1.5q-16 -2 -31 -7q-16 -6 -25 -18t-9 -30q0 -47 52 -47q45 0 77 32z" />
    <glyph glyph-name="guillemotleft" unicode="&#xab;" horiz-adv-x="435" 
d="M144 103l-87 156l89 149h82l-84 -146l82 -159h-82zM304 103l-87 156l89 149h82l-84 -146l82 -159h-82z" />
    <glyph glyph-name="logicalnot" unicode="&#xac;" horiz-adv-x="570" 
d="M390 190v94h-296v83h377v-177h-81z" />
    <glyph glyph-name="uni00AD" unicode="&#xad;" horiz-adv-x="311" 
d="M20 251v87h271v-87h-271z" />
    <glyph glyph-name="registered" unicode="&#xae;" horiz-adv-x="452" 
d="M411 478q0 -83 -52 -134q-53 -51 -135 -51q-89 0 -137 50q-48 49 -48 129q0 85 54 136t134 51q86 0 135 -49q50 -50 50 -132h-1zM365 472q0 67 -39 105q-40 38 -103 38t-103 -39t-40 -106q0 -65 39 -102q38 -37 106 -37q66 0 105 39t39 105zM311 380h-43l-44 75h-25v-75
h-39v191h68q66 0 66 -54q0 -37 -34 -50zM212 485q42 0 42 30q0 26 -35 26h-20v-56h13z" />
    <glyph glyph-name="macron" unicode="&#xaf;" horiz-adv-x="500" 
d="M396 625h-291v71h291v-71z" />
    <glyph glyph-name="degree" unicode="&#xb0;" horiz-adv-x="340" 
d="M180 578q26 0 39 16q14 17 14 43q0 27 -14 43q-14 15 -39 15t-40 -16q-15 -17 -15 -45q0 -26 15 -41t42 -15h-2zM289 636q0 -52 -30 -82t-81 -30q-52 0 -82 30t-30 80q0 53 32 83q31 30 81 30q49 0 81 -29q31 -28 31 -81z" />
    <glyph glyph-name="plusminus" unicode="&#xb1;" horiz-adv-x="570" 
d="M96 0v80h377v-80h-377zM243 135v145h-147v83h147v150h83v-150h147v-83h-147v-145h-83z" />
    <glyph glyph-name="twosuperior" unicode="&#xb2;" horiz-adv-x="386" 
d="M197 802q64 0 99 -30t35 -85q0 -49 -25 -87q-13 -20 -34.5 -46t-53.5 -58l-70 -76v-2h191v-70h-286v68l103 114q27 30 45 52.5t28 37.5q19 29 19 64q0 54 -59 54q-62 0 -72 -69l-71 12q7 61 48 91q40 30 102 30h1z" />
    <glyph glyph-name="threesuperior" unicode="&#xb3;" horiz-adv-x="399" 
d="M107 463q4 -30 20 -46q15 -15 50 -15q32 0 53 18t21 55q0 38 -21 55q-20 16 -61 16h-43v60h29q43 0 67 21t24 55q0 54 -59 54q-33 0 -47 -13q-15 -13 -22 -43l-71 14q20 107 149 107q65 0 99 -28q35 -29 35 -78q0 -80 -87 -108v-1q96 -20 96 -111q0 -62 -43 -98
q-44 -36 -114 -36q-59 0 -98 27q-38 27 -46 84z" />
    <glyph glyph-name="acute" unicode="&#xb4;" horiz-adv-x="500" 
d="M233 572l-66 12l97 163h109z" />
    <glyph glyph-name="mu" unicode="&#xb5;" horiz-adv-x="629" 
d="M100 515h91v-334q0 -61 18 -88t64 -27q82 0 159 83v365h91v-514h-87v62h-1q-86 -72 -174 -72q-51 0 -76 25l-3 -1l11 -190h-93v691z" />
    <glyph glyph-name="paragraph" unicode="&#xb6;" horiz-adv-x="562" 
d="M472 -134h-78v789h-82v-789h-78v382q-98 7 -154 68q-55 59 -55 161q0 127 77 187q76 60 200 60h169z" />
    <glyph glyph-name="periodcentered" unicode="&#xb7;" horiz-adv-x="194" 
d="M163 304q0 -64 -66 -64t-66 64q0 65 66 65t66 -65z" />
    <glyph glyph-name="cedilla" unicode="&#xb8;" horiz-adv-x="500" 
d="M152 -161q30 -15 56 -15q23 0 35 12t12 32q0 25 -17 36q-16 10 -56 12l16 114l57 -8l-9 -66q79 -15 79 -88q0 -46 -31 -73q-32 -27 -79 -27q-44 0 -81 20z" />
    <glyph glyph-name="onesuperior" unicode="&#xb9;" horiz-adv-x="316" 
d="M142 347v348q-12 -7 -47 -13q-33 -6 -51 -6l-4 65q89 6 131 51h55v-445h-84z" />
    <glyph glyph-name="ordmasculine" unicode="&#xba;" horiz-adv-x="399" 
d="M197 273q-163 0 -163 173q0 82 44 129q43 46 128 46q81 0 120 -45t39 -121q0 -181 -168 -181v-1zM201 335q86 0 86 115q0 60 -21 86t-63 26q-90 0 -90 -113q0 -60 21 -87t66 -27h1z" />
    <glyph glyph-name="guillemotright" unicode="&#xbb;" horiz-adv-x="435" 
d="M131 408l88 -154l-88 -151h-82l84 150l-84 155h82zM291 408l88 -154l-88 -151h-82l84 150l-84 155h82z" />
    <glyph glyph-name="onequarter" unicode="&#xbc;" horiz-adv-x="890" 
d="M203 -12l356 736h84l-354 -736h-86zM157 279v348q-12 -7 -47 -13q-33 -6 -51 -6l-4 65q89 6 131 51h55v-445h-84zM702 0v103h-209v57l188 285h101v-277h53v-65h-52v-103h-81zM702 168v204l-135 -204h135z" />
    <glyph glyph-name="onehalf" unicode="&#xbd;" horiz-adv-x="890" 
d="M190 -12l356 736h84l-354 -736h-86zM165 279v348q-12 -7 -47 -13q-33 -6 -51 -6l-4 65q89 6 131 51h55v-445h-84zM694 453q64 0 99 -30t35 -85q0 -49 -25 -87q-13 -20 -34.5 -46t-53.5 -58l-70 -76v-2h191v-70h-286v68l103 114q27 30 45 52.5t28 37.5q19 29 19 64
q0 54 -59 54q-62 0 -72 -69l-71 12q7 61 48 91q40 30 102 30h1z" />
    <glyph glyph-name="threequarters" unicode="&#xbe;" horiz-adv-x="890" 
d="M239 -12l356 736h84l-354 -736h-86zM725 0v103h-209v57l188 285h101v-277h53v-65h-52v-103h-81zM725 168v204l-135 -204h135zM114 395q4 -30 20 -46q15 -15 50 -15q32 0 53 18t21 55q0 38 -21 55q-20 16 -61 16h-43v60h29q43 0 67 21t24 55q0 54 -59 54q-33 0 -47 -13
q-15 -13 -22 -43l-71 14q20 107 149 107q65 0 99 -28q35 -29 35 -78q0 -80 -87 -108v-1q96 -20 96 -111q0 -62 -43 -98q-44 -36 -114 -36q-59 0 -98 27q-38 27 -46 84z" />
    <glyph glyph-name="questiondown" unicode="&#xbf;" horiz-adv-x="480" 
d="M340 323v-179q-94 -7 -152 -44q-57 -36 -57 -118q0 -67 33 -94t91 -27q55 0 90 26q34 25 48 89l85 -15q-13 -77 -69 -127q-55 -49 -159 -49q-95 0 -153 46t-58 150q0 183 216 227v117zM231 458q0 64 67 64t67 -64q0 -65 -67 -65t-67 65z" />
    <glyph glyph-name="Agrave" unicode="&#xc0;" horiz-adv-x="687" 
d="M213 913h110l99 -134l-69 -12zM400 724l252 -724h-101l-73 215h-278l-71 -215h-93l244 724h120zM339 640h-1l-116 -346h233z" />
    <glyph glyph-name="Aacute" unicode="&#xc1;" horiz-adv-x="687" 
d="M337 767l-69 12l99 134h110zM400 724l252 -724h-101l-73 215h-278l-71 -215h-93l244 724h120zM339 640h-1l-116 -346h233z" />
    <glyph glyph-name="Acircumflex" unicode="&#xc2;" horiz-adv-x="687" 
d="M343 847l-84 -80l-70 9l116 129h79l114 -129l-70 -7zM400 724l252 -724h-101l-73 215h-278l-71 -215h-93l244 724h120zM339 640h-1l-116 -346h233z" />
    <glyph glyph-name="Atilde" unicode="&#xc3;" horiz-adv-x="687" 
d="M266 902q36 0 83 -22t68 -22q20 0 29 11q9 10 9 41l55 -3q1 -9 1.5 -15.5t0.5 -10.5q0 -47 -24 -71t-62 -24q-33 0 -84 23t-70 23q-35 0 -35 -45v-9l-56 3q-1 9 -1.5 15t-0.5 10q0 48 25 73t63 25zM399 722l252 -724h-101l-73 215h-278l-71 -215h-93l244 724h120z
M338 638h-1l-116 -346h233z" />
    <glyph glyph-name="Adieresis" unicode="&#xc4;" horiz-adv-x="687" 
d="M238 779q-27 0 -46 17q-18 16 -18 45q0 28 18 45q19 17 47 17t45 -17t17 -45t-17 -45q-16 -16 -45 -16zM493 884q17 -17 17 -45t-17 -45q-16 -16 -45 -16q-28 0 -45 17t-17 45t17 45t45 17t45 -17v-1zM399 722l252 -724h-101l-73 215h-278l-71 -215h-93l244 724h120z
M338 638h-1l-116 -346h233z" />
    <glyph glyph-name="Aring" unicode="&#xc5;" horiz-adv-x="687" 
d="M444 808q0 -61 -45 -86l252 -722h-101l-73 215h-278l-71 -215h-93l243 721q-44 26 -44 82q0 49 30 76t75 27q47 0 76 -25q30 -26 30 -73h-1zM338 640h-1l-116 -346h233zM338 756q49 0 49 53q0 47 -49 47q-23 0 -36 -13q-14 -14 -14 -37q0 -50 50 -50z" />
    <glyph glyph-name="AE" unicode="&#xc6;" horiz-adv-x="1000" 
d="M605 80h344v-80h-437v316h-214l-172 -316h-96l394 724h512v-80h-331v-247h310v-79h-310v-238zM512 644h-43l-135 -250h178v250z" />
    <glyph glyph-name="Ccedilla" unicode="&#xc7;" horiz-adv-x="692" 
d="M301 -161q30 -15 54 -15q23 0 37 12q13 12 13 32q0 25 -17 36q-16 10 -56 12l9 73q-148 9 -219 104q-70 94 -70 258q0 182 90 284t246 102q118 0 189 -60q70 -60 78 -183l-86 -9q-11 87 -54 129q-44 42 -130 42q-115 0 -178 -75t-63 -222q0 -292 229 -292q87 0 131 37
q45 38 63 115l83 -17q-16 -103 -85 -154q-70 -52 -167 -59l-4 -33q79 -15 79 -88q0 -46 -31 -73q-32 -27 -79 -27q-44 0 -78 19z" />
    <glyph glyph-name="Egrave" unicode="&#xc8;" horiz-adv-x="575" 
d="M175 913h110l99 -134l-69 -12zM188 80h344v-80h-436v724h423v-80h-331v-239h311v-80h-311v-245z" />
    <glyph glyph-name="Eacute" unicode="&#xc9;" horiz-adv-x="575" 
d="M299 767l-69 12l99 134h110zM188 80h344v-80h-436v724h423v-80h-331v-239h311v-80h-311v-245z" />
    <glyph glyph-name="Ecircumflex" unicode="&#xca;" horiz-adv-x="575" 
d="M305 847l-84 -80l-70 9l116 129h79l114 -129l-70 -7zM188 80h344v-80h-436v724h423v-80h-331v-239h311v-80h-311v-245z" />
    <glyph glyph-name="Edieresis" unicode="&#xcb;" horiz-adv-x="575" 
d="M200 779q-27 0 -46 17q-18 16 -18 45q0 28 18 45q19 17 47 17t45 -17t17 -45t-17 -45q-16 -16 -45 -16zM455 884q17 -17 17 -45t-17 -45q-16 -16 -45 -16q-28 0 -45 17t-17 45t17 45t45 17t45 -17v-1zM187 78h344v-80h-436v724h423v-80h-331v-239h311v-80h-311v-245z" />
    <glyph glyph-name="Igrave" unicode="&#xcc;" horiz-adv-x="284" 
d="M14 913h110l99 -134l-69 -12zM188 0h-92v724h92v-724z" />
    <glyph glyph-name="Iacute" unicode="&#xcd;" horiz-adv-x="284" 
d="M138 767l-69 12l99 134h110zM188 0h-92v724h92v-724z" />
    <glyph glyph-name="Icircumflex" unicode="&#xce;" horiz-adv-x="284" 
d="M144 847l-84 -80l-70 9l116 129h79l114 -129l-70 -7zM188 0h-92v724h92v-724z" />
    <glyph glyph-name="Idieresis" unicode="&#xcf;" horiz-adv-x="284" 
d="M39 779q-27 0 -46 17q-18 16 -18 45q0 28 18 45q19 17 47 17t45 -17t17 -45t-17 -45q-16 -16 -45 -16zM294 884q17 -17 17 -45t-17 -45q-16 -16 -45 -16q-28 0 -45 17t-17 45t17 45t45 17t45 -17v-1zM187 -2h-92v724h92v-724z" />
    <glyph glyph-name="Eth" unicode="&#xd0;" horiz-adv-x="728" 
d="M18 403h78v320h223q183 0 271 -91t88 -259q0 -173 -94 -273t-282 -100h-206v329h-78v74zM301 76q139 0 210 74t71 209q0 158 -67 222t-204 64h-123v-242h203v-75h-203v-251z" />
    <glyph glyph-name="Ntilde" unicode="&#xd1;" horiz-adv-x="745" 
d="M303 902q36 0 83 -22t68 -22q20 0 29 11q9 10 9 41l55 -3q1 -9 1.5 -15.5t0.5 -10.5q0 -47 -24 -71t-62 -24q-33 0 -84 23t-70 23q-35 0 -35 -45v-9l-56 3q-1 9 -1.5 15t-0.5 10q0 48 25 73t63 25zM537 -2l-356 607v-607h-86v724h121l347 -601v601h85v-724h-111z" />
    <glyph glyph-name="Ograve" unicode="&#xd2;" 
d="M256 913h110l99 -134l-69 -12zM48 362q0 166 90 270t251 104q157 0 238 -100q81 -101 81 -261q0 -180 -86 -284t-248 -104t-243 102t-81 273h-2zM378 67q106 0 171 75q64 74 64 223q0 141 -61 215q-62 75 -168 75q-108 0 -174 -76q-66 -77 -66 -217q0 -143 63 -218
t171 -75v-2z" />
    <glyph glyph-name="Oacute" unicode="&#xd3;" 
d="M380 767l-69 12l99 134h110zM48 362q0 166 90 270t251 104q157 0 238 -100q81 -101 81 -261q0 -180 -86 -284t-248 -104t-243 102t-81 273h-2zM378 67q106 0 171 75q64 74 64 223q0 141 -61 215q-62 75 -168 75q-108 0 -174 -76q-66 -77 -66 -217q0 -143 63 -218t171 -75
v-2z" />
    <glyph glyph-name="Ocircumflex" unicode="&#xd4;" 
d="M386 847l-84 -80l-70 9l116 129h79l114 -129l-70 -7zM48 362q0 166 90 270t251 104q157 0 238 -100q81 -101 81 -261q0 -180 -86 -284t-248 -104t-243 102t-81 273h-2zM378 67q106 0 171 75q64 74 64 223q0 141 -61 215q-62 75 -168 75q-108 0 -174 -76q-66 -77 -66 -217
q0 -143 63 -218t171 -75v-2z" />
    <glyph glyph-name="Otilde" unicode="&#xd5;" 
d="M309 902q36 0 83 -22t68 -22q20 0 29 11q9 10 9 41l55 -3q1 -9 1.5 -15.5t0.5 -10.5q0 -47 -24 -71t-62 -24q-33 0 -84 23t-70 23q-35 0 -35 -45v-9l-56 3q-1 9 -1.5 15t-0.5 10q0 48 25 73t63 25zM47 360q0 166 90 270t251 104q157 0 238 -100q81 -101 81 -261
q0 -180 -86 -284t-248 -104t-243 102t-81 273h-2zM377 65q106 0 171 75q64 74 64 223q0 141 -61 215q-62 75 -168 75q-108 0 -174 -76q-66 -77 -66 -217q0 -143 63 -218t171 -75v-2z" />
    <glyph glyph-name="Odieresis" unicode="&#xd6;" 
d="M281 779q-27 0 -46 17q-18 16 -18 45q0 28 18 45q19 17 47 17t45 -17t17 -45t-17 -45q-16 -16 -45 -16zM536 884q17 -17 17 -45t-17 -45q-16 -16 -45 -16q-28 0 -45 17t-17 45t17 45t45 17t45 -17v-1zM47 360q0 166 90 270t251 104q157 0 238 -100q81 -101 81 -261
q0 -180 -86 -284t-248 -104t-243 102t-81 273h-2zM377 65q106 0 171 75q64 74 64 223q0 141 -61 215q-62 75 -168 75q-108 0 -174 -76q-66 -77 -66 -217q0 -143 63 -218t171 -75v-2z" />
    <glyph glyph-name="multiply" unicode="&#xd7;" horiz-adv-x="570" 
d="M284 260l-104 -106l-59 61l106 105l-106 107l59 60l104 -105l106 105l58 -60l-105 -107l105 -105l-58 -61z" />
    <glyph glyph-name="Oslash" unicode="&#xd8;" 
d="M373 -11q-53 0 -96 12l-29 -72h-90l42 102q-151 88 -151 332q0 166 90 270t251 104q52 0 100 -13l30 70h89l-43 -104q71 -46 107 -127q36 -83 36 -187q0 -180 -86 -284t-248 -104zM144 363q0 -173 91 -246l221 530q-36 10 -72 10q-108 0 -174 -76q-66 -77 -66 -217v-1z
M378 69q106 0 171 75q64 74 64 223q0 165 -84 239l-220 -528q31 -9 69 -9z" />
    <glyph glyph-name="Ugrave" unicode="&#xd9;" horiz-adv-x="714" 
d="M227 913h110l99 -134l-69 -12zM357 66q90 0 132 42t42 141v473h91v-481q0 -128 -69 -191t-200 -63q-137 0 -200 64t-63 193v479h92v-470q0 -97 44 -141t132 -44z" />
    <glyph glyph-name="Uacute" unicode="&#xda;" horiz-adv-x="714" 
d="M351 767l-69 12l99 134h110zM357 66q90 0 132 42t42 141v473h91v-481q0 -128 -69 -191t-200 -63q-137 0 -200 64t-63 193v479h92v-470q0 -97 44 -141t132 -44z" />
    <glyph glyph-name="Ucircumflex" unicode="&#xdb;" horiz-adv-x="714" 
d="M357 847l-84 -80l-70 9l116 129h79l114 -129l-70 -7zM357 66q90 0 132 42t42 141v473h91v-481q0 -128 -69 -191t-200 -63q-137 0 -200 64t-63 193v479h92v-470q0 -97 44 -141t132 -44z" />
    <glyph glyph-name="Udieresis" unicode="&#xdc;" horiz-adv-x="714" 
d="M252 779q-27 0 -46 17q-18 16 -18 45q0 28 18 45q19 17 47 17t45 -17t17 -45t-17 -45q-16 -16 -45 -16zM507 884q17 -17 17 -45t-17 -45q-16 -16 -45 -16q-28 0 -45 17t-17 45t17 45t45 17t45 -17v-1zM356 64q90 0 132 42t42 141v473h91v-481q0 -128 -69 -191t-200 -63
q-137 0 -200 64t-63 193v479h92v-470q0 -97 44 -141t132 -44z" />
    <glyph glyph-name="Yacute" unicode="&#xdd;" horiz-adv-x="566" 
d="M283 767l-69 12l99 134h110zM334 0h-92v280l-247 444h104l190 -353h2l185 353h95l-237 -442v-282z" />
    <glyph glyph-name="Thorn" unicode="&#xde;" horiz-adv-x="616" 
d="M187 1h-91v724h91v-119h145q129 0 185 -60q56 -61 56 -153q0 -242 -276 -242h-110v-150zM289 231q92 0 140 33t48 126q0 72 -42 105t-130 33h-118v-297h102z" />
    <glyph glyph-name="germandbls" unicode="&#xdf;" horiz-adv-x="660" 
d="M79 -1v539q0 119 64 173t177 54q107 0 165 -47q57 -47 57 -132q0 -119 -115 -168v-3q182 -32 182 -206q0 -100 -54 -160t-151 -60q-67 0 -115 33t-60 96l60 33q13 -44 36 -66q22 -22 69 -22q57 0 90 36t33 107q0 163 -184 163h-40v70h15q76 0 111 38q34 37 34 98
q0 122 -140 122q-69 0 -105 -36t-36 -127v-534z" />
    <glyph glyph-name="agrave" unicode="&#xe0;" horiz-adv-x="545" 
d="M457 97q0 -22 6 -31t25 -9q10 0 30 6l4 -57q-31 -16 -71 -16q-70 0 -79 61q-63 -63 -165 -63q-45 0 -78 14q-32 14 -47 36t-21 44q-6 21 -6 43q0 175 266 175q8 0 19.5 -0.5t25.5 -1.5v50q0 52 -21 78t-80 26q-52 0 -76 -21t-33 -64l-80 15q12 73 60 107q49 35 137 35
q96 0 140 -41t44 -135v-251zM366 235q-21 3 -52 3q-33 0 -57 -3t-51 -12t-42 -30t-15 -52q0 -82 86 -82q37 0 74 17q36 17 59 41zM151 749h109l97 -163l-66 -12z" />
    <glyph glyph-name="aacute" unicode="&#xe1;" horiz-adv-x="545" 
d="M457 97q0 -22 6 -31t25 -9q10 0 30 6l4 -57q-31 -16 -71 -16q-70 0 -79 61q-63 -63 -165 -63q-45 0 -78 14q-32 14 -47 36t-21 44q-6 21 -6 43q0 175 266 175q8 0 19.5 -0.5t25.5 -1.5v50q0 52 -21 78t-80 26q-52 0 -76 -21t-33 -64l-80 15q12 73 60 107q49 35 137 35
q96 0 140 -41t44 -135v-251zM366 235q-21 3 -52 3q-33 0 -57 -3t-51 -12t-42 -30t-15 -52q0 -82 86 -82q37 0 74 17q36 17 59 41zM253 574l-66 12l97 163h109z" />
    <glyph glyph-name="acircumflex" unicode="&#xe2;" horiz-adv-x="545" 
d="M361 577l-89 113l-88 -114l-68 7l112 165h89l113 -165zM457 97q0 -22 6 -31t25 -9q10 0 30 6l4 -57q-31 -16 -71 -16q-70 0 -79 61q-63 -63 -165 -63q-45 0 -78 14q-32 14 -47 36t-21 44q-6 21 -6 43q0 175 266 175q8 0 19.5 -0.5t25.5 -1.5v50q0 52 -21 78t-80 26
q-52 0 -76 -21t-33 -64l-80 15q12 73 60 107q49 35 137 35q96 0 140 -41t44 -135v-251zM366 235q-21 3 -52 3q-33 0 -57 -3t-51 -12t-42 -30t-15 -52q0 -82 86 -82q37 0 74 17q36 17 59 41z" />
    <glyph glyph-name="atilde" unicode="&#xe3;" horiz-adv-x="545" 
d="M457 97q0 -22 6 -31t25 -9q10 0 30 6l4 -57q-31 -16 -71 -16q-70 0 -79 61q-63 -63 -165 -63q-45 0 -78 14q-32 14 -47 36t-21 44q-6 21 -6 43q0 175 266 175q8 0 19.5 -0.5t25.5 -1.5v50q0 52 -21 78t-80 26q-52 0 -76 -21t-33 -64l-80 15q12 73 60 107q49 35 137 35
q96 0 140 -41t44 -135v-251zM366 235q-21 3 -52 3q-33 0 -57 -3t-51 -12t-42 -30t-15 -52q0 -82 86 -82q37 0 74 17q36 17 59 41zM190 716q34 0 83 -23t68 -23q20 0 29 11q9 10 9 41l55 -2q1 -9 1.5 -15t0.5 -9q0 -48 -24 -73t-62 -25q-33 0 -84 23t-70 23q-35 0 -35 -44
v-10l-56 3q-1 4 -1 9.5v13.5q0 49 25 75q25 27 61 27v-2z" />
    <glyph glyph-name="adieresis" unicode="&#xe4;" horiz-adv-x="545" 
d="M457 97q0 -22 6 -31t25 -9q10 0 30 6l4 -57q-31 -16 -71 -16q-70 0 -79 61q-63 -63 -165 -63q-45 0 -78 14q-32 14 -47 36t-21 44q-6 21 -6 43q0 175 266 175q8 0 19.5 -0.5t25.5 -1.5v50q0 52 -21 78t-80 26q-52 0 -76 -21t-33 -64l-80 15q12 73 60 107q49 35 137 35
q96 0 140 -41t44 -135v-251zM366 235q-21 3 -52 3q-33 0 -57 -3t-51 -12t-42 -30t-15 -52q0 -82 86 -82q37 0 74 17q36 17 59 41zM227 672q0 -28 -17 -45q-16 -16 -45 -16q-27 0 -46 17q-18 16 -18 45q0 28 18 45q19 17 47 17q29 0 45 -16q17 -17 17 -45zM437 670
q0 -28 -17 -45q-16 -16 -45 -16q-28 0 -45 17t-17 45t17 45t45 17q29 0 45 -16q17 -17 17 -45v-2z" />
    <glyph glyph-name="aring" unicode="&#xe5;" horiz-adv-x="545" 
d="M378 676q0 -48 -29 -75t-78 -27q-47 0 -76 26q-28 25 -28 71q0 49 30 76t75 27q48 0 77 -25q30 -26 30 -75zM272 624q24 0 36 14q12 13 12 38q0 48 -49 48q-23 0 -36 -13q-14 -14 -14 -37q0 -49 50 -49zM457 98q0 -22 6 -31t25 -9q10 0 30 6l4 -57q-31 -16 -71 -16
q-70 0 -79 61q-63 -63 -165 -63q-45 0 -78 14q-32 14 -47 36t-21 44q-6 21 -6 43q0 175 266 175q8 0 19.5 -0.5t25.5 -1.5v50q0 52 -21 78t-80 26q-52 0 -76 -21t-33 -64l-80 15q12 73 60 107q49 35 137 35q96 0 140 -41t44 -135v-251zM366 236q-21 3 -52 3q-33 0 -57 -3
t-51 -12t-42 -30t-15 -52q0 -82 86 -82q37 0 74 17q36 17 59 41z" />
    <glyph glyph-name="ae" unicode="&#xe6;" horiz-adv-x="859" 
d="M599 -12q-127 0 -182 78q-80 -78 -201 -78q-46 0 -82 14q-35 13 -51 36q-15 21 -22 44q-6 21 -6 43q0 170 251 175h35t25 -1v49q0 53 -22 78q-23 26 -81 26q-51 0 -75 -21q-25 -22 -32 -64l-80 15q12 73 60 108q47 34 135 34q64 0 102 -21q37 -21 55 -66q64 87 180 87
q101 0 150 -64q50 -65 50 -168q0 -17 -1 -32.5t-3 -29.5h-346q2 -95 39 -131t107 -36q52 0 80 23t38 69l81 -18q-15 -74 -70 -111q-56 -38 -135 -38h1zM239 59q88 0 148 65q-17 47 -18 112q-9 1 -24 1h-35q-158 -2 -158 -96q0 -38 18 -60t68 -22h1zM715 300v7
q0 143 -117 143q-54 0 -94 -38q-38 -37 -43 -111z" />
    <glyph glyph-name="ccedilla" unicode="&#xe7;" horiz-adv-x="538" 
d="M211 -163q30 -15 56 -15q23 0 35 12t12 32q0 25 -17 36q-16 10 -56 12l10 74q-104 9 -154 78q-49 68 -49 183q0 133 65 204q64 70 182 70q88 0 141 -45t57 -133l-87 -12q-12 115 -115 115q-64 0 -106 -42t-42 -143q0 -199 144 -199q109 0 129 110l80 -17
q-11 -78 -61 -120q-51 -42 -124 -48l-4 -33q79 -15 79 -88q0 -46 -31 -73q-32 -27 -79 -27q-44 0 -81 20z" />
    <glyph glyph-name="egrave" unicode="&#xe8;" horiz-adv-x="546" 
d="M283 -15q-66 0 -114 21q-47 21 -73 60q-27 41 -38 85q-12 46 -12 102q0 133 68 201t174 68q103 0 154 -60t51 -161q0 -17 -1 -33.5t-3 -32.5h-346q3 -92 41 -132q37 -39 104 -39q99 0 121 91l80 -18q-15 -74 -69 -111q-55 -38 -134 -38zM397 306q0 143 -116 143
q-56 0 -95 -36q-38 -36 -43 -108zM164 745h109l97 -163l-66 -12z" />
    <glyph glyph-name="eacute" unicode="&#xe9;" horiz-adv-x="546" 
d="M283 -15q-66 0 -114 21q-47 21 -73 60q-27 41 -38 85q-12 46 -12 102q0 133 68 201t174 68q103 0 154 -60t51 -161q0 -17 -1 -33.5t-3 -32.5h-346q3 -92 41 -132q37 -39 104 -39q99 0 121 91l80 -18q-15 -74 -69 -111q-55 -38 -134 -38zM397 306q0 143 -116 143
q-56 0 -95 -36q-38 -36 -43 -108zM266 570l-66 12l97 163h109z" />
    <glyph glyph-name="ecircumflex" unicode="&#xea;" horiz-adv-x="546" 
d="M376 577l-89 113l-88 -114l-68 7l112 165h89l113 -165zM283 -15q-66 0 -114 21q-47 21 -73 60q-27 41 -38 85q-12 46 -12 102q0 133 68 201t174 68q103 0 154 -60t51 -161q0 -17 -1 -33.5t-3 -32.5h-346q3 -92 41 -132q37 -39 104 -39q99 0 121 91l80 -18
q-15 -74 -69 -111q-55 -38 -134 -38zM397 306q0 143 -116 143q-56 0 -95 -36q-38 -36 -43 -108z" />
    <glyph glyph-name="edieresis" unicode="&#xeb;" horiz-adv-x="546" 
d="M283 -15q-66 0 -114 21q-47 21 -73 60q-27 41 -38 85q-12 46 -12 102q0 133 68 201t174 68q103 0 154 -60t51 -161q0 -17 -1 -33.5t-3 -32.5h-346q3 -92 41 -132q37 -39 104 -39q99 0 121 91l80 -18q-15 -74 -69 -111q-55 -38 -134 -38zM397 306q0 143 -116 143
q-56 0 -95 -36q-38 -36 -43 -108zM240 668q0 -28 -17 -45q-16 -16 -45 -16q-27 0 -46 17q-18 16 -18 45q0 28 18 45q19 17 47 17q29 0 45 -16q17 -17 17 -45zM450 666q0 -28 -17 -45q-16 -16 -45 -16q-28 0 -45 17t-17 45t17 45t45 17q29 0 45 -16q17 -17 17 -45v-2z" />
    <glyph glyph-name="igrave" unicode="&#xec;" horiz-adv-x="249" 
d="M172 0h-91v514h91v-514zM8 747h109l97 -163l-66 -12z" />
    <glyph glyph-name="iacute" unicode="&#xed;" horiz-adv-x="249" 
d="M172 0h-91v514h91v-514zM110 572l-66 12l97 163h109z" />
    <glyph glyph-name="icircumflex" unicode="&#xee;" horiz-adv-x="249" 
d="M216 577l-89 113l-88 -114l-68 7l112 165h89l113 -165zM172 0h-91v514h91v-514z" />
    <glyph glyph-name="idieresis" unicode="&#xef;" horiz-adv-x="249" 
d="M172 0h-91v514h91v-514zM84 670q0 -28 -17 -45q-16 -16 -45 -16q-27 0 -46 17q-18 16 -18 45q0 28 18 45q19 17 47 17q29 0 45 -16q17 -17 17 -45zM294 668q0 -28 -17 -45q-16 -16 -45 -16q-28 0 -45 17t-17 45t17 45t45 17q29 0 45 -16q17 -17 17 -45v-2z" />
    <glyph glyph-name="eth" unicode="&#xf0;" horiz-adv-x="575" 
d="M201 614l73 41q-56 31 -129 42l30 69q106 -15 180 -65l104 59l36 -61l-83 -47q113 -121 113 -338q0 -49 -6 -94q-6 -44 -24 -88t-45 -75q-27 -32 -70 -51q-42 -19 -99 -19q-232 0 -232 262q0 109 60 181t170 72q83 0 142 -39q-30 92 -85 147l-96 -55zM142 251
q0 -192 139 -192q81 0 117 69t36 179q0 33 -3 66q-20 22 -60 39q-42 17 -82 17q-74 0 -111 -46t-37 -132h1z" />
    <glyph glyph-name="ntilde" unicode="&#xf1;" horiz-adv-x="582" 
d="M506 0h-91v335q0 57 -22 83q-23 27 -73 27q-39 0 -82 -20q-41 -19 -67 -42v-383h-91v514h80l5 -61q90 72 185 72q81 0 120 -44t39 -132zM215 714q34 0 83 -23t68 -23q20 0 29 11q9 10 9 41l55 -2q1 -9 1.5 -15t0.5 -9q0 -48 -24 -73t-62 -25q-33 0 -84 23t-70 23
q-35 0 -35 -44v-10l-56 3q-1 4 -1 9.5v13.5q0 49 25 75q25 27 61 27v-2z" />
    <glyph glyph-name="ograve" unicode="&#xf2;" horiz-adv-x="578" 
d="M285 -12q-237 0 -237 267q0 126 65 199q64 72 186 72q118 0 174 -69q56 -70 56 -190q0 -279 -243 -279h-1zM291 60q143 0 143 200q0 104 -34 147t-105 43q-152 0 -152 -191q0 -102 36 -150t111 -48zM176 746h109l97 -163l-66 -12z" />
    <glyph glyph-name="oacute" unicode="&#xf3;" horiz-adv-x="578" 
d="M285 -12q-237 0 -237 267q0 126 65 199q64 72 186 72q118 0 174 -69q56 -70 56 -190q0 -279 -243 -279h-1zM291 60q143 0 143 200q0 104 -34 147t-105 43q-152 0 -152 -191q0 -102 36 -150t111 -48zM278 571l-66 12l97 163h109z" />
    <glyph glyph-name="ocircumflex" unicode="&#xf4;" horiz-adv-x="578" 
d="M384 577l-89 113l-88 -114l-68 7l112 165h89l113 -165zM285 -12q-237 0 -237 267q0 126 65 199q64 72 186 72q118 0 174 -69q56 -70 56 -190q0 -279 -243 -279h-1zM291 60q143 0 143 200q0 104 -34 147t-105 43q-152 0 -152 -191q0 -102 36 -150t111 -48z" />
    <glyph glyph-name="otilde" unicode="&#xf5;" horiz-adv-x="578" 
d="M285 -12q-237 0 -237 267q0 126 65 199q64 72 186 72q118 0 174 -69q56 -70 56 -190q0 -279 -243 -279h-1zM291 60q143 0 143 200q0 104 -34 147t-105 43q-152 0 -152 -191q0 -102 36 -150t111 -48zM215 713q34 0 83 -23t68 -23q20 0 29 11q9 10 9 41l55 -2q1 -9 1.5 -15
t0.5 -9q0 -48 -24 -73t-62 -25q-33 0 -84 23t-70 23q-35 0 -35 -44v-10l-56 3q-1 4 -1 9.5v13.5q0 49 25 75q25 27 61 27v-2z" />
    <glyph glyph-name="odieresis" unicode="&#xf6;" horiz-adv-x="578" 
d="M285 -12q-237 0 -237 267q0 126 65 199q64 72 186 72q118 0 174 -69q56 -70 56 -190q0 -279 -243 -279h-1zM291 60q143 0 143 200q0 104 -34 147t-105 43q-152 0 -152 -191q0 -102 36 -150t111 -48zM252 669q0 -28 -17 -45q-16 -16 -45 -16q-27 0 -46 17q-18 16 -18 45
q0 28 18 45q19 17 47 17q29 0 45 -16q17 -17 17 -45zM462 667q0 -28 -17 -45q-16 -16 -45 -16q-28 0 -45 17t-17 45t17 45t45 17q29 0 45 -16q17 -17 17 -45v-2z" />
    <glyph glyph-name="divide" unicode="&#xf7;" horiz-adv-x="570" 
d="M214 166q0 28 17 45t48 17q64 0 64 -62t-64 -62t-64 62h-1zM95 279v84h377v-84h-377zM341 478q0 -63 -64 -63t-64 63q0 28 17 45t48 17q64 0 64 -62h-1z" />
    <glyph glyph-name="oslash" unicode="&#xf8;" horiz-adv-x="578" 
d="M285 -13q-43 0 -72 7l-29 -67h-86l43 98q-93 63 -93 229q0 126 65 199q64 72 186 72q32 0 61 -6l30 67h85l-42 -96q96 -63 96 -223q0 -279 -243 -279zM290 60q143 0 143 200q0 104 -37 148l-151 -343q18 -5 45 -5zM142 258q0 -101 36 -150l149 338q-15 3 -33 3
q-152 0 -152 -191z" />
    <glyph glyph-name="ugrave" unicode="&#xf9;" horiz-adv-x="581" 
d="M78 516h91v-335q0 -56 20 -84q19 -27 74 -27q39 0 82 20q41 19 67 42v382h91v-514h-79l-6 59q-84 -69 -182 -69q-157 0 -157 175zM173 749h109l97 -163l-66 -12z" />
    <glyph glyph-name="uacute" unicode="&#xfa;" horiz-adv-x="581" 
d="M78 516h91v-335q0 -56 20 -84q19 -27 74 -27q39 0 82 20q41 19 67 42v382h91v-514h-79l-6 59q-84 -69 -182 -69q-157 0 -157 175zM275 574l-66 12l97 163h109z" />
    <glyph glyph-name="ucircumflex" unicode="&#xfb;" horiz-adv-x="581" 
d="M382 577l-89 113l-88 -114l-68 7l112 165h89l113 -165zM78 516h91v-335q0 -56 20 -84q19 -27 74 -27q39 0 82 20q41 19 67 42v382h91v-514h-79l-6 59q-84 -69 -182 -69q-157 0 -157 175z" />
    <glyph glyph-name="udieresis" unicode="&#xfc;" horiz-adv-x="581" 
d="M78 516h91v-335q0 -56 20 -84q19 -27 74 -27q39 0 82 20q41 19 67 42v382h91v-514h-79l-6 59q-84 -69 -182 -69q-157 0 -157 175zM249 672q0 -28 -17 -45q-16 -16 -45 -16q-27 0 -46 17q-18 16 -18 45q0 28 18 45q19 17 47 17q29 0 45 -16q17 -17 17 -45zM459 670
q0 -28 -17 -45q-16 -16 -45 -16q-28 0 -45 17t-17 45t17 45t45 17q29 0 45 -16q17 -17 17 -45v-2z" />
    <glyph glyph-name="yacute" unicode="&#xfd;" horiz-adv-x="485" 
d="M9 513h101l136 -408h1l141 408h93l-222 -589q-32 -82 -70 -114q-39 -33 -100 -33q-58 0 -99 19l11 71q42 -16 82 -16q62 0 92 80l24 63zM230 571l-66 12l97 163h109z" />
    <glyph glyph-name="thorn" unicode="&#xfe;" horiz-adv-x="581" 
d="M78 -213v967h90v-298q77 68 174 68q86 0 137 -61q51 -62 51 -195q0 -142 -60 -211t-156 -69q-80 0 -144 52h-1v-252zM169 117q73 -53 132 -53q134 0 134 205q0 91 -30 135q-30 43 -93 43q-40 0 -78 -19q-40 -20 -65 -45v-266z" />
    <glyph glyph-name="ydieresis" unicode="&#xff;" horiz-adv-x="485" 
d="M9 513h101l136 -408h1l141 408h93l-222 -589q-32 -82 -70 -114q-39 -33 -100 -33q-58 0 -99 19l11 71q42 -16 82 -16q62 0 92 80l24 63zM204 669q0 -28 -17 -45q-16 -16 -45 -16q-27 0 -46 17q-18 16 -18 45q0 28 18 45q19 17 47 17q29 0 45 -16q17 -17 17 -45zM414 667
q0 -28 -17 -45q-16 -16 -45 -16q-28 0 -45 17t-17 45t17 45t45 17q29 0 45 -16q17 -17 17 -45v-2z" />
    <glyph glyph-name="apostrophe" unicode="&#x2bc;" horiz-adv-x="500" 
d="M215 696h97l-68 -174l-68 10z" />
    <glyph glyph-name="tilde" unicode="&#x2dc;" horiz-adv-x="500" 
d="M170 714q34 0 83 -23t68 -23q20 0 29 11q9 10 9 41l55 -2q1 -9 1.5 -15t0.5 -9q0 -48 -24 -73t-62 -25q-33 0 -84 23t-70 23q-35 0 -35 -44v-10l-56 3q-1 4 -1 9.5v13.5q0 49 25 75q25 27 61 27v-2z" />
    <glyph glyph-name="endash" unicode="&#x2013;" horiz-adv-x="500" 
d="M0 245v73h499v-73h-499z" />
    <glyph glyph-name="emdash" unicode="&#x2014;" horiz-adv-x="1000" 
d="M0 245v73h999v-73h-999z" />
    <glyph glyph-name="quoteleft" unicode="&#x2018;" horiz-adv-x="189" 
d="M130 553h-98l82 227l69 -9z" />
    <glyph glyph-name="quoteright" unicode="&#x2019;" horiz-adv-x="189" 
d="M77 767h98l-82 -227l-69 9z" />
    <glyph glyph-name="quotedblleft" unicode="&#x201c;" horiz-adv-x="343" 
d="M285 553h-98l82 227l69 -9zM130 553h-98l82 227l69 -9z" />
    <glyph glyph-name="quotedblright" unicode="&#x201d;" horiz-adv-x="343" 
d="M231 767h98l-82 -227l-69 9zM77 767h98l-82 -227l-69 9z" />
    <glyph glyph-name="quotedblbase" unicode="&#x201e;" horiz-adv-x="335" 
d="M64 88h98l-82 -227l-69 9zM218 88h98l-82 -227l-69 9z" />
    <glyph glyph-name="bullet" unicode="&#x2022;" horiz-adv-x="392" 
d="M333 279q0 -135 -137 -135q-67 0 -102 34q-36 34 -36 102t36 101t102 33q137 0 137 -134v-1z" />
    <glyph glyph-name="ellipsis" unicode="&#x2026;" horiz-adv-x="638" 
d="M320 122q68 0 68 -67t-68 -67t-68 67t68 67zM113 122q68 0 68 -67t-68 -67t-68 67t68 67zM525 122q68 0 68 -67t-68 -67t-68 67t68 67z" />
    <glyph glyph-name="guilsinglleft" unicode="&#x2039;" horiz-adv-x="278" 
d="M144 103l-87 156l89 149h82l-84 -146l82 -159h-82z" />
    <glyph glyph-name="guilsinglright" unicode="&#x203a;" horiz-adv-x="278" 
d="M131 408l88 -154l-88 -151h-82l84 150l-84 155h82z" />
    <glyph glyph-name="Euro" unicode="&#x20ac;" horiz-adv-x="612" 
d="M352 -14q-229 0 -262 262h-81l11 68h64v33v27t1 19h-55l11 68h51q21 141 96 207t182 66q97 0 156 -53q58 -52 66 -164l-83 -8q-9 80 -40 112q-32 33 -100 33q-156 0 -184 -192h225l-12 -68h-220v-42v-22t1 -15h210l-12 -68h-193q13 -92 56 -138q42 -45 120 -45
q64 0 101 32q36 32 50 101l78 -18q-15 -101 -81 -147q-65 -46 -154 -46z" />
    <glyph glyph-name="trademark" unicode="&#x2122;" horiz-adv-x="832" 
d="M712 348v267l-107 -267h-46l-105 268v-268h-56v376h71l115 -296l118 296h65v-376h-55zM215 348h-60v322h-129v54h318v-54h-129v-322z" />
    </font>
</defs>
</svg>
