<?xml version="1.0" standalone="no"?>
<!DOCTYPE svg PUBLIC "-//W3C//DTD SVG 1.1//EN" "http://www.w3.org/Graphics/SVG/1.1/DTD/svg11.dtd" >
<svg>
<metadata>
Created by FontForge 20120731 at Wed Aug 28 06:10:35 2019
 By www-data
 
</metadata>
<defs>
<font id="Helvetica-Normal" horiz-adv-x="276" >
  <font-face 
    font-family="Helvetica-Normal"
    font-weight="400"
    font-stretch="normal"
    units-per-em="1000"
    panose-1="0 0 0 0 0 0 0 0 0 0"
    ascent="800"
    descent="-200"
    x-height="528"
    cap-height="732"
    bbox="-31 -228 1008 961"
    underline-thickness="50"
    underline-position="-55"
    unicode-range="U+0020-F002"
  />
<missing-glyph 
 />
    <glyph glyph-name=".notdef" 
 />
    <glyph glyph-name="glyph1" horiz-adv-x="0" 
 />
    <glyph glyph-name="glyph2" 
 />
    <glyph glyph-name="space" unicode=" " 
 />
    <glyph glyph-name="space" unicode="&#xa0;" 
 />
    <glyph glyph-name="exclam" unicode="!" 
d="M126 0v110h87v-110h-87v0zM126 362v370h87v-370l-24 -197h-39l-24 197v0z" />
    <glyph glyph-name="quotedbl" unicode="&#x22;" horiz-adv-x="354" 
d="M126 449h-39l-32 126v126h95v-126l-24 -126v0zM220 575v126h95v-126l-32 -126h-39l-24 126v0z" />
    <glyph glyph-name="numbersign" unicode="#" horiz-adv-x="559" 
d="M110 189h-94v87h118l23 149h-110v87h126l32 189h78l-31 -189h118l32 189h78l-31 -189h94v-87h-110l-24 -149h95v-87h-110l-40 -205h-78l39 205h-126l-39 -205h-79l39 205v0zM236 425l-23 -149h118l23 149h-118v0z" />
    <glyph glyph-name="dollar" unicode="$" horiz-adv-x="559" 
d="M55 543q2 12 5 25t8 26q16 39 56 72.5t120 42.5v55h63v-31v-24q89 0 143 -57t54 -140h-87q0 2 0.5 3.5t0.5 3.5v3.5v3.5v2.5v3.5q-2 36 -30 67t-81 31v-236q0 -3 34.5 -10t76.5 -27q40 -20 73.5 -55.5t36.5 -96.5q0 -97 -46 -149.5t-101 -69.5q-19 -6 -38 -8t-36 -1v-103
h-63v102q-17 1 -38.5 4t-44.5 11q-48 17 -87 65.5t-35 148.5h15.5h17.5h26.5h19.5v-2v-3q0 -10 1 -30t9 -42q10 -29 36 -53.5t80 -27.5v260q-10 5 -37 12t-57 22q-37 18 -67.5 55t-30.5 104q0 10 1 20.5t2 22.5v0zM307 299v-252q50 0 89.5 40.5t40.5 89.5v1.5v1.5v2.5v2.5
q-2 35 -31.5 67t-98.5 47v0zM134 543q-1 -4 -1.5 -8.5t-0.5 -9.5q0 -2 -0.5 -4t-0.5 -4q0 -50 34.5 -77t75.5 -37q1 0 1.5 -0.5t1.5 -0.5v228q-2 1 -4.5 1h-4.5q-9 0 -19 -2.5t-20 -7.5q-19 -11 -37 -30.5t-25 -47.5v0z" />
    <glyph glyph-name="percent" unicode="%" horiz-adv-x="890" 
d="M197 -24l401 733h79l-401 -733h-79v0zM638 315q7 1 13.5 1.5t12.5 1.5h6.5h6.5q89 0 132 -52.5t43 -115.5v-1.5v-1.5q-1 -65 -45.5 -118.5t-129.5 -51.5q-82 0 -127 50.5t-45 114.5v7.5t1 6.5q4 49 36 93t96 66v0zM583 134q5 -42 34 -63t63 -21q38 0 69 25.5t31 74.5
q-3 46 -33.5 69.5t-66.5 23.5q-38 0 -69 -27t-28 -82v0zM189 685q92 -6 133.5 -58.5t42.5 -115.5v-2.5v-3.5q-2 -65 -46 -119.5t-122 -54.5q-88 5 -131.5 57.5t-43.5 115.5v2v1q1 63 43.5 116t123.5 62v0zM197 606q-52 -5 -76 -33.5t-24 -62.5v-1.5v-1.5q1 -38 29.5 -69.5
t78.5 -28.5q47 11 67.5 38.5t20.5 58.5q0 36 -25.5 66.5t-70.5 33.5v0z" />
    <glyph glyph-name="ampersand" unicode="&#x26;" horiz-adv-x="669" 
d="M55 157q0 3 -0.5 6t-0.5 7v6v6q-1 53 31.5 107.5t127.5 112.5q-28 24 -45.5 52.5t-24.5 56.5q-4 12 -5.5 24t-1.5 24q0 63 44 110.5t127 47.5q79 0 121 -47t42 -107q0 -5 -0.5 -9.5t-0.5 -9.5q-5 -48 -39 -91.5t-99 -66.5l134 -166q13 27 18 52t8 44q1 7 2 12.5t3 10.5
h79q0 -1 0.5 -3t0.5 -3v-3.5v-3.5q0 -16 -4 -34.5t-10 -37.5q-5 -15 -10.5 -29t-11.5 -27q-5 -12 -10 -22.5t-10 -18.5l126 -157h-118l-63 79q-33 -46 -80 -70.5t-97 -30.5q-6 0 -13 -0.5t-14 -0.5q-78 0 -140 46t-66 134v0zM417 142l-157 197q-44 -23 -70.5 -51.5
t-37.5 -57.5q-5 -13 -7.5 -26t-2.5 -25q-1 -49 32.5 -83.5t85.5 -34.5q35 -1 75 18.5t82 62.5v0zM291 449q38 15 60.5 40.5t30.5 52.5q1 6 2 11.5t1 11.5q0 29 -19.5 52t-58.5 29q-45 -3 -64.5 -25.5t-20.5 -52.5q0 -6 1 -12.5t2 -13.5q6 -27 23.5 -52.5t42.5 -40.5v0z" />
    <glyph glyph-name="quotesingle" unicode="'" horiz-adv-x="220" 
d="M102 606h-47v103h95v-103q0 -47 -18 -87.5t-77 -46.5v40l6 2l6 2q13 5 24.5 18.5t11.5 47.5v11t-1 13v0z" />
    <glyph glyph-name="parenleft" unicode="(" horiz-adv-x="331" 
d="M228 732h63q-5 -11 -10.5 -22.5t-10.5 -23.5q-44 -93 -80 -197t-36 -230q0 -100 30.5 -218t106.5 -260l-63 -1q-5 1 -28.5 42t-49.5 105q-19 44 -36 94.5t-29 102.5q-9 41 -13 81.5t-1 77.5q2 37 9.5 77.5t18.5 81.5q20 72 49 140.5t61 119.5q4 8 9 15.5t10 14.5v0z" />
    <glyph glyph-name="parenright" unicode=")" horiz-adv-x="331" 
d="M31 -213q67 116 101.5 235t34.5 241q0 79 -14.5 158.5t-44.5 159.5q-16 40 -35 79.5t-42 79.5h5.5h5.5h17.5h27.5q10 -10 32.5 -39t46.5 -76q32 -61 59 -150.5t27 -206.5q2 -43 -4.5 -93.5t-20.5 -102.5q-22 -82 -59.5 -159t-80.5 -125l-56 -1v0z" />
    <glyph glyph-name="asterisk" unicode="*" horiz-adv-x="386" 
d="M150 575l-111 31l24 63l102 -39v110h63v-110l103 39l15 -71l-102 -23l63 -95l-55 -31l-55 94l-71 -94l-47 39l71 87v0z" />
    <glyph glyph-name="plus" unicode="+" horiz-adv-x="583" 
d="M47 197v71h205v212h71v-212h205v-71h-205v-213h-71v213h-205v0z" />
    <glyph glyph-name="comma" unicode="," 
d="M87 0v110h110v-110q-2 -11 -8 -29t-15 -38q-14 -27 -35 -51t-52 -31v47q23 12 37 40t26 62h-63v0z" />
    <glyph glyph-name="hyphen" unicode="-" horiz-adv-x="331" 
d="M47 244v79h244v-79h-244v0z" />
    <glyph glyph-name="period" unicode="." 
d="M87 0v110h110v-110h-110v0z" />
    <glyph glyph-name="slash" unicode="/" 
d="M-8 -16l236 740h63l-236 -740h-63v0z" />
    <glyph glyph-name="zero" unicode="0" horiz-adv-x="559" 
d="M47 402q12 142 58.5 222.5t170.5 92.5q100 -6 165 -82t71 -265q6 -160 -48 -276.5t-196 -116.5q-117 -4 -164 91.5t-56 212.5q-2 31 -2 61.5t1 59.5v0zM134 362q0 -7 0.5 -13.5t0.5 -12.5q6 -109 26 -188t115 -85q64 0 95.5 52t43.5 114q6 30 8 58.5t2 51.5
q0 153 -42 218t-107 65q-70 5 -103 -66t-38 -157q0 -9 -0.5 -18.5t-0.5 -18.5v0z" />
    <glyph glyph-name="one" unicode="1" horiz-adv-x="559" 
d="M260 0v504h-158v79q15 0 32 1.5t35 5.5q39 9 72.5 37.5t41.5 89.5h63v-717h-86v0z" />
    <glyph glyph-name="two" unicode="2" horiz-adv-x="559" 
d="M39 0q-9 133 53.5 197t139.5 106q10 6 20.5 11.5t20.5 10.5q58 32 102.5 69t49.5 102q0 62 -44.5 96.5t-97.5 34.5q-55 0 -99.5 -40.5t-41.5 -129.5h-87q-1 8 -1.5 15.5t-0.5 14.5v2.5v3.5q2 81 62 148.5t176 67.5q8 0 16.5 -0.5t17.5 -1.5q76 -10 138 -64t57 -155
q-7 -93 -66 -141t-130 -87q-3 -1 -5.5 -2.5t-4.5 -2.5q-58 -31 -110 -68.5t-78 -99.5h378v-87h-465v0z" />
    <glyph glyph-name="three" unicode="3" horiz-adv-x="559" 
d="M409 165q2 11 2.5 20.5t0.5 17.5q0 77 -48 97.5t-105 22.5h-19.5h-19.5v79q88 -4 129.5 24t41.5 78q0 14 -3 30t-10 33q-12 29 -42.5 44.5t-65.5 15.5h-6h-6q-48 -4 -88 -39t-36 -108h-87q0 5 -0.5 9.5t-0.5 9.5q0 79 48 144.5t166 65.5t170 -53.5t57 -117.5v-7.5v-6.5
q0 -51 -23.5 -95t-61.5 -59q7 -4 13.5 -7.5t12.5 -6.5q52 -31 64 -68.5t12 -106.5q0 -16 -3.5 -34.5t-11.5 -36.5q-20 -50 -73 -91.5t-148 -41.5q-94 -5 -160.5 41.5t-83.5 194.5h86q5 -85 47.5 -119.5t93.5 -34.5h2.5h3.5q57 2 104.5 34t47.5 72v0z" />
    <glyph glyph-name="four" unicode="4" horiz-adv-x="559" 
d="M31 268l323 441h71v-449h103v-87h-103v-173h-86v173h-308v95v0zM118 260h221v307l-221 -307v0z" />
    <glyph glyph-name="five" unicode="5" horiz-adv-x="559" 
d="M39 181h87q16 -64 56.5 -93t86.5 -29q57 -1 105 38.5t51 107.5q4 95 -43 135t-106 40h-3.5h-2.5q-38 -1 -72.5 -16.5t-55.5 -40.5h-79l55 386h362v-95h-291q-6 -47 -12 -94.5t-12 -94.5q16 20 48.5 31t72.5 11q12 0 25 -1t26 -4q70 -13 128 -66t55 -160
q0 -100 -58 -179.5t-194 -79.5q-94 -5 -161.5 55.5t-67.5 148.5v0z" />
    <glyph glyph-name="six" unicode="6" horiz-adv-x="559" 
d="M47 323q0 29 3 77.5t17 100.5q20 74 72 137.5t160 70.5q9 0 17.5 -1t17.5 -2q64 -11 117 -59.5t53 -126.5h-87q-7 53 -41.5 83t-77.5 30q-5 0 -10 -0.5t-10 -1.5q-54 -9 -99 -74.5t-45 -202.5q3 7 12.5 17t23.5 21q24 17 59.5 32t77.5 15q19 0 38.5 -4t39.5 -13
q26 -12 52.5 -34t50.5 -57q8 -15 13.5 -30t9.5 -30q4 -16 6 -31t2 -30q0 -94 -62.5 -165t-157.5 -75q-124 -6 -194 90.5t-58 262.5v0zM142 205q-3 -69 42 -109.5t99 -43.5h4h4q51 0 92.5 38t41.5 123q0 74 -41 108.5t-91 35.5h-4h-4q-54 -3 -98.5 -42t-44.5 -110v0z" />
    <glyph glyph-name="seven" unicode="7" horiz-adv-x="559" 
d="M142 0q17 106 56.5 205t83.5 181q46 86 87 150t56 94h-378v79h481v-79q-15 -21 -29.5 -41t-28.5 -40q-69 -98 -127 -215.5t-107 -333.5h-94v0z" />
    <glyph glyph-name="eight" unicode="8" horiz-adv-x="559" 
d="M150 378q-45 23 -67 61.5t-22 81.5v8t1 8q5 68 63 124t166 56q103 -13 150 -63.5t51 -108.5q1 -4 1 -7.5v-6.5q0 -49 -24.5 -92t-66.5 -61q53 -18 84 -70t31 -112v-8t-1 -7q-5 -73 -63 -134t-185 -70q-123 10 -178 72.5t-55 135.5v2.5v3.5q2 56 32 107.5t83 79.5v0z
M126 205q0 -70 45.5 -104.5t100.5 -34.5h1.5h1.5q54 0 99 34t45 100v14t-2 14q-13 54 -52 79t-84 26h-3.5h-2.5q-53 -2 -97.5 -35.5t-51.5 -92.5v0zM150 528q5 -60 42 -87.5t80 -27.5h1.5h1.5q45 1 82.5 28.5t37.5 75.5q1 5 0.5 9.5t-1.5 8.5q0 47 -36 71.5t-80 25.5h-3.5
h-2.5q-43 -2 -79.5 -27.5t-42.5 -76.5v0z" />
    <glyph glyph-name="nine" unicode="9" horiz-adv-x="559" 
d="M39 449q0 112 54.5 184t166.5 84q110 0 162.5 -62.5t71.5 -138.5q8 -30 12 -59.5t6 -54.5q2 -18 2.5 -34.5t0.5 -33.5q1 -174 -71 -259t-159 -98q-8 -1 -16 -1.5t-16 -0.5q-77 0 -137.5 50.5t-60.5 139.5h87q10 -50 43 -77t74 -27q6 0 12.5 0.5t12.5 2.5q54 11 99 73.5
t42 185.5q-31 -37 -69.5 -57t-78.5 -24q-5 0 -10.5 -0.5t-10.5 -0.5q-77 -1 -141.5 53.5t-75.5 154.5v0zM126 480q3 -81 46.5 -119.5t95.5 -38.5h1.5h1.5q58 1 105 46t41 128q-11 68 -53.5 101t-91.5 33q-53 0 -98 -38t-48 -112v0z" />
    <glyph glyph-name="colon" unicode=":" 
d="M102 0v110h111v-110h-111v0zM102 425v110h111v-110h-111v0z" />
    <glyph glyph-name="semicolon" unicode=";" 
d="M102 -8v110h111v-110q-1 -8 -3 -16.5t-5 -17.5q-13 -41 -41 -75.5t-62 -38.5v54q20 6 35 28t23 47q1 5 2.5 10t2.5 10l-63 -1v0zM102 409v111h111v-111h-111v0z" />
    <glyph glyph-name="less" unicode="&#x3c;" horiz-adv-x="583" 
d="M39 197v71l489 204v-78l-386 -166l386 -165v-79l-489 213v0z" />
    <glyph glyph-name="equal" unicode="=" horiz-adv-x="583" 
d="M47 110v79h488v-79h-488v0zM47 283v79h488v-79h-488v0z" />
    <glyph glyph-name="greater" unicode="&#x3e;" horiz-adv-x="583" 
d="M47 71l394 157l-394 158v86l496 -204v-79l-496 -205v87v0z" />
    <glyph glyph-name="question" unicode="?" horiz-adv-x="559" 
d="M244 0v110h95v-110h-95v0zM79 496q-1 8 -1.5 16.5t-0.5 16.5q0 89 58.5 150t171.5 61q97 0 149.5 -57t53.5 -132q0 -12 -1.5 -24.5t-4.5 -24.5q-9 -38 -32.5 -74t-62.5 -66q-9 -7 -17 -13.5t-14 -12.5q-26 -27 -32.5 -58.5t-6.5 -88.5h-95q-4 55 1 88.5t24 62.5
q10 14 23 29t31 33q29 19 48 41t30 44q8 15 11.5 30t3.5 30q0 46 -32 78.5t-85 35.5q-82 -5 -108 -46.5t-26 -118.5h-86v0z" />
    <glyph glyph-name="at" unicode="@" horiz-adv-x="1016" 
d="M31 291q12 166 142 298t331 143q103 0 193 -41.5t145 -90.5q21 -19 35 -37.5t21 -34.5q26 -46 38 -90t12 -86q1 -110 -63.5 -191.5t-142.5 -109.5q-17 -6 -34.5 -9.5t-33.5 -3.5q-36 0 -66.5 17.5t-48.5 54.5q-35 -35 -70 -50.5t-67 -16.5q-69 0 -116.5 57.5t-47.5 134.5
q0 8 0.5 16.5t1.5 16.5q17 89 72.5 163.5t179.5 80.5q10 0 25.5 -4.5t32.5 -12.5q22 -11 41.5 -29t26.5 -41l16 71h94l-102 -315q-1 -6 -2 -11.5t-2 -10.5q0 -21 12 -30.5t31 -9.5q14 0 30.5 5t33.5 14q33 19 62 52t39 78q7 21 10 41.5t3 40.5q0 122 -100.5 209t-242.5 87
q-5 1 -11 1h-12q-19 0 -38.5 -2.5t-39.5 -7.5q-106 -28 -196 -120.5t-105 -225.5q-1 -4 -1.5 -8.5t-0.5 -8.5q-1 -5 -1 -9v-9q0 -11 1 -22t3 -22q18 -108 119 -197.5t257 -89.5q44 0 91.5 8.5t98.5 28.5l32 -64q-44 -19 -89.5 -31t-90.5 -16q-12 -1 -23.5 -1.5t-22.5 -0.5
q-181 0 -321.5 109.5t-141.5 286.5q0 11 1 22.5t2 23.5v0zM370 323q-9 -25 -13 -47t-4 -42q0 -55 26.5 -87.5t63.5 -32.5q10 0 21 2.5t21 7.5q31 15 59 54t47 105q5 16 7.5 30t2.5 27q0 47 -26 72.5t-63 25.5q-10 0 -21 -2t-22 -7q-28 -11 -54 -37t-45 -69v0z" />
    <glyph glyph-name="A" unicode="A" horiz-adv-x="669" 
d="M16 0l260 732h118l267 -732h-110l-79 213h-275l-71 -213h-110v0zM220 299h221l-102 307l-119 -307v0z" />
    <glyph glyph-name="B" unicode="B" horiz-adv-x="669" 
d="M79 0v732h57h58h115.5h99.5q71 -6 123.5 -53t58.5 -112q2 -8 2.5 -15.5t0.5 -15.5q0 -53 -27 -91.5t-63 -58.5q53 -18 85.5 -55.5t32.5 -102.5q1 -7 1 -13v-12q1 -79 -47.5 -130.5t-106.5 -66.5q-11 -3 -22 -4.5t-22 -1.5h-346v0zM173 94h252q53 9 79 43t27 73v2v2
q-1 39 -29.5 73.5t-84.5 43.5h-244v-237v0zM173 425h205q2 0 3.5 -0.5t3.5 -0.5h3h3q47 0 74 34t27 75v4v4q-3 42 -37.5 77.5t-108.5 35.5h-173v-229v0z" />
    <glyph glyph-name="C" unicode="C" horiz-adv-x="724" 
d="M39 354q1 21 3.5 42.5t6.5 43.5q20 107 92 198.5t229 101.5q25 0 57 -5.5t66 -19.5q52 -23 99 -74t69 -145h-102q-22 80 -74.5 119t-112.5 39h-7.5t-6.5 -1q-79 -6 -145.5 -77.5t-70.5 -205.5q0 -161 67 -232.5t147 -72.5h1.5h1.5q78 0 144 55.5t72 147.5h102
q-2 -13 -4.5 -26.5t-6.5 -27.5q-26 -89 -100.5 -163t-187.5 -74q-171 -5 -255 109.5t-84 267.5v0z" />
    <glyph glyph-name="D" unicode="D" horiz-adv-x="724" 
d="M94 732h292q13 0 26 -1.5t26 -3.5q90 -19 164.5 -103t74.5 -238q0 -25 -2 -50.5t-6 -51.5q-17 -107 -81.5 -195.5t-201.5 -88.5h-292v732v0zM189 94h220q79 0 120.5 83.5t41.5 185.5v4v5q-2 103 -49 188.5t-144 85.5h-189v-552v0z" />
    <glyph glyph-name="E" unicode="E" horiz-adv-x="669" 
d="M94 0v732h504v-78h-409v-237h394v-86h-394v-244h425v-87h-520v0z" />
    <glyph glyph-name="F" unicode="F" horiz-adv-x="614" 
d="M94 0v732h489v-78h-394v-237h346v-86h-346v-331h-95v0z" />
    <glyph glyph-name="G" unicode="G" horiz-adv-x="780" 
d="M47 409q18 131 102.5 232t267.5 107q113 0 199.5 -67.5t92.5 -168.5h-95q-1 10 -5 20.5t-10 21.5q-23 40 -73.5 73.5t-116.5 33.5q-9 0 -18 -0.5t-19 -1.5q-86 -12 -158 -81t-72 -208q0 -9 0.5 -18.5t0.5 -18.5q6 -98 58.5 -180t192.5 -82q20 0 45.5 4t52.5 14
q54 19 98 69.5t40 148.5h-228v87h315v-394h-71l-16 87q-45 -42 -96 -67t-103 -33q-14 -3 -27.5 -4t-27.5 -1q-137 0 -241 109.5t-88 317.5v0z" />
    <glyph glyph-name="H" unicode="H" horiz-adv-x="724" 
d="M79 0v732h94v-307h370v307h95v-732h-95v331h-370v-331h-94v0z" />
    <glyph glyph-name="I" unicode="I" 
d="M94 0v732h95v-732h-95v0z" />
    <glyph glyph-name="J" unicode="J" horiz-adv-x="504" 
d="M236 -16q-16 0 -34.5 -0.5t-36.5 2.5q-60 8 -109 59t-40 191h94q-1 -7 -1.5 -14.5t-0.5 -15.5q0 -73 33.5 -107t73.5 -34h2.5h3.5q41 2 75.5 35t34.5 89v543h94v-543q0 -76 -44 -137t-145 -67v-1z" />
    <glyph glyph-name="K" unicode="K" horiz-adv-x="669" 
d="M71 0v732h102v-362l370 362h118l-307 -299l292 -433h-111l-244 362l-118 -118v-244h-102v0z" />
    <glyph glyph-name="L" unicode="L" horiz-adv-x="559" 
d="M71 0v732h102v-645h355v-87h-457v0z" />
    <glyph glyph-name="M" unicode="M" horiz-adv-x="835" 
d="M79 0v732h141l205 -614l205 614h142v-732h-103v583l-197 -583h-94l-197 575v-575h-102v0z" />
    <glyph glyph-name="N" unicode="N" horiz-adv-x="724" 
d="M79 0v732h118l362 -590v590h95v-732h-111l-370 583v-583h-94v0z" />
    <glyph glyph-name="O" unicode="O" horiz-adv-x="780" 
d="M39 394q0 17 2 34.5t6 35.5q23 103 111.5 189.5t235.5 86.5q18 0 36 -1.5t36 -5.5q103 -19 190 -104.5t92 -266.5q0 -154 -94.5 -269.5t-283.5 -115.5q-165 0 -248 117t-83 300v0zM134 346q2 -24 7 -53t16 -59q21 -60 70 -111.5t143 -59.5q7 -1 13.5 -1.5t13.5 -0.5
q99 0 177 84.5t72 256.5q-6 100 -73 176t-179 76q-13 0 -26 -1.5t-26 -4.5q-78 -16 -143 -88t-65 -214v0z" />
    <glyph glyph-name="P" unicode="P" horiz-adv-x="669" 
d="M87 0v732h338q77 0 133 -54t56 -143q1 -4 1 -7.5v-8.5q0 -17 -3.5 -38t-11.5 -42q-17 -47 -56.5 -85.5t-110.5 -38.5h-252v-315h-94v0zM181 638v-244h244q3 0 17 7.5t30 22.5q20 17 35.5 45t12.5 66q-6 47 -35 75t-76 28h-228v0z" />
    <glyph glyph-name="Q" unicode="Q" horiz-adv-x="780" 
d="M39 323q-1 6 -1.5 12t-0.5 13q-1 6 -1 12v12q0 143 89.5 258t268.5 110q26 0 53.5 -3t56.5 -10q75 -20 142.5 -82.5t93.5 -195.5q3 -16 4 -32.5t1 -33.5q1 -94 -32.5 -176t-74.5 -128l86 -79l-55 -55l-94 86q-28 -16 -56.5 -26.5t-57.5 -17.5q-19 -4 -38 -6t-38 -2
q-136 0 -238.5 95t-107.5 249v0zM654 370q-6 144 -84.5 215t-171.5 72h-1.5h-1.5q-95 1 -175 -69.5t-86 -209.5q0 -147 71 -221.5t156 -88.5l20 -2t20 -1q31 -1 59.5 7t51.5 22l-79 63l47 56l95 -79q24 28 42 69t27 84q5 21 7.5 42.5t2.5 40.5v0z" />
    <glyph glyph-name="R" unicode="R" horiz-adv-x="724" 
d="M94 0v732h371q77 0 131 -50t65 -139q0 -18 -2 -38.5t-8 -41.5q-9 -28 -30 -54.5t-62 -46.5q55 -27 70.5 -70.5t16.5 -89.5v-6.5v-6.5v-12.5v-13.5q-1 -43 3.5 -80.5t35.5 -58.5v-24h-118q-7 20 -10.5 41t-4.5 43q-1 10 -1.5 21t-0.5 21v5.5v5.5q-2 64 -17 115t-100 63
h-244v-315h-95v0zM189 402h252q3 -1 6 -1h6q46 0 77.5 38t32.5 84v1.5v1.5v1.5v1.5q-1 41 -34.5 76.5t-111.5 40.5h-228v-244v0z" />
    <glyph glyph-name="S" unicode="S" horiz-adv-x="669" 
d="M47 236h95q0 -89 59.5 -131.5t131.5 -45.5h4h4q64 0 117.5 29.5t61.5 84.5q1 4 1 7.5v7.5q0 70 -58.5 94.5t-133.5 39.5q-9 2 -17 3.5t-16 3.5q-89 19 -161.5 60t-63.5 162q6 77 71 133t189 56t198.5 -57t68.5 -163h-94v3v3v2.5v2.5q0 62 -52.5 95t-115.5 35h-3.5h-2.5
q-61 0 -111.5 -30.5t-53.5 -95.5q8 -53 60.5 -74.5t121.5 -36.5q12 -3 25 -6l26 -6q81 -19 150.5 -57.5t81.5 -134.5q6 -119 -86 -181t-204 -64h-1.5h-1.5q-110 0 -201.5 63.5t-88.5 197.5v0z" />
    <glyph glyph-name="T" unicode="T" horiz-adv-x="614" 
d="M260 0v654h-244v78h575v-78h-229v-654h-102v0z" />
    <glyph glyph-name="U" unicode="U" horiz-adv-x="724" 
d="M79 213v519h102v-519q0 -79 56.5 -119.5t123.5 -40.5q68 0 125 40t57 120v519h103v-519q0 -112 -87.5 -173t-192.5 -63h-3.5h-2.5q-100 0 -185 56.5t-96 179.5v0z" />
    <glyph glyph-name="V" unicode="V" horiz-adv-x="669" 
d="M283 0l-259 732h102l213 -614l204 614h103l-260 -732h-103v0z" />
    <glyph glyph-name="W" unicode="W" horiz-adv-x="945" 
d="M205 0l-181 732h110l134 -575l157 575h110l158 -575l134 575h110l-189 -732h-110l-158 583l-165 -583h-110v0z" />
    <glyph glyph-name="X" unicode="X" horiz-adv-x="669" 
d="M24 0l259 370l-236 362h118l181 -283l182 283h118l-244 -362l259 -370h-126l-189 291l-196 -291h-126v0z" />
    <glyph glyph-name="Y" unicode="Y" horiz-adv-x="669" 
d="M291 0v283l-283 449h118l213 -354l204 354h118l-275 -449v-283h-95v0z" />
    <glyph glyph-name="Z" unicode="Z" horiz-adv-x="614" 
d="M24 0v79l433 575h-402v78h528v-78l-433 -575h433v-79h-559v0z" />
    <glyph glyph-name="bracketleft" unicode="[" 
d="M63 -220v952h189v-78h-102v-788h102v-86h-189v0z" />
    <glyph glyph-name="backslash" unicode="\" 
d="M228 -24l-236 756h63l236 -756h-63v0z" />
    <glyph glyph-name="bracketright" unicode="]" 
d="M24 -220v78h102v796h-102v78h189v-952h-189v0z" />
    <glyph glyph-name="asciicircum" unicode="^" horiz-adv-x="472" 
d="M47 331l158 386h78l158 -386h-79l-118 291l-118 -291h-79v0z" />
    <glyph glyph-name="underscore" unicode="_" horiz-adv-x="559" 
d="M-31 -173v55h606v-55h-606v0z" />
    <glyph glyph-name="grave" unicode="`" horiz-adv-x="331" 
d="M24 748h110l102 -150h-71l-141 150v0z" />
    <glyph glyph-name="a" unicode="a" horiz-adv-x="559" 
d="M39 142q6 53 37.5 96.5t143.5 60.5q134 11 155 27.5t19 61.5v10v11q0 3 -1 5.5t-3 5.5q-11 15 -45 28.5t-72 15.5h-5.5h-5.5q-43 0 -77.5 -20.5t-34.5 -73.5h-79v3.5v3.5q-1 2 -1 3.5v3.5q0 4 0.5 8.5t0.5 9.5q6 53 52.5 97t144.5 44q16 0 33 -1.5t34 -5.5
q54 -11 99.5 -38.5t45.5 -72.5v-323q0 -20 9.5 -34.5t31.5 -14.5q3 0 6.5 0.5t7.5 1.5v-63l-55 -8q-4 -1 -8.5 -1.5t-8.5 -0.5q-23 0 -37 14t-22 31q-4 8 -6 15t-4 13q-51 -41 -98 -58.5t-87 -17.5q-75 0 -121 46t-49 101v8v8v0zM386 260q-8 -10 -29 -14.5t-48 -7.5
q-11 -2 -23 -3.5t-24 -2.5q-48 -8 -88 -27.5t-40 -70.5q9 -41 35.5 -58.5t59.5 -17.5q7 0 14.5 0.5t14.5 2.5q43 7 80.5 33t45.5 55q1 2 1.5 4t0.5 4v103v0z" />
    <glyph glyph-name="b" unicode="b" horiz-adv-x="559" 
d="M55 0v732h87v-275q13 39 58.5 62t100.5 23q7 0 14 -0.5t15 -0.5q37 -4 73 -21t62 -48q26 -32 45.5 -88.5t19.5 -124.5q0 -26 -3.5 -53t-12.5 -54q-4 -16 -11 -32.5t-15 -32.5q-30 -53 -82.5 -83.5t-109.5 -30.5q-44 0 -86.5 19.5t-75.5 62.5v-55h-79v0zM142 276
q0 -113 44 -166t98 -53h1.5h1.5q58 1 105 58t41 161q-3 93 -44.5 136.5t-91.5 43.5h-4.5h-4.5q-53 -4 -98 -50.5t-48 -129.5v0z" />
    <glyph glyph-name="c" unicode="c" horiz-adv-x="504" 
d="M31 307q18 107 77.5 168.5t159.5 67.5q18 0 39 -3t44 -11q44 -16 82.5 -58t46.5 -125h-86q-7 57 -41 85t-75 28q-5 0 -10.5 -0.5t-10.5 -1.5q-54 -9 -98 -62.5t-41 -150.5q3 -100 45.5 -145t92.5 -46h1.5h1.5q50 0 91 35t44 93h86q0 -94 -62.5 -150t-157.5 -61
q-11 1 -23 2t-24 4q-73 14 -132.5 81t-49.5 250v0z" />
    <glyph glyph-name="d" unicode="d" horiz-adv-x="559" 
d="M31 315q16 120 74 173.5t125 59.5q4 1 8.5 1h8.5q50 0 94 -21t68 -56v260h87v-732h-71v28.5v34.5q-20 -40 -66.5 -64t-100.5 -24q-7 0 -13.5 0.5t-12.5 1.5q-82 9 -148 87t-53 251v0zM126 268q-3 -100 43 -156t101 -57h1.5h1.5q52 0 94 51t42 162q0 94 -44 141t-96 48
h-1.5h-1.5q-55 1 -100.5 -47.5t-39.5 -141.5v0z" />
    <glyph glyph-name="e" unicode="e" horiz-adv-x="559" 
d="M39 268q12 124 69 199.5t175 75.5q122 0 171 -71.5t61 -156.5q3 -22 4 -44t1 -43h-386q3 -90 43.5 -130t89.5 -40h4.5h4.5q44 3 83.5 31t57.5 76h87q-6 -82 -66 -128t-155 -52q-114 4 -168 62.5t-69 128.5q-6 24 -7.5 47.5t0.5 44.5v0zM134 307h291q-6 80 -47 121.5
t-91 41.5h-4h-4q-47 -3 -89 -43.5t-56 -119.5v0z" />
    <glyph glyph-name="f" unicode="f" 
d="M87 0v457h-71v78h71v20.5v16.5v15v19q5 80 39 109.5t83 29.5q13 0 25.5 -1.5t25.5 -3.5v-71h-8t-8 1h-6.5h-6.5q-20 1 -37 -8.5t-21 -47.5v-79h87v-78h-87v-457h-86v0z" />
    <glyph glyph-name="g" unicode="g" horiz-adv-x="559" 
d="M31 244q0 142 59.5 220.5t177.5 78.5q35 0 63.5 -16.5t47.5 -35.5q7 -7 12.5 -13.5t10.5 -12.5v63h86v-504q0 -147 -73.5 -199t-162.5 -52q-17 0 -40 3t-48 10q-44 14 -80.5 49t-36.5 103l87 -1q-3 -37 34 -60.5t84 -23.5h8.5t9.5 1q50 5 91.5 43.5t41.5 121.5v14t-1 14
q-24 -24 -49 -39t-51 -23q-15 -5 -30 -7.5t-30 -2.5q-89 -1 -153.5 75t-57.5 194v0zM126 268q3 -115 43 -166t89 -52h2.5h2.5q55 3 100 60.5t39 149.5q2 95 -39 141t-93 46h-3h-3q-50 -3 -92.5 -48t-45.5 -131v0z" />
    <glyph glyph-name="h" unicode="h" horiz-adv-x="559" 
d="M63 0v740h87v-275q27 36 68 57t86 25q4 0 8.5 0.5t9.5 0.5q59 0 107.5 -34t58.5 -105v-409h-86v69.5v71.5v101.5v96.5q2 10 3 18.5t1 16.5q0 53 -30.5 77t-71.5 24q-7 0 -13.5 -0.5t-13.5 -1.5q-48 -9 -87.5 -44t-39.5 -90v-339h-87v0z" />
    <glyph glyph-name="i" unicode="i" horiz-adv-x="220" 
d="M63 0v528h87v-528h-87v0zM63 622v110h87v-110h-87v0z" />
    <glyph glyph-name="j" unicode="j" horiz-adv-x="220" 
d="M63 -110v638h87v-654q0 -52 -36.5 -72t-80.5 -23h-7.5h-7.5q-11 0 -21 0.5t-20 1.5l-1 77q36 1 58.5 5t28.5 28v-1zM63 732h87v-110h-87v110v0z" />
    <glyph glyph-name="k" unicode="k" horiz-adv-x="504" 
d="M142 0h-87v732h87v-425l220 221h118l-189 -189l213 -339h-102l-182 276l-78 -79v-197v0z" />
    <glyph glyph-name="l" unicode="l" horiz-adv-x="220" 
d="M63 0v732h87v-732h-87v0z" />
    <glyph glyph-name="m" unicode="m" horiz-adv-x="835" 
d="M71 0v528h86v-71q11 34 52.5 61t94.5 28q13 0 26 -2t26 -6q26 -8 52 -25.5t49 -47.5q16 38 60 58t93 21q60 0 108.5 -34t45.5 -108v-402h-87v362q-2 52 -29.5 75t-62.5 24q-5 0 -9.5 -0.5t-9.5 -1.5q-41 -7 -75 -40.5t-34 -87.5v-331h-87v378q0 40 -27.5 60.5t-62.5 20.5
q-4 0 -8.5 -0.5t-8.5 -0.5q-40 -6 -73 -37.5t-33 -89.5v-331h-86v0z" />
    <glyph glyph-name="n" unicode="n" horiz-adv-x="559" 
d="M71 0v528h86v-71q9 33 59 58t108 27h5.5h4.5q62 1 111 -34t43 -122v-386h-86v370q0 46 -29 68.5t-67 22.5q-6 0 -12.5 -0.5t-12.5 -1.5q-47 -9 -85.5 -49t-38.5 -111v-299h-86v0z" />
    <glyph glyph-name="o" unicode="o" horiz-adv-x="559" 
d="M39 244q0 113 51 202t193 89q9 0 18 -0.5t18 -1.5q75 -11 138 -76t63 -213q0 -22 -4.5 -51t-16.5 -60q-22 -54 -72 -99t-144 -49q-112 -6 -178 55.5t-66 203.5v0zM126 252q5 -102 50 -149t97 -47h1.5h1.5q59 1 107.5 57t41.5 155q-3 96 -49.5 144.5t-102.5 48.5
q-57 0 -103.5 -52t-43.5 -157v0z" />
    <glyph glyph-name="p" unicode="p" horiz-adv-x="559" 
d="M55 -220v748h79v-63q3 4 6.5 8.5t8.5 8.5q23 22 63.5 40.5t88.5 19.5q19 0 39.5 -4t40.5 -13q18 -7 35 -18.5t33 -26.5q3 -3 6 -7l6 -8q25 -35 46 -93.5t22 -125.5q0 -11 -0.5 -21.5t-2.5 -21.5q-5 -43 -23.5 -85t-53.5 -79q-22 -25 -62 -43.5t-87 -18.5q-9 0 -18.5 1
t-19.5 3q-31 6 -62 23.5t-58 50.5v-275h-87v0zM142 268q0 -103 44 -151.5t98 -48.5h2.5h3.5q54 2 99 49t45 132v13.5t-1 13.5q-10 95 -52 137.5t-91 42.5q-57 0 -104 -51t-44 -137v0z" />
    <glyph glyph-name="q" unicode="q" horiz-adv-x="559" 
d="M24 291q8 126 76.5 191.5t150.5 65.5q46 0 89 -20.5t77 -62.5v63h79v-741h-87v268q-32 -35 -69 -53.5t-76 -21.5q-3 -1 -6.5 -1h-7.5q-87 0 -156.5 78.5t-69.5 233.5v0zM118 283q-3 -112 41.5 -167.5t99.5 -55.5h4h5q52 4 95.5 56.5t45.5 151.5q-5 101 -47 147t-92 47
h-3.5h-2.5q-52 -3 -96 -49.5t-50 -129.5v0z" />
    <glyph glyph-name="r" unicode="r" horiz-adv-x="331" 
d="M71 0v528h86v-71q4 5 7.5 10t7.5 10q25 33 57 52t94 14v-94q-82 0 -124 -36.5t-42 -113.5v-299h-86v0z" />
    <glyph glyph-name="s" unicode="s" horiz-adv-x="504" 
d="M31 157h36h41h4.5h5.5q6 -60 45 -86t85 -27h1.5h1.5q48 0 87.5 23t39.5 59q3 42 -36 59t-92 29q-9 2 -18.5 4t-19.5 5q-65 15 -118 47t-47 116q6 65 46.5 101.5t134.5 47.5q17 0 36 -1t39 -4q50 -8 92 -40t46 -112h-87q-7 44 -37.5 63t-66.5 19h-5.5h-5.5
q-42 -3 -77.5 -24.5t-35.5 -49.5q-3 -40 36 -57t93 -30q10 -2 20 -4.5t20 -4.5q64 -16 117 -45.5t53 -102.5v-2.5v-2.5v-2.5v-2.5v-6v-6q-5 -54 -58 -99.5t-155 -50.5h-2.5h-2.5q-2 1 -3 1h-3q-17 1 -36 3t-38 6q-51 11 -93.5 47t-42.5 130v0z" />
    <glyph glyph-name="t" unicode="t" 
d="M79 63v378h-71v87h71v141h86v-141h87v-87h-87v-331q4 -31 15 -41t26 -10q5 0 10.5 0.5t11.5 1.5t12 1.5t12 0.5v-79q-16 -1 -31.5 -2.5t-29.5 -1.5q-49 0 -78 18.5t-34 64.5v0z" />
    <glyph glyph-name="u" unicode="u" horiz-adv-x="559" 
d="M71 134v394h86v-378q0 -52 26 -76.5t62 -24.5q9 0 17.5 1.5t17.5 3.5q46 13 84 55t38 104v315h86v-528h-86v55q-28 -30 -64 -49t-73 -26q-11 -2 -21.5 -3.5t-21.5 -1.5q-61 0 -106 38t-45 121v0z" />
    <glyph glyph-name="v" unicode="v" horiz-adv-x="504" 
d="M189 0l-181 528h94l134 -426l158 426h94l-205 -528h-94v0z" />
    <glyph glyph-name="w" unicode="w" horiz-adv-x="724" 
d="M150 0l-150 528h102l103 -394l94 394h110l95 -394l102 394h103l-158 -528h-94l-111 394l-102 -394h-94v0z" />
    <glyph glyph-name="x" unicode="x" horiz-adv-x="504" 
d="M197 276l-166 252h95l126 -182l126 182h94l-181 -252l189 -276h-102l-134 197l-134 -197h-94l181 276v0z" />
    <glyph glyph-name="y" unicode="y" horiz-adv-x="504" 
d="M47 -205v79q16 -2 29 -4t24 -2q30 0 49 21t36 83q1 3 2 6.5t2 6.5l-173 543h94l134 -410l150 410h94l-244 -654q-16 -42 -45.5 -64t-61.5 -28q-6 -1 -12.5 -1.5t-12.5 -0.5q-18 0 -34.5 4t-30.5 12v-1z" />
    <glyph glyph-name="z" unicode="z" horiz-adv-x="504" 
d="M24 71l307 370h-284v87h394v-79l-291 -362h307v-87h-433v71v0z" />
    <glyph glyph-name="braceleft" unicode="{" horiz-adv-x="331" 
d="M118 -126v244q-5 43 -22.5 65t-38.5 27q-4 2 -9 2.5t-9 0.5v78q58 -4 71.5 55.5t11.5 131.5q0 13 -0.5 26t-1.5 26q-1 18 -1.5 35.5t-0.5 32.5q6 83 46.5 107.5t111.5 18.5v-70h-6.5t-7.5 1q-4 0 -9.5 0.5t-10.5 -0.5q-17 0 -31 -9.5t-14 -39.5q-1 -5 -1 -12v-15
q0 -11 0.5 -23t0.5 -26q1 -22 1 -46.5t-1 -49.5q-2 -58 -16.5 -109t-54.5 -73q59 -45 67 -104.5t5 -160.5q0 -20 -0.5 -42t-0.5 -46q0 -26 14 -37.5t31 -14.5q9 -2 18.5 -2.5t15.5 -0.5v-64q-4 1 -9 0.5t-9 -0.5q-5 -1 -9.5 -1h-9.5q-41 -1 -73.5 18.5t-47.5 77.5v-1z" />
    <glyph glyph-name="bar" unicode="|" horiz-adv-x="260" 
d="M94 -228v952h71v-952h-71v0z" />
    <glyph glyph-name="braceright" unicode="}" horiz-adv-x="331" 
d="M31 -220v70q2 1 4.5 1h5.5h2.5h2.5q21 -1 38.5 6t17.5 42v219q0 18 10 43.5t29 53.5q7 9 15 18.5t17 18.5q-1 1 -2 1.5t-2 1.5q-22 19 -41.5 53.5t-25.5 85.5v204q0 39 -15.5 46.5t-35.5 7.5h-4.5h-4.5q-5 0 -9.5 0.5t-8.5 1.5v70q10 1 19 1.5t17 0.5q72 0 96.5 -30
t26.5 -66v-3.5v-2.5q0 -7 -0.5 -13.5t-1.5 -12.5v-204q6 -47 27.5 -79t51.5 -32v-70q-30 0 -51.5 -26t-27.5 -85v-196q0 -69 -30 -99t-79 -30q-10 0 -20 1t-21 3v-1z" />
    <glyph glyph-name="asciitilde" unicode="~" horiz-adv-x="583" 
d="M79 283q-4 72 28.5 112t78.5 40q9 0 18.5 -1.5t18.5 -4.5t18.5 -8t18.5 -12l94 -63q17 -10 30.5 -14.5t23.5 -4.5q28 0 38.5 24t10.5 58h55q2 -5 2 -10.5v-10.5q0 -8 -1 -16.5t-3 -16.5q-10 -36 -37 -66t-68 -30q-13 0 -28 4t-31 13l-118 78q-7 5 -16 8.5t-19 3.5h-1.5
h-1.5q-21 -1 -38.5 -20t-17.5 -63h-55v0z" />
    <glyph glyph-name="Adieresis" unicode="&#xc4;" horiz-adv-x="669" 
d="M16 0l260 732h118l267 -732h-110l-79 213h-275l-71 -213h-110v0zM220 299h221l-102 307l-119 -307v0zM181 906h95v-103h-95v103v0zM354 906h95v-103h-95v103v0z" />
    <glyph glyph-name="Aring" unicode="&#xc5;" horiz-adv-x="669" 
d="M16 0l260 732h118l267 -732h-110l-79 213h-275l-71 -213h-110v0zM220 299h221l-102 307l-119 -307v0zM323 937q44 0 65.5 -27t22.5 -60q0 -34 -24 -61.5t-72 -24.5q-44 3 -64.5 27t-20.5 54v2.5v3.5q2 32 26.5 59t66.5 27v0zM268 850q0 -27 15.5 -40t34.5 -13
q18 -1 33.5 11t18.5 35v2v2v1v2q1 24 -14.5 36.5t-34.5 13.5h-1.5h-1.5q-17 -1 -32 -13.5t-18 -36.5v0z" />
    <glyph glyph-name="Ccedilla" unicode="&#xc7;" horiz-adv-x="724" 
d="M47 362q1 18 2.5 36t4.5 36q15 110 80.5 203t227.5 103q26 0 59.5 -5.5t69.5 -21.5q53 -23 101 -73.5t69 -143.5h-102q-20 74 -73.5 112.5t-115.5 38.5h-6h-6q-76 -5 -140.5 -71t-67.5 -198q0 -163 67 -235.5t147 -73.5h1.5h1.5q76 0 139 54t69 145h102
q-12 -100 -74.5 -185.5t-193.5 -97.5l-15 -40q10 3 18.5 4.5t15.5 1.5q38 0 56 -21t19 -48q0 -4 -0.5 -8t-1.5 -9q-6 -33 -36 -60.5t-83 -27.5q-28 0 -62.5 10t-75.5 33l24 46q32 -20 57 -28.5t44 -8.5q25 0 38.5 11.5t15.5 25.5q1 1 1 2.5v2.5q0 13 -9.5 24t-27.5 11
q-7 1 -15 -1t-18 -6l-15 7l31 78q-171 1 -247 112.5t-76 265.5v0z" />
    <glyph glyph-name="Eacute" unicode="&#xc9;" horiz-adv-x="669" 
d="M94 0v732h504v-78h-409v-237h394v-86h-394v-244h425v-87h-520v0zM268 795l102 158h110l-149 -158h-63v0z" />
    <glyph glyph-name="Ntilde" unicode="&#xd1;" horiz-adv-x="724" 
d="M71 0v732h118l362 -590v590h95v-732h-111l-370 583v-583h-94v0zM205 803q2 9 6 22.5t10 28.5q10 23 28 42t48 19q5 0 9.5 -0.5t8.5 -1.5l79 -15q5 -1 8.5 -1.5t7.5 -1.5h4h4q19 0 32 10t22 32h48l-4 -14t-5 -14q-11 -31 -31.5 -57.5t-61.5 -26.5q-5 0 -11 0.5t-13 1.5
l-79 16q-4 1 -8.5 1.5t-8.5 0.5q-20 0 -30.5 -11t-15.5 -31h-47v0z" />
    <glyph glyph-name="Odieresis" unicode="&#xd6;" horiz-adv-x="780" 
d="M31 409q0 17 2 34t5 34q23 105 111.5 192t236.5 87q18 0 36 -1.5t36 -5.5q103 -19 190 -105t92 -266q0 -154 -94.5 -269.5t-283.5 -115.5q-165 0 -248 116.5t-83 299.5v0zM126 362q2 -24 7 -53t16 -59q21 -61 70 -112.5t143 -58.5q7 -1 13.5 -1.5t13.5 -0.5q99 0 177 84
t72 256q-6 101 -73 176.5t-179 75.5q-13 0 -26 -1.5t-26 -4.5q-78 -16 -143 -87.5t-65 -213.5v0zM252 913h94v-102h-94v102v0zM425 913h95v-102h-95v102v0z" />
    <glyph glyph-name="Udieresis" unicode="&#xdc;" horiz-adv-x="724" 
d="M79 213v519h102v-519q0 -79 56.5 -119.5t123.5 -40.5q68 0 125 40t57 120v519h103v-519q0 -112 -87.5 -173t-192.5 -63h-3.5h-2.5q-100 0 -185 56.5t-96 179.5v0zM220 906h95v-103h-95v103v0zM394 906h94v-103h-94v103v0z" />
    <glyph glyph-name="aacute" unicode="&#xe1;" horiz-adv-x="559" 
d="M39 142q6 53 37.5 96.5t143.5 60.5q134 11 155 27.5t19 61.5v10v11q0 3 -1 5.5t-3 5.5q-11 15 -45 28.5t-72 15.5h-5.5h-5.5q-43 0 -77.5 -20.5t-34.5 -73.5h-79v3.5v3.5q-1 2 -1 3.5v3.5q0 4 0.5 8.5t0.5 9.5q6 53 52.5 97t144.5 44q16 0 33 -1.5t34 -5.5
q54 -11 99.5 -38.5t45.5 -72.5v-323q0 -20 9.5 -34.5t31.5 -14.5q3 0 6.5 0.5t7.5 1.5v-63l-55 -8q-4 -1 -8.5 -1.5t-8.5 -0.5q-23 0 -37 14t-22 31q-4 8 -6 15t-4 13q-51 -41 -98 -58.5t-87 -17.5q-75 0 -121 46t-49 101v8v8v0zM386 260q-8 -10 -29 -14.5t-48 -7.5
q-11 -2 -23 -3.5t-24 -2.5q-48 -8 -88 -27.5t-40 -70.5q9 -41 35.5 -58.5t59.5 -17.5q7 0 14.5 0.5t14.5 2.5q43 7 80.5 33t45.5 55q1 2 1.5 4t0.5 4v103v0zM197 591l102 157h110l-149 -157h-63v0z" />
    <glyph glyph-name="agrave" unicode="&#xe0;" horiz-adv-x="559" 
d="M39 142q6 53 37.5 96.5t143.5 60.5q134 11 155 27.5t19 61.5v10v11q0 3 -1 5.5t-3 5.5q-11 15 -45 28.5t-72 15.5h-5.5h-5.5q-43 0 -77.5 -20.5t-34.5 -73.5h-79v3.5v3.5q-1 2 -1 3.5v3.5q0 4 0.5 8.5t0.5 9.5q6 53 52.5 97t144.5 44q16 0 33 -1.5t34 -5.5
q54 -11 99.5 -38.5t45.5 -72.5v-323q0 -20 9.5 -34.5t31.5 -14.5q3 0 6.5 0.5t7.5 1.5v-63l-55 -8q-4 -1 -8.5 -1.5t-8.5 -0.5q-23 0 -37 14t-22 31q-4 8 -6 15t-4 13q-51 -41 -98 -58.5t-87 -17.5q-75 0 -121 46t-49 101v8v8v0zM386 260q-8 -10 -29 -14.5t-48 -7.5
q-11 -2 -23 -3.5t-24 -2.5q-48 -8 -88 -27.5t-40 -70.5q9 -41 35.5 -58.5t59.5 -17.5q7 0 14.5 0.5t14.5 2.5q43 7 80.5 33t45.5 55q1 2 1.5 4t0.5 4v103v0zM142 748h110l102 -150h-71l-141 150v0z" />
    <glyph glyph-name="acircumflex" unicode="&#xe2;" horiz-adv-x="559" 
d="M39 142q6 53 37.5 96.5t143.5 60.5q134 11 155 27.5t19 61.5v10v11q0 3 -1 5.5t-3 5.5q-11 15 -45 28.5t-72 15.5h-5.5h-5.5q-43 0 -77.5 -20.5t-34.5 -73.5h-79v3.5v3.5q-1 2 -1 3.5v3.5q0 4 0.5 8.5t0.5 9.5q6 53 52.5 97t144.5 44q16 0 33 -1.5t34 -5.5
q54 -11 99.5 -38.5t45.5 -72.5v-323q0 -20 9.5 -34.5t31.5 -14.5q3 0 6.5 0.5t7.5 1.5v-63l-55 -8q-4 -1 -8.5 -1.5t-8.5 -0.5q-23 0 -37 14t-22 31q-4 8 -6 15t-4 13q-51 -41 -98 -58.5t-87 -17.5q-75 0 -121 46t-49 101v8v8v0zM386 260q-8 -10 -29 -14.5t-48 -7.5
q-11 -2 -23 -3.5t-24 -2.5q-48 -8 -88 -27.5t-40 -70.5q9 -41 35.5 -58.5t59.5 -17.5q7 0 14.5 0.5t14.5 2.5q43 7 80.5 33t45.5 55q1 2 1.5 4t0.5 4v103v0zM276 693l-79 -102h-71l102 157h95l102 -157h-71l-78 102v0z" />
    <glyph glyph-name="adieresis" unicode="&#xe4;" horiz-adv-x="559" 
d="M39 142q6 53 37.5 96.5t143.5 60.5q134 11 155 27.5t19 61.5v10v11q0 3 -1 5.5t-3 5.5q-11 15 -45 28.5t-72 15.5h-5.5h-5.5q-43 0 -77.5 -20.5t-34.5 -73.5h-79v3.5v3.5q-1 2 -1 3.5v3.5q0 4 0.5 8.5t0.5 9.5q6 53 52.5 97t144.5 44q16 0 33 -1.5t34 -5.5
q54 -11 99.5 -38.5t45.5 -72.5v-323q0 -20 9.5 -34.5t31.5 -14.5q3 0 6.5 0.5t7.5 1.5v-63l-55 -8q-4 -1 -8.5 -1.5t-8.5 -0.5q-23 0 -37 14t-22 31q-4 8 -6 15t-4 13q-51 -41 -98 -58.5t-87 -17.5q-75 0 -121 46t-49 101v8v8v0zM386 260q-8 -10 -29 -14.5t-48 -7.5
q-11 -2 -23 -3.5t-24 -2.5q-48 -8 -88 -27.5t-40 -70.5q9 -41 35.5 -58.5t59.5 -17.5q7 0 14.5 0.5t14.5 2.5q43 7 80.5 33t45.5 55q1 2 1.5 4t0.5 4v103v0zM134 717h94v-103h-94v103v0zM307 717h95v-103h-95v103v0z" />
    <glyph glyph-name="atilde" unicode="&#xe3;" horiz-adv-x="559" 
d="M39 142q6 53 37.5 96.5t143.5 60.5q134 11 155 27.5t19 61.5v10v11q0 3 -1 5.5t-3 5.5q-11 15 -45 28.5t-72 15.5h-5.5h-5.5q-43 0 -77.5 -20.5t-34.5 -73.5h-79v3.5v3.5q-1 2 -1 3.5v3.5q0 4 0.5 8.5t0.5 9.5q6 53 52.5 97t144.5 44q16 0 33 -1.5t34 -5.5
q54 -11 99.5 -38.5t45.5 -72.5v-323q0 -20 9.5 -34.5t31.5 -14.5q3 0 6.5 0.5t7.5 1.5v-63l-55 -8q-4 -1 -8.5 -1.5t-8.5 -0.5q-23 0 -37 14t-22 31q-4 8 -6 15t-4 13q-51 -41 -98 -58.5t-87 -17.5q-75 0 -121 46t-49 101v8v8v0zM386 260q-8 -10 -29 -14.5t-48 -7.5
q-11 -2 -23 -3.5t-24 -2.5q-48 -8 -88 -27.5t-40 -70.5q9 -41 35.5 -58.5t59.5 -17.5q7 0 14.5 0.5t14.5 2.5q43 7 80.5 33t45.5 55q1 2 1.5 4t0.5 4v103v0zM118 591q2 9 6 22.5t11 28.5q10 23 28 42t48 19q4 0 8.5 -0.5t8.5 -1.5l79 -16q5 -1 8.5 -1.5t7.5 -1.5h4h4
q19 0 32.5 10t22.5 32h47l-4 -14l-4 -14q-11 -31 -31.5 -57.5t-61.5 -26.5q-6 0 -12 0.5t-13 1.5l-79 16q-5 1 -9.5 1.5t-8.5 0.5q-19 0 -29.5 -10.5t-15.5 -30.5h-47v0z" />
    <glyph glyph-name="aring" unicode="&#xe5;" horiz-adv-x="559" 
d="M39 142q6 53 37.5 96.5t143.5 60.5q134 11 155 27.5t19 61.5v10v11q0 3 -1 5.5t-3 5.5q-11 15 -45 28.5t-72 15.5h-5.5h-5.5q-43 0 -77.5 -20.5t-34.5 -73.5h-79v3.5v3.5q-1 2 -1 3.5v3.5q0 4 0.5 8.5t0.5 9.5q6 53 52.5 97t144.5 44q16 0 33 -1.5t34 -5.5
q54 -11 99.5 -38.5t45.5 -72.5v-323q0 -20 9.5 -34.5t31.5 -14.5q3 0 6.5 0.5t7.5 1.5v-63l-55 -8q-4 -1 -8.5 -1.5t-8.5 -0.5q-23 0 -37 14t-22 31q-4 8 -6 15t-4 13q-51 -41 -98 -58.5t-87 -17.5q-75 0 -121 46t-49 101v8v8v0zM386 260q-8 -10 -29 -14.5t-48 -7.5
q-11 -2 -23 -3.5t-24 -2.5q-48 -8 -88 -27.5t-40 -70.5q9 -41 35.5 -58.5t59.5 -17.5q7 0 14.5 0.5t14.5 2.5q43 7 80.5 33t45.5 55q1 2 1.5 4t0.5 4v103v0zM291 748q44 0 65.5 -27t22.5 -60q0 -34 -24 -61.5t-72 -24.5q-44 3 -64.5 27t-20.5 54v2.5v3.5q2 32 26.5 59
t66.5 27v0zM236 661q0 -27 15.5 -40t34.5 -13h1.5h1.5q17 0 32 12t18 34v3.5v2.5q1 23 -13 35.5t-31 15.5h-2.5h-2.5q-19 0 -35 -12t-19 -38v0z" />
    <glyph glyph-name="ccedilla" unicode="&#xe7;" horiz-adv-x="504" 
d="M24 307q17 107 76.5 168.5t159.5 67.5q18 0 39 -3t44 -11q44 -16 82.5 -58t46.5 -125h-86q-3 52 -40.5 82t-84.5 31h-4.5h-5.5q-53 -4 -96 -54.5t-37 -160.5q3 -92 44 -135t90 -47h4.5h4.5q47 0 84.5 31.5t40.5 87.5h86q0 -82 -45 -130.5t-128 -65.5l-16 -40q11 4 20 5.5
t17 2.5q33 0 50 -20t17 -47q0 -4 -0.5 -9t-1.5 -9q-7 -32 -36.5 -58t-83.5 -26q-26 0 -59 8t-72 28l23 46q33 -19 58.5 -27t43.5 -8q26 0 38 12t12 26q1 16 -10.5 29t-32.5 13q-5 0 -10.5 -1t-11.5 -3l-16 6l24 63q-2 1 -3.5 1.5t-3.5 0.5q-17 3 -37 7t-40 11
q-56 18 -102 82t-42 229v0z" />
    <glyph glyph-name="eacute" unicode="&#xe9;" horiz-adv-x="559" 
d="M31 268q12 124 69.5 199.5t175.5 75.5q121 0 170 -71.5t61 -156.5q3 -22 4 -44t1 -43h-386q3 -90 43.5 -130t89.5 -40h4.5h4.5q44 3 83.5 31t57.5 76h87q-6 -82 -65.5 -128t-154.5 -52q-114 4 -168.5 62.5t-69.5 128.5q-5 24 -6.5 47.5t-0.5 44.5v0zM126 307h291
q-6 80 -47 121.5t-91 41.5h-4h-4q-47 -3 -89 -43.5t-56 -119.5v0zM197 591l102 157h110l-149 -157h-63v0z" />
    <glyph glyph-name="egrave" unicode="&#xe8;" horiz-adv-x="559" 
d="M31 268q12 124 69.5 199.5t175.5 75.5q121 0 170 -71.5t61 -156.5q3 -22 4 -44t1 -43h-386q3 -90 43.5 -130t89.5 -40h4.5h4.5q44 3 83.5 31t57.5 76h87q-6 -82 -65.5 -128t-154.5 -52q-114 4 -168.5 62.5t-69.5 128.5q-5 24 -6.5 47.5t-0.5 44.5v0zM126 307h291
q-6 80 -47 121.5t-91 41.5h-4h-4q-47 -3 -89 -43.5t-56 -119.5v0zM142 748h110l102 -150h-71l-141 150v0z" />
    <glyph glyph-name="ecircumflex" unicode="&#xea;" horiz-adv-x="559" 
d="M31 268q12 124 69.5 199.5t175.5 75.5q121 0 170 -71.5t61 -156.5q3 -22 4 -44t1 -43h-386q3 -90 43.5 -130t89.5 -40h4.5h4.5q44 3 83.5 31t57.5 76h87q-6 -82 -65.5 -128t-154.5 -52q-114 4 -168.5 62.5t-69.5 128.5q-5 24 -6.5 47.5t-0.5 44.5v0zM126 307h291
q-6 80 -47 121.5t-91 41.5h-4h-4q-47 -3 -89 -43.5t-56 -119.5v0zM268 701l-79 -103h-71l102 158h95l102 -158h-71l-78 103v0z" />
    <glyph glyph-name="edieresis" unicode="&#xeb;" horiz-adv-x="559" 
d="M31 268q12 124 69.5 199.5t175.5 75.5q121 0 170 -71.5t61 -156.5q3 -22 4 -44t1 -43h-386q3 -90 43.5 -130t89.5 -40h4.5h4.5q44 3 83.5 31t57.5 76h87q-6 -82 -65.5 -128t-154.5 -52q-114 4 -168.5 62.5t-69.5 128.5q-5 24 -6.5 47.5t-0.5 44.5v0zM126 307h291
q-6 80 -47 121.5t-91 41.5h-4h-4q-47 -3 -89 -43.5t-56 -119.5v0zM134 717h94v-103h-94v103v0zM307 717h95v-103h-95v103v0z" />
    <glyph glyph-name="iacute" unicode="&#xed;" 
d="M94 528h87v-528h-87v528v0zM63 591l102 157h111l-150 -157h-63v0z" />
    <glyph glyph-name="igrave" unicode="&#xec;" 
d="M94 528h87v-528h-87v528v0zM-8 740h110l103 -149h-71l-142 149v0z" />
    <glyph glyph-name="icircumflex" unicode="&#xee;" 
d="M87 528h86v-528h-86v528v0zM126 685l-79 -102h-71l103 157h94l103 -157h-71l-79 102v0z" />
    <glyph glyph-name="idieresis" unicode="&#xef;" 
d="M87 528h86v-528h-86v528v0zM0 717h94v-103h-94v103v0zM173 717h95v-103h-95v103v0z" />
    <glyph glyph-name="ntilde" unicode="&#xf1;" horiz-adv-x="559" 
d="M71 0v528h86v-71q9 33 59 58t108 27h5.5h4.5q62 1 111 -34t43 -122v-386h-86v370q0 46 -29 68.5t-67 22.5q-6 0 -12.5 -0.5t-12.5 -1.5q-47 -9 -85.5 -49t-38.5 -111v-299h-86v0zM118 598q2 9 6 22.5t11 28.5q10 23 28.5 42.5t48.5 19.5q4 0 8 -0.5t8 -1.5l79 -16
q5 -1 8.5 -1.5t7.5 -1.5h4h4q19 0 32.5 10t22.5 32h47l-4 -14l-4 -14q-11 -31 -31.5 -57.5t-61.5 -26.5q-6 0 -12 0.5t-13 1.5l-79 16q-4 1 -8.5 1.5t-8.5 0.5q-20 0 -30.5 -11t-15.5 -31h-47v0z" />
    <glyph glyph-name="oacute" unicode="&#xf3;" horiz-adv-x="559" 
d="M31 260q0 112 51.5 201.5t193.5 89.5q9 0 18.5 -0.5t19.5 -2.5q74 -11 136 -76.5t62 -211.5q0 -22 -4.5 -51t-16.5 -60q-22 -54 -71.5 -99.5t-143.5 -49.5q-112 -5 -178.5 56.5t-66.5 203.5v0zM118 268q5 -102 50 -149.5t97 -47.5h1.5h1.5q59 1 107.5 57t41.5 155
q-3 96 -49.5 144.5t-102.5 48.5q-57 0 -103.5 -51.5t-43.5 -156.5v0zM197 591l102 157h110l-149 -157h-63v0z" />
    <glyph glyph-name="ograve" unicode="&#xf2;" horiz-adv-x="559" 
d="M24 252q0 113 51 202t193 89q9 0 18.5 -0.5t19.5 -2.5q74 -11 136 -76.5t62 -211.5q0 -22 -4.5 -51t-16.5 -60q-21 -54 -71 -99t-144 -49q-112 -6 -178 55.5t-66 203.5v0zM110 260q5 -102 50 -149t97 -47h1.5h1.5q59 1 107.5 57t41.5 155q-2 94 -48 142.5t-101 49.5h-1.5
h-1.5q-57 0 -103.5 -51.5t-43.5 -156.5v0zM118 740h110l103 -149h-71l-142 149v0z" />
    <glyph glyph-name="ocircumflex" unicode="&#xf4;" horiz-adv-x="559" 
d="M31 260q0 112 51.5 201.5t193.5 89.5q9 0 18.5 -0.5t19.5 -2.5q74 -11 136 -76.5t62 -211.5q0 -22 -4.5 -51t-16.5 -60q-22 -54 -71.5 -99.5t-143.5 -49.5q-112 -5 -178.5 56.5t-66.5 203.5v0zM118 268q5 -102 50 -149.5t97 -47.5h1.5h1.5q59 1 107.5 57t41.5 155
q-3 96 -49.5 144.5t-102.5 48.5q-57 0 -103.5 -51.5t-43.5 -156.5v0zM268 693l-79 -102h-71l102 157h95l102 -157h-71l-78 102v0z" />
    <glyph glyph-name="odieresis" unicode="&#xf6;" horiz-adv-x="559" 
d="M31 260q0 112 51.5 201.5t193.5 89.5q9 0 18.5 -0.5t19.5 -2.5q74 -11 136 -76.5t62 -211.5q0 -22 -4.5 -51t-16.5 -60q-22 -54 -71.5 -99.5t-143.5 -49.5q-112 -5 -178.5 56.5t-66.5 203.5v0zM118 268q5 -102 50 -149.5t97 -47.5h1.5h1.5q59 1 107.5 57t41.5 155
q-3 96 -49.5 144.5t-102.5 48.5q-57 0 -103.5 -51.5t-43.5 -156.5v0zM134 717h94v-103h-94v103v0zM307 717h95v-103h-95v103v0z" />
    <glyph glyph-name="otilde" unicode="&#xf5;" horiz-adv-x="559" 
d="M31 260q0 112 51.5 201.5t193.5 89.5q9 0 18.5 -0.5t19.5 -2.5q74 -11 136 -76.5t62 -211.5q0 -22 -4.5 -51t-16.5 -60q-22 -54 -71.5 -99.5t-143.5 -49.5q-112 -5 -178.5 56.5t-66.5 203.5v0zM118 268q5 -102 50 -149.5t97 -47.5h1.5h1.5q59 1 107.5 57t41.5 155
q-3 96 -49.5 144.5t-102.5 48.5q-57 0 -103.5 -51.5t-43.5 -156.5v0zM118 598q2 9 6 22.5t11 28.5q10 23 28.5 42.5t48.5 19.5q4 0 8 -0.5t8 -1.5l79 -16q5 -1 8.5 -1.5t7.5 -1.5h4h4q19 0 32.5 10t22.5 32h47l-4 -14l-4 -14q-11 -31 -31.5 -57.5t-61.5 -26.5q-6 0 -12 0.5
t-13 1.5l-79 16q-4 1 -8.5 1.5t-8.5 0.5q-20 0 -30.5 -11t-15.5 -31h-47v0z" />
    <glyph glyph-name="uacute" unicode="&#xfa;" horiz-adv-x="559" 
d="M71 134v394h86v-378q0 -52 26 -76.5t62 -24.5q9 0 17.5 1.5t17.5 3.5q46 13 84 55t38 104v315h86v-528h-86v55q-28 -30 -64 -49t-73 -26q-11 -2 -21.5 -3.5t-21.5 -1.5q-61 0 -106 38t-45 121v0zM197 583l102 157h110l-149 -157h-63v0z" />
    <glyph glyph-name="ugrave" unicode="&#xf9;" horiz-adv-x="559" 
d="M63 134v394h87v-378q0 -52 26 -76.5t61 -24.5q9 0 17.5 1.5t17.5 3.5q46 13 84 55t38 104v315h86v-528h-86v55q-28 -30 -64 -49t-73 -26q-11 -2 -21.5 -3.5t-21.5 -1.5q-61 0 -106 38t-45 121v0zM134 748h110l102 -150h-70l-142 150v0z" />
    <glyph glyph-name="ucircumflex" unicode="&#xfb;" horiz-adv-x="559" 
d="M63 134v394h87v-378q0 -52 26 -76.5t61 -24.5q9 0 17.5 1.5t17.5 3.5q46 13 84 55t38 104v315h86v-528h-86v55q-28 -30 -64 -49t-73 -26q-11 -2 -21.5 -3.5t-21.5 -1.5q-61 0 -106 38t-45 121v0zM268 677l-79 -102h-71l102 157h95l102 -157h-71l-78 102v0z" />
    <glyph glyph-name="udieresis" unicode="&#xfc;" horiz-adv-x="559" 
d="M63 134v394h87v-378q0 -52 26 -76.5t61 -24.5q9 0 17.5 1.5t17.5 3.5q46 13 84 55t38 104v315h86v-528h-86v55q-28 -30 -64 -49t-73 -26q-11 -2 -21.5 -3.5t-21.5 -1.5q-61 0 -106 38t-45 121v0zM134 709h94v-103h-94v103v0zM307 709h95v-103h-95v103v0z" />
    <glyph glyph-name="dagger" unicode="&#x2020;" horiz-adv-x="559" 
d="M228 512v212h103v-212h181v-87h-181v-598h-103v598h-197v87h197v0z" />
    <glyph glyph-name="degree" horiz-adv-x="500" 
 />
    <glyph glyph-name="cent" unicode="&#xa2;" horiz-adv-x="559" 
d="M362 449l-110 -394q10 -1 19.5 -1.5t18.5 -0.5q47 0 85.5 24.5t57.5 103.5h79q-8 -100 -60.5 -146t-113.5 -57q-11 -1 -21 -2t-20 -1q-19 0 -36.5 2.5t-32.5 7.5l-31 -111h-47l39 126q-73 35 -108 105t-35 147v2.5v3.5q1 105 65 192.5t183 87.5q11 1 22 0t23 -3l31 95h47
l-31 -102q59 -24 92.5 -74t33.5 -115h-79q-3 10 -7.5 23t-11.5 27q-9 17 -22 33.5t-30 26.5v0zM213 79l110 386q-8 2 -15.5 3t-15.5 1q-69 0 -111.5 -62.5t-42.5 -142.5q0 -8 0.5 -15.5t1.5 -15.5q4 -41 22 -81t51 -73v0z" />
    <glyph glyph-name="sterling" unicode="&#xa3;" horiz-adv-x="559" 
d="M118 378q-23 33 -41 68.5t-18 75.5q0 32 15 68.5t52 78.5q30 32 77 50t98 18h2.5h2.5q86 -2 155.5 -58.5t58.5 -182.5h-87q2 79 -41.5 117.5t-95.5 39.5h-1.5h-1.5q-51 0 -93 -33t-42 -95q0 -30 13 -66.5t42 -80.5h157v-55h-134q6 -17 8.5 -33t3.5 -30q0 -42 -18 -74
t-39 -56q-14 -16 -27.5 -28.5t-21.5 -22.5q35 15 63 21t51 6q26 0 46.5 -5t39.5 -11l20 -6t19 -6q8 -2 16.5 -3t16.5 -1q20 0 41.5 8t48.5 28l39 -71q-34 -32 -66 -44t-63 -13q-26 0 -50.5 6t-49.5 13q-3 1 -5.5 1.5t-4.5 1.5q-27 9 -54.5 16t-56.5 7q-25 1 -51.5 -7
t-54.5 -27l-48 62l1.5 1.5l1.5 1.5q46 41 84 86t38 107q0 17 -3 35t-11 37h-119v55h87v0z" />
    <glyph glyph-name="section" unicode="&#xa7;" horiz-adv-x="559" 
d="M142 465q-22 31 -32 59.5t-10 53.5q0 68 57 108.5t126 43.5h4h4q67 0 121.5 -41.5t54.5 -134.5q0 -8 -0.5 -16.5t-1.5 -17.5h-87q1 6 1 12v12q1 56 -28.5 81t-64.5 27h-1.5h-1.5q-35 0 -64 -20t-29 -53q-1 -32 39 -74.5t141 -87.5q62 -27 94 -67.5t42 -83.5
q2 -10 3 -19.5t1 -18.5q0 -58 -33 -104.5t-83 -52.5q31 -33 45 -65t14 -62q0 -70 -60.5 -118.5t-132.5 -52.5h-5.5h-5.5q-67 0 -121.5 48.5t-56.5 163.5l86 -1q0 -60 30.5 -88.5t66.5 -31.5h4h4q35 0 63 19.5t28 54.5q0 36 -43 84.5t-153 103.5q-52 26 -85 77t-34 106
q0 44 24.5 85.5t79.5 70.5v0zM197 425q-30 -22 -53 -46.5t-23 -53.5q0 -17 10 -35t34 -38l181 -150q26 15 47.5 47t21.5 68q1 22 -9.5 43t-35.5 39l-173 126v0z" />
    <glyph glyph-name="bullet" 
d="M71 441q18 22 40 33.5t45 13.5h4.5h5.5q50 0 92 -35.5t42 -87.5q0 -17 -5.5 -35.5t-18.5 -38.5q-19 -30 -47 -44t-57 -14q-49 0 -89.5 33.5t-40.5 87.5q-1 20 6 42t23 45v0z" />
    <glyph glyph-name="paragraph" unicode="&#xb6;" horiz-adv-x="535" 
d="M315 669v-850h-71v441q-100 3 -152 75t-53 158v4v5q3 89 63 163.5t181 74.5h237v-71h-55v-850h-71v850h-79v0z" />
    <glyph glyph-name="germandbls" unicode="&#xdf;" horiz-adv-x="614" 
d="M299 433q75 4 109 35t36 68v1.5v1.5q0 21 -9 40.5t-26 34.5q-16 14 -37.5 21.5t-44.5 7.5q-43 0 -78.5 -26.5t-35.5 -81.5v-535h-95v551q0 88 66.5 132.5t145.5 44.5q48 0 92.5 -16.5t73.5 -50.5q17 -20 30.5 -54t13.5 -72v-3v-3q-1 -38 -21 -72.5t-70 -54.5
q65 -22 95 -74.5t30 -112.5v-8t-1 -8q-5 -84 -61.5 -152.5t-155.5 -69.5q-16 0 -32 1.5t-33 6.5v78q7 -1 12.5 -1.5t11.5 -1.5h6h6q74 0 113.5 45t41.5 99v1.5v1.5q0 53 -38 96.5t-119 43.5h-6.5h-6.5t-6.5 -0.5t-6.5 -0.5v87v0z" />
    <glyph glyph-name="registered" unicode="&#xae;" horiz-adv-x="740" 
d="M-16 354q-5 166 107 280t271 114q148 0 271 -110t123 -276q-4 -153 -78 -238t-162 -119q-44 -17 -86 -23.5t-76 -4.5q-136 6 -249.5 117.5t-119.5 259.5h-1zM39 354q0 -124 99.5 -224.5t223.5 -105.5h10h9q120 3 220 102.5t100 235.5t-100.5 233.5t-230.5 97.5
q-27 0 -60 -7t-67 -22q-77 -33 -140.5 -108t-63.5 -202v0zM228 583h205q70 0 106.5 -36.5t38.5 -79.5v-3.5v-2.5q0 -46 -36.5 -83.5t-108.5 -31.5l126 -196h-63l-126 189h-87v-189h-55v433v0zM417 386q50 0 74 23t24 51v1.5v1.5q0 27 -23.5 49.5t-66.5 22.5h-142v-149h134v0
z" />
    <glyph glyph-name="copyright" unicode="&#xa9;" horiz-adv-x="740" 
d="M-24 402q13 124 107 229t271 117q138 10 245 -82.5t142 -205.5q7 -23 11 -45.5t4 -44.5q0 -156 -88 -252.5t-193 -126.5q-27 -8 -53.5 -11.5t-51.5 -2.5q-183 6 -293.5 132.5t-99.5 292.5h-1zM31 402q-11 -148 87 -260.5t252 -117.5q21 0 43.5 4t45.5 11q90 31 166 115.5
t76 207.5q0 22 -3.5 45t-10.5 47q-27 90 -108 166t-217 81q-28 0 -60.5 -7t-65.5 -22q-67 -30 -126 -95t-79 -175v0zM228 528q25 23 51.5 36.5t54.5 18.5l18 2t18 1q75 0 132 -44.5t57 -100.5h-63q-10 47 -44.5 71.5t-76.5 24.5h-7.5t-6.5 -1q-53 -5 -96 -50.5t-37 -131.5
q3 -73 44.5 -112.5t91.5 -45.5q4 -1 8 -1h8q43 0 77 26t39 78h63q-7 -79 -60 -117t-116 -38h-8t-7 1q-37 2 -72 17.5t-60 42.5q-28 30 -43.5 69.5t-18.5 81.5q-1 4 -1 8.5v9.5q0 43 13.5 83t41.5 71v0z" />
    <glyph glyph-name="trademark" unicode="&#x2122;" horiz-adv-x="1000" 
d="M55 748h347v-63h-134v-362h-79v362h-134v63v0zM543 677v-354h-71v425h111l118 -299l126 299h110v-425h-71v354l-142 -354h-47l-134 354v0z" />
    <glyph glyph-name="acute" unicode="&#xb4;" horiz-adv-x="331" 
d="M87 591l102 157h110l-149 -157h-63v0z" />
    <glyph glyph-name="dieresis" unicode="&#xa8;" horiz-adv-x="331" 
d="M24 717h94v-103h-94v103v0zM197 717h94v-103h-94v103v0z" />
    <glyph glyph-name="notequal" unicode="&#x2260;" horiz-adv-x="500" 
 />
    <glyph glyph-name="AE" unicode="&#xc6;" horiz-adv-x="1000" 
d="M307 724h622v-86h-370v-221h354v-86h-354v-244h386v-87h-480v213h-268l-87 -213h-102l299 724v0zM465 299v339h-95l-134 -339h229v0z" />
    <glyph glyph-name="Oslash" unicode="&#xd8;" horiz-adv-x="780" 
d="M126 118q-43 69 -62.5 135t-20.5 127q0 161 109 267t254 107q22 0 44.5 -3t45.5 -9q34 -9 68 -25t66 -40l63 71l31 -31l-63 -71q38 -48 60 -99.5t31 -104.5q3 -17 4.5 -34.5t1.5 -34.5q0 -155 -98.5 -273.5t-244.5 -119.5q-54 0 -112 19.5t-117 63.5q-7 6 -14.5 12
t-14.5 12l-86 -95l-32 32l87 94v0zM213 150q29 -28 59.5 -46t61.5 -26q16 -5 31.5 -7t30.5 -2q102 -1 179.5 82.5t77.5 213.5q0 48 -13 101.5t-42 108.5l-385 -425v0zM189 189l378 417q-36 32 -76.5 46.5t-81.5 14.5q-103 0 -186.5 -79t-83.5 -208q0 -43 12 -91.5t38 -99.5
v0z" />
    <glyph glyph-name="infinity" unicode="&#x221e;" 
 />
    <glyph glyph-name="plusminus" unicode="&#xb1;" horiz-adv-x="583" 
 />
    <glyph glyph-name="lessequal" unicode="&#x2264;" horiz-adv-x="500" 
 />
    <glyph glyph-name="greaterequal" unicode="&#x2265;" horiz-adv-x="500" 
 />
    <glyph glyph-name="yen" unicode="&#xa5;" horiz-adv-x="559" 
d="M213 354l-205 363h71l197 -339l196 339h71l-204 -363h149v-47h-173v-79h181v-47h-181v-181h-79v181h-181v47h181v79h-173v47h150v0z" />
    <glyph glyph-name="mu" unicode="&#xb5;" horiz-adv-x="559" 
 />
    <glyph glyph-name="partialdiff" unicode="&#x2202;" horiz-adv-x="500" 
 />
    <glyph glyph-name="summation" unicode="&#x3a3;" horiz-adv-x="500" 
 />
    <glyph glyph-name="product" unicode="&#x220f;" 
 />
    <glyph glyph-name="pi" unicode="&#x3c0;" horiz-adv-x="500" 
 />
    <glyph glyph-name="integral" unicode="&#x222b;" 
 />
    <glyph glyph-name="ordfeminine" unicode="&#xaa;" horiz-adv-x="370" 
d="M39 362h276v-55h-276v55v0zM39 638q3 58 41.5 83t84.5 26h3h3q46 0 83 -18t37 -44v-189q0 -22 6.5 -32t18.5 -10q3 0 7 1l8 2v-40l-48 -8q-24 5 -31.5 14t-11.5 22l-2 6l-2 6q-9 -6 -18 -11.5t-17 -9.5q-18 -9 -35.5 -13t-34.5 -4q-42 0 -71 21.5t-29 55.5q0 47 38 68.5
t83 31.5q12 3 23 5.5t22 4.5q10 2 17 3t11 1q9 2 10.5 5t0.5 13v4.5v5.5v31q0 12 -20.5 22t-46.5 10h-1.5h-1.5q-26 -1 -47.5 -15t-24.5 -48h-55v0zM236 575l-45 -9t-36 -8q-38 -9 -53.5 -21t-15.5 -34v-7.5t1 -7.5q2 -17 20 -26t40 -9h6h6q29 3 53 19.5t24 47.5v55v0z" />
    <glyph glyph-name="ordmasculine" unicode="&#xba;" horiz-adv-x="362" 
d="M315 362v-55h-268v55h268v0zM39 591q0 83 44.5 124t99.5 41h2.5h2.5q57 -2 103 -49.5t40 -139.5q-3 -78 -46.5 -117.5t-96.5 -39.5h-1.5h-1.5q-55 1 -100.5 46t-45.5 135v0zM94 591q0 -50 20.5 -79.5t45.5 -40.5q7 -3 14.5 -4.5t14.5 -1.5q5 0 9.5 0.5t9.5 2.5
q25 8 46.5 36.5t21.5 78.5q0 45 -20.5 75.5t-45.5 42.5q-7 4 -14.5 6t-14.5 2q-35 0 -55 -25t-27 -54q-3 -10 -4 -20t-1 -19v0z" />
    <glyph glyph-name="Omega" unicode="&#x3a9;" horiz-adv-x="500" 
 />
    <glyph glyph-name="ae" unicode="&#xe6;" horiz-adv-x="890" 
d="M457 228q6 -84 49.5 -125.5t94.5 -46.5q3 -1 6 -1h6q47 0 87 30t48 88h87q-7 -95 -72 -144t-145 -50h-10.5t-10.5 1q-53 4 -103.5 30.5t-84.5 76.5q-14 -16 -28.5 -30t-29.5 -25q-37 -27 -72.5 -38.5t-68.5 -12.5q-78 0 -131 52.5t-54 117.5v3.5v3.5q3 60 66 112t208 61
h12.5t12.5 1q20 2 37 12.5t17 41.5q3 50 -29.5 73t-75.5 23h-8.5t-8.5 -1q-46 -5 -84 -33.5t-38 -77.5h-87q0 94 61.5 138.5t134.5 46.5h5h4q58 0 109.5 -23t71.5 -67q34 37 75 58t82 26q7 0 13.5 0.5t12.5 0.5q89 1 159 -69.5t70 -205.5v-23t-2 -24h-386v0zM370 268
q-14 -12 -37.5 -16.5t-51.5 -8.5q-7 -1 -13.5 -1.5t-13.5 -1.5q-48 -7 -88.5 -26t-40.5 -78v-8.5t1 -9.5q5 -28 27.5 -40t53.5 -13q10 0 20.5 1t20.5 3q46 10 84 36t38 60v103v0zM457 315h291q3 80 -41.5 119.5t-100.5 40.5h-1.5h-1.5q-55 -1 -100.5 -41t-45.5 -119v0z" />
    <glyph glyph-name="oslash" unicode="&#xf8;" horiz-adv-x="614" 
d="M425 480l63 71l32 -23l-71 -87q28 -52 40 -101.5t12 -93.5q1 -118 -70.5 -192t-169.5 -74q-23 0 -47 4.5t-48 13.5q-18 7 -36 17.5t-36 23.5l-55 -63l-31 24l63 71q-30 51 -43.5 101t-13.5 96q0 121 75 202.5t172 81.5q12 0 24 -1.5t23 -4.5q30 -7 59.5 -23t57.5 -43v0z
M157 110q28 -23 54.5 -34t51.5 -11q62 0 103.5 55.5t41.5 136.5q0 27 -5.5 55.5t-16.5 57.5l-229 -260v0zM134 142l228 267q-22 28 -47.5 41t-51.5 13q-58 0 -105 -54t-48 -144q0 -28 5.5 -59t18.5 -64v0z" />
    <glyph glyph-name="questiondown" unicode="&#xbf;" horiz-adv-x="614" 
d="M260 331h94q0 -47 -6 -92.5t-41 -81.5l-71 -63q-10 -9 -18 -18t-14 -17q-13 -18 -18.5 -35.5t-5.5 -33.5q0 -48 38 -83t83 -39q3 -1 5.5 -1h5.5q44 -1 78.5 35t34.5 122h95q5 -129 -59.5 -185t-145.5 -56h-6.5h-7.5q-83 5 -152 57t-70 133q0 37 20 80t66 89l63 63
q9 9 14 16.5t9 14.5q4 11 5 21.5t1 23.5q0 11 0.5 23t2.5 27v0zM260 528h94v-111h-94v111v0z" />
    <glyph glyph-name="exclamdown" unicode="&#xa1;" horiz-adv-x="331" 
d="M126 354h55l16 -197v-370h-87v370l16 197v0zM197 528v-111h-87v111h87v0z" />
    <glyph glyph-name="logicalnot" unicode="&#xac;" horiz-adv-x="583" 
d="M465 283h-434v71h512v-275h-78v204v0z" />
    <glyph glyph-name="radical" unicode="&#x221a;" horiz-adv-x="500" 
 />
    <glyph glyph-name="florin" unicode="&#x192;" horiz-adv-x="559" 
d="M8 -205l16 95q15 -6 28.5 -9t24.5 -3q40 0 62 29t26 70l79 425h-110v70h126q24 131 64.5 202.5t128.5 72.5q20 0 42.5 -3.5t47.5 -11.5l-31 -86q-15 10 -29 14.5t-27 4.5q-41 1 -67 -48.5t-35 -144.5h111v-70h-126l-71 -386q-21 -113 -63.5 -168.5t-137.5 -55.5
q-13 0 -28 1t-31 3v-1z" />
    <glyph glyph-name="approxequal" unicode="&#x2248;" horiz-adv-x="500" 
 />
    <glyph glyph-name="Delta" unicode="&#x2206;" horiz-adv-x="500" 
 />
    <glyph glyph-name="guillemotleft" unicode="&#xab;" horiz-adv-x="559" 
d="M87 323l157 118v-79l-102 -79l102 -86v-79l-157 118v87v0zM291 323l158 118v-79l-103 -79l103 -86v-79l-158 118v87v0z" />
    <glyph glyph-name="guillemotright" unicode="&#xbb;" horiz-adv-x="559" 
d="M205 283l-103 87v79l158 -118v-95l-158 -118v79l103 86v0zM402 283l-103 87v79l158 -118v-95l-158 -118v79l103 86v0z" />
    <glyph glyph-name="ellipsis" unicode="&#x2026;" horiz-adv-x="1000" 
d="M110 0v110h110v-110h-110v0zM441 0v110h110v-110h-110v0zM780 0v110h110v-110h-110v0z" />
    <glyph glyph-name="Agrave" unicode="&#xc0;" horiz-adv-x="669" 
d="M16 0l260 732h118l267 -732h-110l-79 213h-275l-71 -213h-110v0zM220 299h221l-102 307l-119 -307v0zM181 945h110l103 -150h-71l-142 150v0z" />
    <glyph glyph-name="Atilde" unicode="&#xc3;" horiz-adv-x="669" 
d="M24 0l259 732h119l267 -732h-110l-79 213h-275l-71 -213h-110v0zM228 299h221l-103 307l-118 -307v0zM165 787q2 9 6 22.5t11 28.5q10 23 28.5 42.5t48.5 19.5h4t5 -1q2 0 4 -0.5t4 -0.5l78 -16q7 -1 13 -2t11 -1q20 0 33 10t22 32h47l-4 -14l-4 -14q-11 -31 -31.5 -57.5
t-61.5 -26.5q-6 0 -12 0.5t-13 1.5l-78 16q-3 1 -6 1t-6 1h-3h-3q-20 0 -30 -11t-15 -31h-48v0z" />
    <glyph glyph-name="Otilde" unicode="&#xd5;" horiz-adv-x="780" 
d="M31 409q0 17 2 34t5 34q23 105 111.5 192t236.5 87q18 0 36 -1.5t36 -5.5q103 -19 190 -105t92 -266q0 -154 -94.5 -269.5t-283.5 -115.5q-165 0 -248 116.5t-83 299.5v0zM126 362q2 -24 7 -53t16 -59q21 -61 70 -112.5t143 -58.5q7 -1 13.5 -1.5t13.5 -0.5q99 0 177 84
t72 256q-6 101 -73 176.5t-179 75.5q-13 0 -26 -1.5t-26 -4.5q-78 -16 -143 -87.5t-65 -213.5v0zM213 795q2 9 5.5 22.5t10.5 28.5q10 23 28.5 42.5t48.5 19.5h4t5 -1q2 0 4 -0.5t4 -0.5l79 -16q5 -1 8.5 -1.5t7.5 -1.5h4h4q19 0 32 10t22 32h48l-4 -14t-5 -14
q-11 -31 -31.5 -57.5t-61.5 -26.5q-5 0 -11 0.5t-13 1.5l-79 16q-3 1 -6 1t-6 1h-3h-3q-20 0 -30 -11t-15 -31h-47v0z" />
    <glyph glyph-name="OE" unicode="&#x152;" horiz-adv-x="1000" 
d="M528 654v78h433v-86h-331v-229h323v-86h-323v-244h339v-87h-441v71q-24 -45 -74 -69.5t-109 -24.5q-13 0 -25.5 1t-25.5 4q-92 17 -169.5 105t-77.5 267q3 184 79 273.5t167 109.5q15 3 29.5 4.5t29.5 1.5q60 0 108.5 -24t67.5 -65v0zM528 181v347q-11 59 -64 96.5
t-116 37.5h-6h-7q-68 -5 -126 -66t-67 -202q-10 -173 56 -252t147 -81h2.5h2.5q56 0 105 31.5t73 88.5v0z" />
    <glyph glyph-name="oe" unicode="&#x153;" horiz-adv-x="945" 
d="M512 236q0 -2 -0.5 -4t-0.5 -4v-4v-4q0 -73 49 -120t108 -48h2.5h3.5q38 2 73.5 28.5t55.5 84.5h87q-16 -96 -80.5 -142.5t-138.5 -47.5h-2h-2q-60 -1 -114.5 28t-80.5 84q-33 -57 -84.5 -84t-107.5 -27h-4h-4q-92 3 -168 74.5t-73 201.5q3 142 73 214t153 81q6 1 12 1.5
t12 0.5q59 0 110 -30t74 -86q37 51 85 77.5t98 30.5q5 1 9.5 1h9.5q90 0 161.5 -68t71.5 -196q0 -10 -0.5 -20.5t-1.5 -21.5h-386v0zM118 252q11 -106 54.5 -154t93.5 -48h1.5h1.5q56 1 103 53t53 141q6 104 -43 161.5t-109 58.5h-1.5h-1.5q-56 0 -102.5 -51t-49.5 -161v0z
M520 315h283q-11 74 -48.5 108t-82.5 34h-7.5t-7.5 -1q-44 -5 -83.5 -42t-53.5 -99v0z" />
    <glyph glyph-name="endash" horiz-adv-x="559" 
d="M-8 252v71h567v-71h-567v0z" />
    <glyph glyph-name="emdash" unicode="&#x2014;" horiz-adv-x="1000" 
d="M-16 323h1000h24v-87h-1000h-24v87v0z" />
    <glyph glyph-name="quotedblleft" unicode="&#x201c;" horiz-adv-x="331" 
d="M197 457v110q0 5 0.5 9.5t0.5 9.5q5 43 32 79t69 36v-40q-23 -11 -36 -32t-19 -62h47v-110h-94v0zM39 465v110q0 5 0.5 9.5t0.5 9.5q6 43 33 79t69 36v-40q-24 -11 -37 -32t-18 -62h47v-110h-95v0z" />
    <glyph glyph-name="quotedblright" unicode="&#x201d;" horiz-adv-x="331" 
d="M87 614h-48v103h95v-103q0 -47 -18 -87.5t-77 -46.5v40h0.5h0.5q3 1 5.5 2t5.5 2q15 6 27.5 23t8.5 67v0zM244 614h-47v103h94v-103q0 -47 -17.5 -87.5t-76.5 -46.5v40h0.5h0.5q3 1 6.5 2.5t6.5 2.5q13 5 23.5 18.5t10.5 47.5v10.5t-1 12.5v0z" />
    <glyph glyph-name="quoteleft" unicode="&#x2018;" horiz-adv-x="220" 
d="M63 465v110q0 5 0.5 9.5t0.5 9.5q5 43 32 79t69 36v-40q-23 -11 -36 -32t-19 -62h47v-110h-94v0z" />
    <glyph glyph-name="quoteright" unicode="&#x2019;" horiz-adv-x="220" 
d="M102 606h-47v103h95v-103q0 -47 -18 -87.5t-77 -46.5v40l6 2l6 2q13 5 24.5 18.5t11.5 47.5v11t-1 13v0z" />
    <glyph glyph-name="divide" unicode="&#xf7;" horiz-adv-x="583" 
 />
    <glyph glyph-name="lozenge" unicode="&#x25ca;" horiz-adv-x="500" 
 />
    <glyph glyph-name="ydieresis" unicode="&#xff;" horiz-adv-x="504" 
d="M47 -197v79q16 -2 29 -4t24 -2q30 0 49 21t36 83q1 3 2 6.5t2 6.5l-173 542h94l134 -409l150 409h94l-244 -653q-16 -42 -45.5 -64t-61.5 -28q-6 -1 -12.5 -1.5t-12.5 -0.5q-18 0 -34.5 4t-30.5 12v-1zM110 717h95v-103h-95v103v0zM283 717h95v-103h-95v103v0z" />
    <glyph glyph-name="Ydieresis" unicode="&#x178;" horiz-adv-x="500" 
 />
    <glyph glyph-name="fraction" unicode="&#x2215;" horiz-adv-x="500" 
 />
    <glyph glyph-name="currency" unicode="&#xa4;" horiz-adv-x="559" 
d="M496 488l-55 -55q17 -25 24.5 -47t7.5 -43q1 -23 -7.5 -47t-24.5 -52l55 -55l-63 -55l-55 55q-19 -16 -45.5 -24.5t-55.5 -9.5q-24 0 -46.5 6.5t-41.5 19.5l-55 -55l-55 63l47 47q-16 19 -25.5 47t-10.5 58v6.5t1 6.5q1 23 10 45.5t25 41.5l-55 55l55 63l63 -63
q20 14 43.5 20.5t48.5 6.5q27 0 52.5 -7t44.5 -20l55 55l63 -63v0zM268 441q-46 -8 -67 -37t-21 -63v-1.5v-1.5q0 -38 26 -70t70 -32q53 0 77.5 29.5t24.5 66.5v1.5v1.5q0 41 -29 75t-81 31v0z" />
    <glyph glyph-name="guilsinglleft" unicode="&#x2039;" horiz-adv-x="331" 
d="M87 323l157 118v-79l-102 -79l102 -86v-79l-157 118v87v0z" />
    <glyph glyph-name="guilsinglright" unicode="&#x203a;" horiz-adv-x="331" 
d="M181 283l-102 87v79l157 -118v-95l-157 -118v79l102 86v0z" />
    <glyph glyph-name="fi" unicode="&#xf001;" horiz-adv-x="504" 
d="M8 528h71v110q0 31 17 52.5t37 33.5q15 8 28 12t20 4h71v-79h-39q-24 0 -36 -5t-12 -34v-94h87v-79h-87v-449h-86v449h-71v79v0zM354 528h79v-528h-79v528v0zM354 732h87v-110h-87v110v0z" />
    <glyph glyph-name="fl" unicode="&#xf002;" horiz-adv-x="504" 
d="M16 528h71v102q0 33 25 62.5t55 41.5q8 3 15.5 4.5t14.5 1.5h63v-79h-40q-23 0 -35 -12.5t-12 -42.5v-78h87v-79h-87v-449h-79v449h-78v79v0zM346 732h87v-732h-87v732v0z" />
    <glyph glyph-name="daggerdbl" unicode="&#x2021;" horiz-adv-x="559" 
d="M39 520h197v212h103v-212h181v-87h-181v-307h173v-87h-173v-212h-103v212h-189v87h189v307h-197v87v0z" />
    <glyph glyph-name="periodcentered" unicode="&#x2219;" horiz-adv-x="346" 
d="M213 433q7 -12 10.5 -22.5t3.5 -20.5q0 -27 -20.5 -41.5t-45.5 -15.5h-1.5h-1.5q-14 0 -27 5t-21 16q-2 3 -4 6.5t-3 6.5q-3 7 -4.5 13.5t-1.5 12.5q0 27 20 45.5t45 18.5q14 0 27 -5.5t24 -18.5v0z" />
    <glyph glyph-name="quotesinglbase" unicode="&#x201a;" horiz-adv-x="500" 
 />
    <glyph glyph-name="quotedblbase" unicode="&#x201e;" horiz-adv-x="331" 
d="M94 8h-47v102h95v-102q0 -46 -18 -86.5t-77 -46.5v38q3 2 6 3l6 2q13 5 24.5 18.5t11.5 48.5v10.5t-1 12.5v0zM252 8h-47v102h94v-102q0 -46 -17.5 -86.5t-76.5 -46.5v38q3 2 6.5 3.5t7.5 2.5q13 6 23.5 19.5t10.5 47.5v10t-1 12v0z" />
    <glyph glyph-name="perthousand" unicode="&#x2030;" horiz-adv-x="1000" 
d="M827 283q76 0 112 -46t36 -102v-4.5v-4.5q-2 -55 -38 -100.5t-102 -48.5q-78 -3 -117.5 45t-40.5 106v2.5v3.5q2 55 39 101t111 48v0zM772 197q-7 -8 -12 -16t-9 -16q-3 -8 -4.5 -16t-1.5 -16q0 -35 26.5 -60.5t57.5 -28.5h3.5h2.5q15 0 29.5 6.5t25.5 20.5q6 7 10 14
t7 14q2 7 3.5 14t1.5 14q0 36 -27 62.5t-62 26.5q-13 1 -26 -3.5t-25 -15.5v0zM480 740h71l-394 -756h-70l393 756v0zM480 283q65 0 101 -47t38 -103v-3.5v-2.5q1 -54 -33 -98t-106 -44q-82 -3 -122 42t-40 101v4v4q3 55 44 101t118 46v0zM409 197q-6 -7 -10 -14.5t-7 -14.5
q-3 -8 -4 -15.5t-1 -14.5q-1 -36 25 -62.5t60 -27.5q14 0 28.5 5.5t27.5 17.5t19 26.5t6 30.5q1 35 -22.5 63.5t-60.5 28.5q-14 0 -29 -5t-32 -18v0zM150 732q76 -3 111 -49t35 -101q0 -56 -34 -102.5t-97 -46.5q-81 0 -124 47t-45 103v3.5v2.5q0 53 37.5 96.5t116.5 46.5v0
zM79 638q-9 -13 -13 -26.5t-4 -26.5q0 -37 28.5 -63.5t63.5 -26.5q16 0 31 6t28 19q14 14 20.5 29t6.5 30q0 36 -29 64t-66 28q-17 0 -34 -7.5t-32 -25.5v0z" />
    <glyph glyph-name="Acircumflex" unicode="&#xc2;" horiz-adv-x="669" 
d="M16 0l260 732h118l267 -732h-110l-79 213h-275l-71 -213h-110v0zM220 299h221l-102 307l-119 -307v0zM315 890l-79 -103h-71l103 158h94l103 -158h-71l-79 103v0z" />
    <glyph glyph-name="Ecircumflex" unicode="&#xca;" horiz-adv-x="669" 
d="M87 0v732h504v-78h-410v-237h394v-86h-394v-244h425v-87h-519v0zM346 890l-78 -103h-71l102 158h95l102 -158h-71l-79 103v0z" />
    <glyph glyph-name="Aacute" unicode="&#xc1;" horiz-adv-x="669" 
d="M8 0l260 732h118l268 -732h-111l-78 213h-276l-71 -213h-110v0zM213 299h220l-102 307l-118 -307v0zM252 795l102 158h111l-150 -158h-63v0z" />
    <glyph glyph-name="Edieresis" unicode="&#xcb;" horiz-adv-x="669" 
d="M94 0v732h504v-78h-409v-237h394v-86h-394v-244h425v-87h-520v0zM220 898h95v-103h-95v103v0zM394 898h94v-103h-94v103v0z" />
    <glyph glyph-name="Egrave" unicode="&#xc8;" horiz-adv-x="669" 
d="M87 0v732h504v-78h-410v-237h394v-86h-394v-244h425v-87h-519v0zM205 945h110l102 -150h-71l-141 150v0z" />
    <glyph glyph-name="Iacute" unicode="&#xcd;" 
d="M94 0v732h95v-732h-95v0zM63 803l102 158h111l-150 -158h-63v0z" />
    <glyph glyph-name="Icircumflex" unicode="&#xce;" 
d="M94 0v732h95v-732h-95v0zM142 898l-79 -103h-71l102 158h95l102 -158h-71l-78 103v0z" />
    <glyph glyph-name="Idieresis" unicode="&#xcf;" 
d="M94 0v732h95v-732h-95v0zM8 913h94v-102h-94v102v0zM181 913h95v-102h-95v102v0z" />
    <glyph glyph-name="Igrave" unicode="&#xcc;" 
d="M94 0v732h95v-732h-95v0zM8 945h110l102 -150h-70l-142 150v0z" />
    <glyph glyph-name="Oacute" unicode="&#xd3;" horiz-adv-x="780" 
d="M39 409q0 17 2 34t5 34q23 105 111.5 192t236.5 87q18 0 36 -1.5t36 -5.5q103 -19 190 -105t92 -266q0 -154 -94.5 -269.5t-283.5 -115.5q-165 0 -248 116.5t-83 299.5v0zM134 362q2 -24 7 -53t16 -59q21 -61 70 -112.5t143 -58.5q7 -1 13.5 -1.5t13.5 -0.5q99 0 177 84
t72 256q-6 101 -73 176.5t-179 75.5q-13 0 -26 -1.5t-26 -4.5q-78 -16 -143 -87.5t-65 -213.5v0zM299 795l103 158h110l-150 -158h-63v0z" />
    <glyph glyph-name="Ocircumflex" unicode="&#xd4;" horiz-adv-x="780" 
d="M31 409q0 17 2 34t5 34q23 105 111.5 192t236.5 87q18 0 36 -1.5t36 -5.5q103 -19 190 -105t92 -266q0 -154 -94.5 -269.5t-283.5 -115.5q-165 0 -248 116.5t-83 299.5v0zM126 362q2 -24 7 -53t16 -59q21 -61 70 -112.5t143 -58.5q7 -1 13.5 -1.5t13.5 -0.5q99 0 177 84
t72 256q-6 101 -73 176.5t-179 75.5q-13 0 -26 -1.5t-26 -4.5q-78 -16 -143 -87.5t-65 -213.5v0zM378 898l-79 -103h-71l103 158h94l103 -158h-71l-79 103v0z" />
    <glyph glyph-name="apple" unicode="&#xf000;" 
 />
    <glyph glyph-name="Ograve" unicode="&#xd2;" 
 />
    <glyph glyph-name="Uacute" unicode="&#xda;" horiz-adv-x="724" 
d="M79 220v520h102v-520q0 -79 56.5 -119t123.5 -40q68 0 125 40t57 119v520h103v-520q0 -112 -87.5 -172.5t-192.5 -62.5h-3.5h-2.5q-100 -1 -185 56t-96 179v0zM283 787l103 158h110l-150 -158h-63v0z" />
    <glyph glyph-name="Ucircumflex" unicode="&#xdb;" horiz-adv-x="724" 
d="M79 220v520h102v-520q0 -79 56.5 -119t123.5 -40q68 0 125 40t57 119v520h103v-520q0 -112 -87.5 -172.5t-192.5 -62.5h-3.5h-2.5q-100 -1 -185 56t-96 179v0zM354 890l-78 -103h-71l102 158h95l102 -158h-71l-79 103v0z" />
    <glyph glyph-name="Ugrave" unicode="&#xd9;" horiz-adv-x="724" 
d="M79 220v520h102v-520q0 -79 56.5 -119t123.5 -40q68 0 125 40t57 119v520h103v-520q0 -112 -87.5 -172.5t-192.5 -62.5h-3.5h-2.5q-100 -1 -185 56t-96 179v0zM220 945h111l102 -150h-71l-142 150v0z" />
    <glyph glyph-name="dotlessi" unicode="&#x131;" 
d="M87 528h86v-528h-86v528v0z" />
    <glyph glyph-name="circumflex" unicode="&#x2dc;" horiz-adv-x="331" 
d="M157 693l-78 -102h-71l102 157h95l102 -157h-71l-79 102v0z" />
    <glyph glyph-name="tilde" unicode="&#x2c6;" horiz-adv-x="331" 
d="M0 598q2 9 6 22.5t10 28.5q11 23 29 42.5t48 19.5h4t5 -1q2 0 4 -0.5t4 -0.5l79 -16q5 -1 8.5 -1.5t7.5 -1.5h4h4q19 0 32.5 10t22.5 32h47l-4 -14l-4 -14q-11 -31 -31.5 -57.5t-61.5 -26.5q-6 0 -12 0.5t-13 1.5l-79 16q-4 1 -8.5 1.5t-8.5 0.5q-20 0 -30.5 -11
t-15.5 -31h-47v0z" />
    <glyph glyph-name="macron" unicode="&#x2c9;" horiz-adv-x="500" 
 />
    <glyph glyph-name="breve" unicode="&#x2d8;" horiz-adv-x="331" 
d="M16 748h39q6 -23 20 -40t67 -23h78q24 0 44.5 14t26.5 49h40q-24 -100 -67.5 -117t-90.5 -17q-70 -6 -110.5 31.5t-46.5 102.5v0z" />
    <glyph glyph-name="dotaccent" unicode="&#x2d9;" horiz-adv-x="500" 
 />
    <glyph glyph-name="ring" unicode="&#x2da;" horiz-adv-x="331" 
d="M165 748q44 0 65.5 -27t22.5 -60q0 -34 -24 -61.5t-72 -24.5q-44 3 -64.5 27t-20.5 54v2.5v3.5q2 32 26.5 59t66.5 27v0zM110 661q0 -27 15.5 -40t34.5 -13h1.5h1.5q17 0 32 12t18 34v3.5v2.5q1 23 -13 35.5t-31 15.5h-2.5h-2.5q-19 0 -35 -12t-19 -38v0z" />
    <glyph glyph-name="cedilla" unicode="&#xb8;" horiz-adv-x="331" 
d="M173 0h47l-15 -55q6 2 12 2.5t11 0.5q36 1 54 -18.5t18 -45.5q0 -4 -0.5 -8t-1.5 -8q-6 -32 -37.5 -58.5t-89.5 -26.5q-26 0 -57 6.5t-67 22.5l24 46q32 -16 56.5 -22.5t41.5 -6.5q26 0 37.5 12t11.5 27v1.5v1.5q-1 14 -11 26t-24 12q-6 0 -12.5 -2.5t-13.5 -7.5l-15 7
l31 94v0z" />
    <glyph glyph-name="hungarumlaut" unicode="&#x2ba;" horiz-adv-x="500" 
 />
    <glyph glyph-name="ogonek" unicode="&#x2db;" horiz-adv-x="500" 
 />
    <glyph glyph-name="caron" unicode="&#x2c7;" horiz-adv-x="500" 
 />
    <glyph glyph-name="Lslash" unicode="&#x141;" horiz-adv-x="500" 
 />
    <glyph glyph-name="lslash" unicode="&#x142;" horiz-adv-x="500" 
 />
    <glyph glyph-name="Scaron" unicode="&#x160;" horiz-adv-x="500" 
 />
    <glyph glyph-name="scaron" unicode="&#x161;" horiz-adv-x="500" 
 />
    <glyph glyph-name="Zcaron" unicode="&#x17d;" horiz-adv-x="500" 
 />
    <glyph glyph-name="zcaron" unicode="&#x17e;" horiz-adv-x="500" 
 />
    <glyph glyph-name="brokenbar" unicode="&#xa6;" horiz-adv-x="165" 
d="M157 732v-952h-55v952h55v0z" />
    <glyph glyph-name="Eth" unicode="&#xd0;" horiz-adv-x="724" 
 />
    <glyph glyph-name="eth" unicode="&#xf0;" horiz-adv-x="559" 
 />
    <glyph glyph-name="Yacute" unicode="&#xdd;" 
 />
    <glyph glyph-name="yacute" unicode="&#xfd;" 
 />
    <glyph glyph-name="Thorn" unicode="&#xde;" horiz-adv-x="669" 
 />
    <glyph glyph-name="thorn" unicode="&#xfe;" horiz-adv-x="559" 
 />
    <glyph glyph-name="minus" unicode="&#x2212;" horiz-adv-x="500" 
 />
    <glyph glyph-name="multiply" unicode="&#xd7;" horiz-adv-x="500" 
 />
    <glyph glyph-name="onesuperior" unicode="&#xb9;" horiz-adv-x="331" 
 />
    <glyph glyph-name="twosuperior" unicode="&#xb2;" horiz-adv-x="331" 
 />
    <glyph glyph-name="threesuperior" unicode="&#xb3;" horiz-adv-x="331" 
 />
    <glyph glyph-name="onehalf" unicode="&#xbd;" horiz-adv-x="835" 
 />
    <glyph glyph-name="onequarter" unicode="&#xbc;" horiz-adv-x="835" 
 />
    <glyph glyph-name="threequarters" unicode="&#xbe;" horiz-adv-x="835" 
 />
    <glyph glyph-name="franc" unicode="&#x20a3;" horiz-adv-x="500" 
 />
    <glyph glyph-name="Gbreve" unicode="&#x11e;" 
 />
    <glyph glyph-name="gbreve" unicode="&#x11f;" 
 />
    <glyph glyph-name="Idot" unicode="&#x130;" 
 />
    <glyph glyph-name="Scedilla" unicode="&#x15e;" 
 />
    <glyph glyph-name="scedilla" unicode="&#x15f;" 
 />
    <glyph glyph-name="Cacute" unicode="&#x106;" 
 />
    <glyph glyph-name="cacute" unicode="&#x107;" 
 />
    <glyph glyph-name="Ccaron" unicode="&#x10c;" 
 />
    <glyph glyph-name="ccaron" unicode="&#x10d;" 
 />
    <glyph glyph-name="dslash" unicode="&#x111;" 
 />
    <glyph glyph-name="arrowright" unicode="&#x2192;" horiz-adv-x="500" 
 />
    <glyph glyph-name="house" unicode="&#x2302;" 
 />
    <glyph glyph-name="endash" unicode="&#x2013;" horiz-adv-x="559" 
d="M-8 252v71h567v-71h-567v0z" />
    <glyph glyph-name="sfthyphen" unicode="&#xad;" horiz-adv-x="500" 
 />
    <glyph glyph-name="filledbox" unicode="&#x25a0;" horiz-adv-x="500" 
 />
    <glyph glyph-name="bullet" unicode="&#x2022;" 
d="M71 441q18 22 40 33.5t45 13.5h4.5h5.5q50 0 92 -35.5t42 -87.5q0 -17 -5.5 -35.5t-18.5 -38.5q-19 -30 -47 -44t-57 -14q-49 0 -89.5 33.5t-40.5 87.5q-1 20 6 42t23 45v0z" />
    <glyph glyph-name="overstore" unicode="&#xaf;" 
 />
    <glyph glyph-name="degree" unicode="&#xb0;" horiz-adv-x="500" 
 />
    <glyph glyph-name="middot" unicode="&#xb7;" 
 />
    <glyph glyph-name="underscoredbl" unicode="&#x2017;" horiz-adv-x="500" 
 />
    <glyph glyph-name="exclamdbl" unicode="&#x203c;" horiz-adv-x="500" 
 />
    <glyph glyph-name="nsuperior" unicode="&#x207f;" horiz-adv-x="500" 
 />
    <glyph glyph-name="peseta" unicode="&#x20a7;" horiz-adv-x="500" 
 />
    <glyph glyph-name="Gamma" unicode="&#x393;" horiz-adv-x="500" 
 />
    <glyph glyph-name="Theta" unicode="&#x398;" horiz-adv-x="500" 
 />
    <glyph glyph-name="Phi" unicode="&#x3a6;" horiz-adv-x="500" 
 />
    <glyph glyph-name="alpha" unicode="&#x3b1;" horiz-adv-x="500" 
 />
    <glyph glyph-name="delta" unicode="&#x3b4;" horiz-adv-x="500" 
 />
    <glyph glyph-name="epsilon" unicode="&#x3b5;" horiz-adv-x="500" 
 />
    <glyph glyph-name="sigma" unicode="&#x3c3;" 
 />
    <glyph glyph-name="tau" unicode="&#x3c4;" horiz-adv-x="500" 
 />
    <glyph glyph-name="phi" unicode="&#x3c6;" 
 />
    <glyph glyph-name="arrowleft" unicode="&#x2190;" 
 />
    <glyph glyph-name="arrowup" unicode="&#x2191;" 
 />
    <glyph glyph-name="arrowdown" unicode="&#x2193;" 
 />
    <glyph glyph-name="arrowboth" unicode="&#x2194;" 
 />
    <glyph glyph-name="arrowupdn" unicode="&#x2195;" 
 />
    <glyph glyph-name="arrowupdnbase" unicode="&#x21a8;" 
 />
    <glyph glyph-name="orthogonal" unicode="&#x221f;" 
 />
    <glyph glyph-name="intersection" unicode="&#x2229;" 
 />
    <glyph glyph-name="equivalence" unicode="&#x2261;" 
 />
    <glyph glyph-name="revlogicalnot" unicode="&#x2310;" 
 />
    <glyph glyph-name="integraltp" unicode="&#x2320;" 
 />
    <glyph glyph-name="integralbt" unicode="&#x2321;" 
 />
    <glyph glyph-name="filledrect" unicode="&#x25ac;" 
 />
    <glyph glyph-name="circle" unicode="&#x25cb;" 
 />
    <glyph glyph-name="triagup" unicode="&#x25b2;" 
 />
    <glyph glyph-name="triagrt" unicode="&#x25ba;" 
 />
    <glyph glyph-name="triagdn" unicode="&#x25bc;" 
 />
    <glyph glyph-name="triaglf" unicode="&#x25c4;" 
 />
    <glyph glyph-name="invbullet" unicode="&#x25d8;" 
 />
    <glyph glyph-name="invcircle" unicode="&#x25d9;" 
 />
    <glyph glyph-name="Rcaron" unicode="&#x158;" 
 />
    <glyph glyph-name="upblock" unicode="&#x2580;" 
 />
    <glyph glyph-name="dnblock" unicode="&#x2584;" 
 />
    <glyph glyph-name="block" unicode="&#x2588;" 
 />
    <glyph glyph-name="lfblock" unicode="&#x258c;" 
 />
    <glyph glyph-name="rtblock" unicode="&#x2590;" 
 />
    <glyph glyph-name="ltshade" unicode="&#x2591;" 
 />
    <glyph glyph-name="shade" unicode="&#x2592;" 
 />
    <glyph glyph-name="dkshade" unicode="&#x2593;" 
 />
    <glyph glyph-name="smileface" unicode="&#x263a;" 
 />
    <glyph glyph-name="invsmileface" unicode="&#x263b;" 
 />
    <glyph glyph-name="sun" unicode="&#x263c;" 
 />
    <glyph glyph-name="female" unicode="&#x2640;" 
 />
    <glyph glyph-name="male" unicode="&#x2642;" 
 />
    <glyph glyph-name="spade" unicode="&#x2660;" 
 />
    <glyph glyph-name="club" unicode="&#x2663;" 
 />
    <glyph glyph-name="heart" unicode="&#x2665;" 
 />
    <glyph glyph-name="diamond" unicode="&#x2666;" 
 />
    <glyph glyph-name="musicalnote" unicode="&#x266a;" 
 />
    <glyph glyph-name="musicalnotedbl" unicode="&#x266b;" 
 />
    <glyph glyph-name="Abreve" unicode="&#x102;" 
 />
    <glyph glyph-name="abreve" unicode="&#x103;" 
 />
    <glyph glyph-name="Aogonek" unicode="&#x104;" 
 />
    <glyph glyph-name="aogonek" unicode="&#x105;" 
 />
    <glyph glyph-name="Dcaron" unicode="&#x10e;" 
 />
    <glyph glyph-name="dcaron" unicode="&#x10f;" 
 />
    <glyph glyph-name="Dslash" unicode="&#x110;" 
 />
    <glyph glyph-name="Eogonek" unicode="&#x118;" 
 />
    <glyph glyph-name="eogonek" unicode="&#x119;" 
 />
    <glyph glyph-name="Ecaron" unicode="&#x11a;" 
 />
    <glyph glyph-name="ecaron" unicode="&#x11b;" 
 />
    <glyph glyph-name="Lacute" unicode="&#x139;" 
 />
    <glyph glyph-name="lacute" unicode="&#x13a;" 
 />
    <glyph glyph-name="Lcaron" unicode="&#x13d;" 
 />
    <glyph glyph-name="lcaron" unicode="&#x13e;" 
 />
    <glyph glyph-name="Nacute" unicode="&#x143;" 
 />
    <glyph glyph-name="nacute" unicode="&#x144;" 
 />
    <glyph glyph-name="Ncaron" unicode="&#x147;" 
 />
    <glyph glyph-name="ncaron" unicode="&#x148;" 
 />
    <glyph glyph-name="Odblacute" unicode="&#x150;" 
 />
    <glyph glyph-name="odblacute" unicode="&#x151;" 
 />
    <glyph glyph-name="Racute" unicode="&#x154;" 
 />
    <glyph glyph-name="racute" unicode="&#x155;" 
 />
    <glyph glyph-name="rcaron" unicode="&#x159;" 
 />
    <glyph glyph-name="Sacute" unicode="&#x15a;" 
 />
    <glyph glyph-name="sacute" unicode="&#x15b;" 
 />
    <glyph glyph-name="Tcedilla" unicode="&#x162;" 
 />
    <glyph glyph-name="tcedilla" unicode="&#x163;" 
 />
    <glyph glyph-name="Tcaron" unicode="&#x164;" 
 />
    <glyph glyph-name="tcaron" unicode="&#x165;" 
 />
    <glyph glyph-name="Uring" unicode="&#x16e;" 
 />
    <glyph glyph-name="uring" unicode="&#x16f;" 
 />
    <glyph glyph-name="Udblacute" unicode="&#x171;" 
 />
    <glyph glyph-name="udblacute" unicode="&#x170;" 
 />
    <glyph glyph-name="Zacute" unicode="&#x179;" 
 />
    <glyph glyph-name="zacute" unicode="&#x17a;" 
 />
    <glyph glyph-name="Zdot" unicode="&#x17b;" 
 />
    <glyph glyph-name="zdot" unicode="&#x17c;" 
 />
    <glyph glyph-name="Ldot" unicode="&#x13f;" 
 />
    <glyph glyph-name="ldot" unicode="&#x140;" 
 />
    <glyph glyph-name="2500" unicode="&#x2500;" 
 />
    <glyph glyph-name="2502" unicode="&#x2502;" 
 />
    <glyph glyph-name="250c" unicode="&#x250c;" 
 />
    <glyph glyph-name="2510" unicode="&#x2510;" 
 />
    <glyph glyph-name="2514" unicode="&#x2514;" 
 />
    <glyph glyph-name="2518" unicode="&#x2518;" 
 />
    <glyph glyph-name="251c" unicode="&#x251c;" 
 />
    <glyph glyph-name="2524" unicode="&#x2524;" 
 />
    <glyph glyph-name="252c" unicode="&#x252c;" 
 />
    <glyph glyph-name="2534" unicode="&#x2534;" 
 />
    <glyph glyph-name="253c" unicode="&#x253c;" 
 />
    <glyph glyph-name="2550" unicode="&#x2550;" 
 />
    <glyph glyph-name="2551" unicode="&#x2551;" 
 />
    <glyph glyph-name="2552" unicode="&#x2552;" 
 />
    <glyph glyph-name="2553" unicode="&#x2553;" 
 />
    <glyph glyph-name="2554" unicode="&#x2554;" 
 />
    <glyph glyph-name="2555" unicode="&#x2555;" 
 />
    <glyph glyph-name="2556" unicode="&#x2556;" 
 />
    <glyph glyph-name="2557" unicode="&#x2557;" 
 />
    <glyph glyph-name="2558" unicode="&#x2558;" 
 />
    <glyph glyph-name="2559" unicode="&#x2559;" 
 />
    <glyph glyph-name="255a" unicode="&#x255a;" 
 />
    <glyph glyph-name="255b" unicode="&#x255b;" 
 />
    <glyph glyph-name="255c" unicode="&#x255c;" 
 />
    <glyph glyph-name="255d" unicode="&#x255d;" 
 />
    <glyph glyph-name="255e" unicode="&#x255e;" 
 />
    <glyph glyph-name="255f" unicode="&#x255f;" 
 />
    <glyph glyph-name="2560" unicode="&#x2560;" 
 />
    <glyph glyph-name="2561" unicode="&#x2561;" 
 />
    <glyph glyph-name="2562" unicode="&#x2562;" 
 />
    <glyph glyph-name="2563" unicode="&#x2563;" 
 />
    <glyph glyph-name="2564" unicode="&#x2564;" 
 />
    <glyph glyph-name="2565" unicode="&#x2565;" 
 />
    <glyph glyph-name="2566" unicode="&#x2566;" 
 />
    <glyph glyph-name="2567" unicode="&#x2567;" 
 />
    <glyph glyph-name="2568" unicode="&#x2568;" 
 />
    <glyph glyph-name="2569" unicode="&#x2569;" 
 />
    <glyph glyph-name="256a" unicode="&#x256a;" 
 />
    <glyph glyph-name="256b" unicode="&#x256b;" 
 />
    <glyph glyph-name="256c" unicode="&#x256c;" 
 />
    </font>
</defs>
</svg>
